#VERSION:0.83;
#TITLE:RHYTHM AND POLICE;
#SUBTITLE:(Hyper K Mix);
#ARTIST:CJ Crew FEATURING Christian D.;
#TITLETRANSLIT:;
#SUBTITLETRANSLIT:;
#ARTISTTRANSLIT:;
#GENRE:;
#ORIGIN:;
#CREDIT:;
#BANNER:RHYTHM AND POLICE (Hyper K Mix)-banner.png;
#BACKGROUND:RHYTHM AND POLICE (Hyper K Mix)-bg.png;
#PREVIEWVID:;
#JACKET:RHYTHM AND POLICE (Hyper K Mix)-jacket.jpg;
#CDIMAGE:;
#DISCIMAGE:;
#LYRICSPATH:;
#CDTITLE:cdtitle.png;
#MUSIC:RHYTHM AND POLICE (Hyper K Mix).ogg;
#OFFSET:0.000000;
#SAMPLESTART:63.478001;
#SAMPLELENGTH:12.386000;
#SELECTABLE:YES;
#BPMS:0.000=155.014;
#STOPS:;
#DELAYS:;
#WARPS:;
#TIMESIGNATURES:0.000=4=4;
#TICKCOUNTS:0.000=4;
#COMBOS:0.000=1;
#SPEEDS:0.000=1.000=0.000=0;
#SCROLLS:0.000=1.000;
#FAKES:;
#LABELS:0.000=Song Start;
#BGCHANGES:;
#KEYSOUNDS:;
#ATTACKS: TIME=23.22:LEN=0.02:MODS=*10000 150% Drunk: TIME=23.22:LEN=0.02:MODS=*4 -15% mini: TIME=23.42:LEN=0.02:MODS=*10000 -150% Drunk: TIME=23.42:LEN=0.02:MODS=*4 -15% mini: TIME=23.61:LEN=0.02:MODS=*10000 150% Drunk: TIME=23.61:LEN=0.02:MODS=*4 -15% mini: TIME=23.80:LEN=0.02:MODS=*10000 -150% Drunk: TIME=23.80:LEN=0.02:MODS=*4 -15% mini: TIME=23.90:LEN=0.02:MODS=*10000 150% Drunk: TIME=23.90:LEN=0.02:MODS=*4 -15% mini: TIME=24.09:LEN=0.02:MODS=*10000 -150% Drunk: TIME=24.09:LEN=0.02:MODS=*4 -15% mini: TIME=24.19:LEN=0.02:MODS=*10000 0% Drunk: TIME=24.19:LEN=0.01:MODS=*10000 0% mini: TIME=30.21:LEN=5.00:MODS=*100 200% Dizzy: TIME=30.31:LEN=5.00:MODS=*100 -200% Dizzy: TIME=30.40:LEN=5.00:MODS=*100 200% Dizzy: TIME=30.50:LEN=5.00:MODS=*100 0% Dizzy: TIME=30.60:LEN=5.00:MODS=*100 200% Dizzy: TIME=30.69:LEN=5.00:MODS=*100 -200% Dizzy: TIME=30.79:LEN=5.00:MODS=*100 200% Dizzy: TIME=30.89:LEN=5.00:MODS=*100 0% Dizzy: TIME=30.98:LEN=5.00:MODS=*100 200% Dizzy: TIME=31.08:LEN=5.00:MODS=*100 -200% Dizzy: TIME=31.18:LEN=5.00:MODS=*100 200% Dizzy: TIME=31.27:LEN=5.00:MODS=*100 -200% Dizzy: TIME=31.37:LEN=5.00:MODS=*100 200% Dizzy: TIME=31.47:LEN=5.00:MODS=*100 0% Dizzy: TIME=37.50:LEN=0.05:MODS=*10000 -50% mini: TIME=37.74:LEN=5.00:MODS=*100 0% mini: TIME=41.03:LEN=0.40:MODS=*10 50% drunk: TIME=41.42:LEN=0.40:MODS=*10 -100% drunk: TIME=41.80:LEN=5.00:MODS=*10 0% drunk: TIME=42.60:LEN=5.00:MODS=*100 200% Dizzy: TIME=42.69:LEN=5.00:MODS=*100 -200% Dizzy: TIME=42.79:LEN=5.00:MODS=*100 200% Dizzy: TIME=42.89:LEN=5.00:MODS=*100 0% Dizzy: TIME=42.98:LEN=5.00:MODS=*100 200% Dizzy: TIME=43.08:LEN=5.00:MODS=*100 -200% Dizzy: TIME=43.18:LEN=5.00:MODS=*100 200% Dizzy: TIME=43.27:LEN=5.00:MODS=*100 0% Dizzy: TIME=43.37:LEN=5.00:MODS=*100 200% Dizzy: TIME=43.47:LEN=5.00:MODS=*100 -200% Dizzy: TIME=43.56:LEN=5.00:MODS=*100 200% Dizzy: TIME=43.66:LEN=5.00:MODS=*100 -200% Dizzy: TIME=43.76:LEN=5.00:MODS=*100 200% Dizzy: TIME=43.85:LEN=5.00:MODS=*100 0% Dizzy: TIME=49.54:LEN=5.00:MODS=*10 15% dizzy: TIME=50.71:LEN=5.00:MODS=*1000 0% dizzy: TIME=57.28:LEN=1.00:MODS=*100 75% flip: TIME=57.28:LEN=1.00:MODS=*100 75% invert: TIME=57.28:LEN=0.05:MODS=*4 -15% mini: TIME=57.87:LEN=1.00:MODS=*100 0 invert: TIME=57.87:LEN=1.00:MODS=*100 0 flip: TIME=57.87:LEN=0.05:MODS=*6 -35% mini: TIME=58.25:LEN=1.00:MODS=*100 25% flip: TIME=58.25:LEN=1.00:MODS=*100 -75% invert: TIME=58.25:LEN=0.05:MODS=*8 -55% mini: TIME=58.64:LEN=1.00:MODS=*100 75% flip: TIME=58.64:LEN=1.00:MODS=*100 75% invert: TIME=58.64:LEN=0.05:MODS=*10 -75% mini: TIME=58.83:LEN=1.00:MODS=*100 0% flip: TIME=58.83:LEN=1.00:MODS=*100 0% invert: TIME=58.83:LEN=0.03:MODS=*8 -100% mini: TIME=60.38:LEN=0.05:MODS=*4 -15% mini: TIME=60.38:LEN=5.00:MODS=*1000 cross: TIME=60.96:LEN=0.05:MODS=*6 -35% mini: TIME=60.96:LEN=5.00:MODS=*1000 0% cross: TIME=61.35:LEN=0.05:MODS=*8 -55% mini: TIME=61.35:LEN=0.40:MODS=*1000 reverse: TIME=61.74:LEN=0.05:MODS=*10 -75% mini: TIME=61.74:LEN=0.20:MODS=*1000 100% centered: TIME=61.93:LEN=0.03:MODS=*8 -100% mini: TIME=74.32:LEN=0.02:MODS=*10000 150% Drunk: TIME=74.32:LEN=0.02:MODS=*4 -15% mini: TIME=74.51:LEN=0.02:MODS=*10000 -150% Drunk: TIME=74.51:LEN=0.02:MODS=*4 -15% mini: TIME=74.70:LEN=0.02:MODS=*10000 150% Drunk: TIME=74.70:LEN=0.02:MODS=*4 -15% mini: TIME=74.90:LEN=0.02:MODS=*10000 -150% Drunk: TIME=74.90:LEN=0.02:MODS=*4 -15% mini: TIME=74.99:LEN=0.02:MODS=*10000 150% Drunk: TIME=74.99:LEN=0.02:MODS=*4 -15% mini: TIME=75.19:LEN=0.02:MODS=*10000 -150% Drunk: TIME=75.19:LEN=0.02:MODS=*4 -15% mini: TIME=75.28:LEN=0.02:MODS=*10000 0% Drunk: TIME=75.28:LEN=0.01:MODS=*10000 0% mini: TIME=75.87:LEN=6.00:MODS=*0.5 20% drunk: TIME=92.91:LEN=5.00:MODS=*5 40% mini: TIME=93.11:LEN=5.00:MODS=*5 -20% mini: TIME=93.49:LEN=5.00:MODS=*5 50% mini: TIME=93.88:LEN=5.00:MODS=*5 -40% mini: TIME=94.27:LEN=5.00:MODS=*5 0% mini: TIME=94.46:LEN=5.00:MODS=*20 200% mini: TIME=10.86:LEN=0.30:MODS=*5 70% expand: TIME=11.05:LEN=0.50:MODS=*5 -70% expand: TIME=11.44:LEN=0.50:MODS=*5 70% expand: TIME=11.82:LEN=0.50:MODS=*5 0% expand 70% brake: TIME=12.21:LEN=0.30:MODS=*5 -70% brake: TIME=12.40:LEN=5.00:MODS=*10000 0% brake;

//---------------dance-single - ----------------
#NOTEDATA:;
#CHARTNAME:;
#STEPSTYPE:dance-single;
#DESCRIPTION:;
#CHARTSTYLE:;
#DIFFICULTY:Beginner;
#METER:2;
#RADARVALUES:0.116950,0.221244,0.176166,0.145078,0.000000,79.000000,62.000000,17.000000,14.000000,0.000000,0.000000,0.000000,0.000000,0.000000,0.116950,0.221244,0.176166,0.145078,0.000000,79.000000,62.000000,17.000000,14.000000,0.000000,0.000000,0.000000,0.000000,0.000000;
#CREDIT:Team Red Under Armour T-Shirt;
#ATTACKS:TIME=23.22:LEN=0.02:MODS=*10000 150% Drunk:TIME=23.22:LEN=0.02:MODS=*4 -15% mini:TIME=23.42:LEN=0.02:MODS=*10000 -150% Drunk:TIME=23.42:LEN=0.02:MODS=*4 -15% mini:TIME=23.61:LEN=0.02:MODS=*10000 150% Drunk:TIME=23.61:LEN=0.02:MODS=*4 -15% mini:TIME=23.80:LEN=0.02:MODS=*10000 -150% Drunk:TIME=23.80:LEN=0.02:MODS=*4 -15% mini:TIME=23.90:LEN=0.02:MODS=*10000 150% Drunk:TIME=23.90:LEN=0.02:MODS=*4 -15% mini:TIME=24.09:LEN=0.02:MODS=*10000 -150% Drunk:TIME=24.09:LEN=0.02:MODS=*4 -15% mini:TIME=24.19:LEN=0.02:MODS=*10000 0% Drunk:TIME=24.19:LEN=0.01:MODS=*10000 0% mini:TIME=30.21:LEN=5.00:MODS=*100 200% Dizzy:TIME=30.31:LEN=5.00:MODS=*100 -200% Dizzy:TIME=30.40:LEN=5.00:MODS=*100 200% Dizzy:TIME=30.50:LEN=5.00:MODS=*100 0% Dizzy:TIME=30.60:LEN=5.00:MODS=*100 200% Dizzy:TIME=30.69:LEN=5.00:MODS=*100 -200% Dizzy:TIME=30.79:LEN=5.00:MODS=*100 200% Dizzy:TIME=30.89:LEN=5.00:MODS=*100 0% Dizzy:TIME=30.98:LEN=5.00:MODS=*100 200% Dizzy:TIME=31.08:LEN=5.00:MODS=*100 -200% Dizzy:TIME=31.18:LEN=5.00:MODS=*100 200% Dizzy:TIME=31.27:LEN=5.00:MODS=*100 -200% Dizzy:TIME=31.37:LEN=5.00:MODS=*100 200% Dizzy:TIME=31.47:LEN=5.00:MODS=*100 0% Dizzy:TIME=37.50:LEN=0.05:MODS=*10000 -50% mini:TIME=37.74:LEN=5.00:MODS=*100 0% mini:TIME=41.03:LEN=0.40:MODS=*10 50% drunk:TIME=41.42:LEN=0.40:MODS=*10 -100% drunk:TIME=41.80:LEN=5.00:MODS=*10 0% drunk:TIME=42.60:LEN=5.00:MODS=*100 200% Dizzy:TIME=42.69:LEN=5.00:MODS=*100 -200% Dizzy:TIME=42.79:LEN=5.00:MODS=*100 200% Dizzy:TIME=42.89:LEN=5.00:MODS=*100 0% Dizzy:TIME=42.98:LEN=5.00:MODS=*100 200% Dizzy:TIME=43.08:LEN=5.00:MODS=*100 -200% Dizzy:TIME=43.18:LEN=5.00:MODS=*100 200% Dizzy:TIME=43.27:LEN=5.00:MODS=*100 0% Dizzy:TIME=43.37:LEN=5.00:MODS=*100 200% Dizzy:TIME=43.47:LEN=5.00:MODS=*100 -200% Dizzy:TIME=43.56:LEN=5.00:MODS=*100 200% Dizzy:TIME=43.66:LEN=5.00:MODS=*100 -200% Dizzy:TIME=43.76:LEN=5.00:MODS=*100 200% Dizzy:TIME=43.85:LEN=5.00:MODS=*100 0% Dizzy:TIME=49.54:LEN=5.00:MODS=*10 15% dizzy:TIME=50.71:LEN=5.00:MODS=*1000 0% dizzy:TIME=57.28:LEN=1.00:MODS=*100 75% flip:TIME=57.28:LEN=1.00:MODS=*100 75% invert:TIME=57.28:LEN=0.05:MODS=*4 -15% mini:TIME=57.87:LEN=1.00:MODS=*100 0 invert:TIME=57.87:LEN=1.00:MODS=*100 0 flip:TIME=57.87:LEN=0.05:MODS=*6 -35% mini:TIME=58.25:LEN=1.00:MODS=*100 25% flip:TIME=58.25:LEN=1.00:MODS=*100 -75% invert:TIME=58.25:LEN=0.05:MODS=*8 -55% mini:TIME=58.64:LEN=1.00:MODS=*100 75% flip:TIME=58.64:LEN=1.00:MODS=*100 75% invert:TIME=58.64:LEN=0.05:MODS=*10 -75% mini:TIME=58.83:LEN=1.00:MODS=*100 0% flip:TIME=58.83:LEN=1.00:MODS=*100 0% invert:TIME=58.83:LEN=0.03:MODS=*8 -100% mini:TIME=60.38:LEN=0.05:MODS=*4 -15% mini:TIME=60.38:LEN=5.00:MODS=*1000 cross:TIME=60.96:LEN=0.05:MODS=*6 -35% mini:TIME=60.96:LEN=5.00:MODS=*1000 0% cross:TIME=61.35:LEN=0.05:MODS=*8 -55% mini:TIME=61.35:LEN=0.40:MODS=*1000 reverse:TIME=61.74:LEN=0.05:MODS=*10 -75% mini:TIME=61.74:LEN=0.20:MODS=*1000 100% centered:TIME=61.93:LEN=0.03:MODS=*8 -100% mini:TIME=74.32:LEN=0.02:MODS=*10000 150% Drunk:TIME=74.32:LEN=0.02:MODS=*4 -15% mini:TIME=74.51:LEN=0.02:MODS=*10000 -150% Drunk:TIME=74.51:LEN=0.02:MODS=*4 -15% mini:TIME=74.70:LEN=0.02:MODS=*10000 150% Drunk:TIME=74.70:LEN=0.02:MODS=*4 -15% mini:TIME=74.90:LEN=0.02:MODS=*10000 -150% Drunk:TIME=74.90:LEN=0.02:MODS=*4 -15% mini:TIME=74.99:LEN=0.02:MODS=*10000 150% Drunk:TIME=74.99:LEN=0.02:MODS=*4 -15% mini:TIME=75.19:LEN=0.02:MODS=*10000 -150% Drunk:TIME=75.19:LEN=0.02:MODS=*4 -15% mini:TIME=75.28:LEN=0.02:MODS=*10000 0% Drunk:TIME=75.28:LEN=0.01:MODS=*10000 0% mini:TIME=75.87:LEN=6.00:MODS=*0.5 20% drunk:TIME=92.91:LEN=5.00:MODS=*5 40% mini:TIME=93.11:LEN=5.00:MODS=*5 -20% mini:TIME=93.49:LEN=5.00:MODS=*5 50% mini:TIME=93.88:LEN=5.00:MODS=*5 -40% mini:TIME=94.27:LEN=5.00:MODS=*5 0% mini:TIME=94.46:LEN=5.00:MODS=*20 200% mini:TIME=23.22:LEN=0.02:MODS=*10000 150% Drunk:TIME=23.22:LEN=0.02:MODS=*4 -15% mini:TIME=23.42:LEN=0.02:MODS=*10000 -150% Drunk:TIME=23.42:LEN=0.02:MODS=*4 -15% mini:TIME=23.61:LEN=0.02:MODS=*10000 150% Drunk:TIME=23.61:LEN=0.02:MODS=*4 -15% mini:TIME=23.80:LEN=0.02:MODS=*10000 -150% Drunk:TIME=23.80:LEN=0.02:MODS=*4 -15% mini:TIME=23.90:LEN=0.02:MODS=*10000 150% Drunk:TIME=23.90:LEN=0.02:MODS=*4 -15% mini:TIME=24.09:LEN=0.02:MODS=*10000 -150% Drunk:TIME=24.09:LEN=0.02:MODS=*4 -15% mini:TIME=24.19:LEN=0.02:MODS=*10000 0% Drunk:TIME=24.19:LEN=0.01:MODS=*10000 0% mini:TIME=30.21:LEN=5.00:MODS=*100 200% Dizzy:TIME=30.31:LEN=5.00:MODS=*100 -200% Dizzy:TIME=30.40:LEN=5.00:MODS=*100 200% Dizzy:TIME=30.50:LEN=5.00:MODS=*100 0% Dizzy:TIME=30.60:LEN=5.00:MODS=*100 200% Dizzy:TIME=30.69:LEN=5.00:MODS=*100 -200% Dizzy:TIME=30.79:LEN=5.00:MODS=*100 200% Dizzy:TIME=30.89:LEN=5.00:MODS=*100 0% Dizzy:TIME=30.98:LEN=5.00:MODS=*100 200% Dizzy:TIME=31.08:LEN=5.00:MODS=*100 -200% Dizzy:TIME=31.18:LEN=5.00:MODS=*100 200% Dizzy:TIME=31.27:LEN=5.00:MODS=*100 -200% Dizzy:TIME=31.37:LEN=5.00:MODS=*100 200% Dizzy:TIME=31.47:LEN=5.00:MODS=*100 0% Dizzy:TIME=37.50:LEN=0.05:MODS=*10000 -50% mini:TIME=37.74:LEN=5.00:MODS=*100 0% mini:TIME=41.03:LEN=0.40:MODS=*10 50% drunk:TIME=41.42:LEN=0.40:MODS=*10 -100% drunk:TIME=41.80:LEN=5.00:MODS=*10 0% drunk:TIME=42.60:LEN=5.00:MODS=*100 200% Dizzy:TIME=42.69:LEN=5.00:MODS=*100 -200% Dizzy:TIME=42.79:LEN=5.00:MODS=*100 200% Dizzy:TIME=42.89:LEN=5.00:MODS=*100 0% Dizzy:TIME=42.98:LEN=5.00:MODS=*100 200% Dizzy:TIME=43.08:LEN=5.00:MODS=*100 -200% Dizzy:TIME=43.18:LEN=5.00:MODS=*100 200% Dizzy:TIME=43.27:LEN=5.00:MODS=*100 0% Dizzy:TIME=43.37:LEN=5.00:MODS=*100 200% Dizzy:TIME=43.47:LEN=5.00:MODS=*100 -200% Dizzy:TIME=43.56:LEN=5.00:MODS=*100 200% Dizzy:TIME=43.66:LEN=5.00:MODS=*100 -200% Dizzy:TIME=43.76:LEN=5.00:MODS=*100 200% Dizzy:TIME=43.85:LEN=5.00:MODS=*100 0% Dizzy:TIME=49.54:LEN=5.00:MODS=*10 15% dizzy:TIME=50.71:LEN=5.00:MODS=*1000 0% dizzy:TIME=57.28:LEN=1.00:MODS=*100 75% flip:TIME=57.28:LEN=1.00:MODS=*100 75% invert:TIME=57.28:LEN=0.05:MODS=*4 -15% mini:TIME=57.87:LEN=1.00:MODS=*100 0 invert:TIME=57.87:LEN=1.00:MODS=*100 0 flip:TIME=57.87:LEN=0.05:MODS=*6 -35% mini:TIME=58.25:LEN=1.00:MODS=*100 25% flip:TIME=58.25:LEN=1.00:MODS=*100 -75% invert:TIME=58.25:LEN=0.05:MODS=*8 -55% mini:TIME=58.64:LEN=1.00:MODS=*100 75% flip:TIME=58.64:LEN=1.00:MODS=*100 75% invert:TIME=58.64:LEN=0.05:MODS=*10 -75% mini:TIME=58.83:LEN=1.00:MODS=*100 0% flip:TIME=58.83:LEN=1.00:MODS=*100 0% invert:TIME=58.83:LEN=0.03:MODS=*8 -100% mini:TIME=60.38:LEN=0.05:MODS=*4 -15% mini:TIME=60.38:LEN=5.00:MODS=*1000 cross:TIME=60.96:LEN=0.05:MODS=*6 -35% mini:TIME=60.96:LEN=5.00:MODS=*1000 0% cross:TIME=61.35:LEN=0.05:MODS=*8 -55% mini:TIME=61.35:LEN=0.40:MODS=*1000 reverse:TIME=61.74:LEN=0.05:MODS=*10 -75% mini:TIME=61.74:LEN=0.20:MODS=*1000 100% centered:TIME=61.93:LEN=0.03:MODS=*8 -100% mini:TIME=74.32:LEN=0.02:MODS=*10000 150% Drunk:TIME=74.32:LEN=0.02:MODS=*4 -15% mini:TIME=74.51:LEN=0.02:MODS=*10000 -150% Drunk:TIME=74.51:LEN=0.02:MODS=*4 -15% mini:TIME=74.70:LEN=0.02:MODS=*10000 150% Drunk:TIME=74.70:LEN=0.02:MODS=*4 -15% mini:TIME=74.90:LEN=0.02:MODS=*10000 -150% Drunk:TIME=74.90:LEN=0.02:MODS=*4 -15% mini:TIME=74.99:LEN=0.02:MODS=*10000 150% Drunk:TIME=74.99:LEN=0.02:MODS=*4 -15% mini:TIME=75.19:LEN=0.02:MODS=*10000 -150% Drunk:TIME=75.19:LEN=0.02:MODS=*4 -15% mini:TIME=75.28:LEN=0.02:MODS=*10000 0% Drunk:TIME=75.28:LEN=0.01:MODS=*10000 0% mini:TIME=75.87:LEN=6.00:MODS=*0.5 20% drunk:TIME=92.91:LEN=5.00:MODS=*5 40% mini:TIME=93.11:LEN=5.00:MODS=*5 -20% mini:TIME=93.49:LEN=5.00:MODS=*5 50% mini:TIME=93.88:LEN=5.00:MODS=*5 -40% mini:TIME=94.27:LEN=5.00:MODS=*5 0% mini:TIME=94.46:LEN=5.00:MODS=*20 200% mini:TIME=23.22:LEN=0.02:MODS=*10000 150% Drunk:TIME=23.22:LEN=0.02:MODS=*4 -15% mini:TIME=23.42:LEN=0.02:MODS=*10000 -150% Drunk:TIME=23.42:LEN=0.02:MODS=*4 -15% mini:TIME=23.61:LEN=0.02:MODS=*10000 150% Drunk:TIME=23.61:LEN=0.02:MODS=*4 -15% mini:TIME=23.80:LEN=0.02:MODS=*10000 -150% Drunk:TIME=23.80:LEN=0.02:MODS=*4 -15% mini:TIME=23.90:LEN=0.02:MODS=*10000 150% Drunk:TIME=23.90:LEN=0.02:MODS=*4 -15% mini:TIME=24.09:LEN=0.02:MODS=*10000 -150% Drunk:TIME=24.09:LEN=0.02:MODS=*4 -15% mini:TIME=24.19:LEN=0.02:MODS=*10000 0% Drunk:TIME=24.19:LEN=0.01:MODS=*10000 0% mini:TIME=30.21:LEN=5.00:MODS=*100 200% Dizzy:TIME=30.31:LEN=5.00:MODS=*100 -200% Dizzy:TIME=30.40:LEN=5.00:MODS=*100 200% Dizzy:TIME=30.50:LEN=5.00:MODS=*100 0% Dizzy:TIME=30.60:LEN=5.00:MODS=*100 200% Dizzy:TIME=30.69:LEN=5.00:MODS=*100 -200% Dizzy:TIME=30.79:LEN=5.00:MODS=*100 200% Dizzy:TIME=30.89:LEN=5.00:MODS=*100 0% Dizzy:TIME=30.98:LEN=5.00:MODS=*100 200% Dizzy:TIME=31.08:LEN=5.00:MODS=*100 -200% Dizzy:TIME=31.18:LEN=5.00:MODS=*100 200% Dizzy:TIME=31.27:LEN=5.00:MODS=*100 -200% Dizzy:TIME=31.37:LEN=5.00:MODS=*100 200% Dizzy:TIME=31.47:LEN=5.00:MODS=*100 0% Dizzy:TIME=37.50:LEN=0.05:MODS=*10000 -50% mini:TIME=37.74:LEN=5.00:MODS=*100 0% mini:TIME=41.03:LEN=0.40:MODS=*10 50% drunk:TIME=41.42:LEN=0.40:MODS=*10 -100% drunk:TIME=41.80:LEN=5.00:MODS=*10 0% drunk:TIME=42.60:LEN=5.00:MODS=*100 200% Dizzy:TIME=42.69:LEN=5.00:MODS=*100 -200% Dizzy:TIME=42.79:LEN=5.00:MODS=*100 200% Dizzy:TIME=42.89:LEN=5.00:MODS=*100 0% Dizzy:TIME=42.98:LEN=5.00:MODS=*100 200% Dizzy:TIME=43.08:LEN=5.00:MODS=*100 -200% Dizzy:TIME=43.18:LEN=5.00:MODS=*100 200% Dizzy:TIME=43.27:LEN=5.00:MODS=*100 0% Dizzy:TIME=43.37:LEN=5.00:MODS=*100 200% Dizzy:TIME=43.47:LEN=5.00:MODS=*100 -200% Dizzy:TIME=43.56:LEN=5.00:MODS=*100 200% Dizzy:TIME=43.66:LEN=5.00:MODS=*100 -200% Dizzy:TIME=43.76:LEN=5.00:MODS=*100 200% Dizzy:TIME=43.85:LEN=5.00:MODS=*100 0% Dizzy:TIME=49.54:LEN=5.00:MODS=*10 15% dizzy:TIME=50.71:LEN=5.00:MODS=*1000 0% dizzy:TIME=57.28:LEN=1.00:MODS=*100 75% flip:TIME=57.28:LEN=1.00:MODS=*100 75% invert:TIME=57.28:LEN=0.05:MODS=*4 -15% mini:TIME=57.87:LEN=1.00:MODS=*100 0 invert:TIME=57.87:LEN=1.00:MODS=*100 0 flip:TIME=57.87:LEN=0.05:MODS=*6 -35% mini:TIME=58.25:LEN=1.00:MODS=*100 25% flip:TIME=58.25:LEN=1.00:MODS=*100 -75% invert:TIME=58.25:LEN=0.05:MODS=*8 -55% mini:TIME=58.64:LEN=1.00:MODS=*100 75% flip:TIME=58.64:LEN=1.00:MODS=*100 75% invert:TIME=58.64:LEN=0.05:MODS=*10 -75% mini:TIME=58.83:LEN=1.00:MODS=*100 0% flip:TIME=58.83:LEN=1.00:MODS=*100 0% invert:TIME=58.83:LEN=0.03:MODS=*8 -100% mini:TIME=60.38:LEN=0.05:MODS=*4 -15% mini:TIME=60.38:LEN=5.00:MODS=*1000 cross:TIME=60.96:LEN=0.05:MODS=*6 -35% mini:TIME=60.96:LEN=5.00:MODS=*1000 0% cross:TIME=61.35:LEN=0.05:MODS=*8 -55% mini:TIME=61.35:LEN=0.40:MODS=*1000 reverse:TIME=61.74:LEN=0.05:MODS=*10 -75% mini:TIME=61.74:LEN=0.20:MODS=*1000 100% centered:TIME=61.93:LEN=0.03:MODS=*8 -100% mini:TIME=74.32:LEN=0.02:MODS=*10000 150% Drunk:TIME=74.32:LEN=0.02:MODS=*4 -15% mini:TIME=74.51:LEN=0.02:MODS=*10000 -150% Drunk:TIME=74.51:LEN=0.02:MODS=*4 -15% mini:TIME=74.70:LEN=0.02:MODS=*10000 150% Drunk:TIME=74.70:LEN=0.02:MODS=*4 -15% mini:TIME=74.90:LEN=0.02:MODS=*10000 -150% Drunk:TIME=74.90:LEN=0.02:MODS=*4 -15% mini:TIME=74.99:LEN=0.02:MODS=*10000 150% Drunk:TIME=74.99:LEN=0.02:MODS=*4 -15% mini:TIME=75.19:LEN=0.02:MODS=*10000 -150% Drunk:TIME=75.19:LEN=0.02:MODS=*4 -15% mini:TIME=75.28:LEN=0.02:MODS=*10000 0% Drunk:TIME=75.28:LEN=0.01:MODS=*10000 0% mini:TIME=75.87:LEN=6.00:MODS=*0.5 20% drunk:TIME=23.22:LEN=0.02:MODS=*10000 150% Drunk:TIME=23.22:LEN=0.02:MODS=*4 -15% mini:TIME=23.42:LEN=0.02:MODS=*10000 -150% Drunk:TIME=23.42:LEN=0.02:MODS=*4 -15% mini:TIME=23.61:LEN=0.02:MODS=*10000 150% Drunk:TIME=23.61:LEN=0.02:MODS=*4 -15% mini:TIME=23.80:LEN=0.02:MODS=*10000 -150% Drunk:TIME=23.80:LEN=0.02:MODS=*4 -15% mini:TIME=23.90:LEN=0.02:MODS=*10000 150% Drunk:TIME=23.90:LEN=0.02:MODS=*4 -15% mini:TIME=24.09:LEN=0.02:MODS=*10000 -150% Drunk:TIME=24.09:LEN=0.02:MODS=*4 -15% mini:TIME=24.19:LEN=0.02:MODS=*10000 0% Drunk:TIME=24.19:LEN=0.01:MODS=*10000 0% mini:TIME=30.21:LEN=5.00:MODS=*100 200% Dizzy:TIME=30.31:LEN=5.00:MODS=*100 -200% Dizzy:TIME=30.40:LEN=5.00:MODS=*100 200% Dizzy:TIME=30.50:LEN=5.00:MODS=*100 0% Dizzy:TIME=30.60:LEN=5.00:MODS=*100 200% Dizzy:TIME=30.69:LEN=5.00:MODS=*100 -200% Dizzy:TIME=30.79:LEN=5.00:MODS=*100 200% Dizzy:TIME=30.89:LEN=5.00:MODS=*100 0% Dizzy:TIME=30.98:LEN=5.00:MODS=*100 200% Dizzy:TIME=31.08:LEN=5.00:MODS=*100 -200% Dizzy:TIME=31.18:LEN=5.00:MODS=*100 200% Dizzy:TIME=31.27:LEN=5.00:MODS=*100 -200% Dizzy:TIME=31.37:LEN=5.00:MODS=*100 200% Dizzy:TIME=31.47:LEN=5.00:MODS=*100 0% Dizzy:TIME=37.50:LEN=0.05:MODS=*10000 -50% mini:TIME=37.74:LEN=5.00:MODS=*100 0% mini:TIME=41.03:LEN=0.40:MODS=*10 50% drunk:TIME=41.42:LEN=0.40:MODS=*10 -100% drunk:TIME=41.80:LEN=5.00:MODS=*10 0% drunk:TIME=42.60:LEN=5.00:MODS=*100 200% Dizzy:TIME=42.69:LEN=5.00:MODS=*100 -200% Dizzy:TIME=42.79:LEN=5.00:MODS=*100 200% Dizzy:TIME=42.89:LEN=5.00:MODS=*100 0% Dizzy:TIME=42.98:LEN=5.00:MODS=*100 200% Dizzy:TIME=43.08:LEN=5.00:MODS=*100 -200% Dizzy:TIME=43.18:LEN=5.00:MODS=*100 200% Dizzy:TIME=43.27:LEN=5.00:MODS=*100 0% Dizzy:TIME=43.37:LEN=5.00:MODS=*100 200% Dizzy:TIME=43.47:LEN=5.00:MODS=*100 -200% Dizzy:TIME=43.56:LEN=5.00:MODS=*100 200% Dizzy:TIME=43.66:LEN=5.00:MODS=*100 -200% Dizzy:TIME=43.76:LEN=5.00:MODS=*100 200% Dizzy:TIME=43.85:LEN=5.00:MODS=*100 0% Dizzy:TIME=49.54:LEN=5.00:MODS=*10 15% dizzy:TIME=50.71:LEN=5.00:MODS=*1000 0% dizzy:TIME=57.28:LEN=1.00:MODS=*100 75% flip:TIME=57.28:LEN=1.00:MODS=*100 75% invert:TIME=57.28:LEN=0.05:MODS=*4 -15% mini:TIME=57.87:LEN=1.00:MODS=*100 0 invert:TIME=57.87:LEN=1.00:MODS=*100 0 flip:TIME=57.87:LEN=0.05:MODS=*6 -35% mini:TIME=58.25:LEN=1.00:MODS=*100 25% flip:TIME=58.25:LEN=1.00:MODS=*100 -75% invert:TIME=58.25:LEN=0.05:MODS=*8 -55% mini:TIME=58.64:LEN=1.00:MODS=*100 75% flip:TIME=58.64:LEN=1.00:MODS=*100 75% invert:TIME=58.64:LEN=0.05:MODS=*10 -75% mini:TIME=58.83:LEN=1.00:MODS=*100 0% flip:TIME=58.83:LEN=1.00:MODS=*100 0% invert:TIME=58.83:LEN=0.03:MODS=*8 -100% mini:TIME=60.38:LEN=0.05:MODS=*4 -15% mini:TIME=60.38:LEN=5.00:MODS=*1000 cross:TIME=60.96:LEN=0.05:MODS=*6 -35% mini:TIME=60.96:LEN=5.00:MODS=*1000 0% cross:TIME=61.35:LEN=0.05:MODS=*8 -55% mini:TIME=61.35:LEN=0.40:MODS=*1000 reverse:TIME=61.74:LEN=0.05:MODS=*10 -75% mini:TIME=61.74:LEN=0.20:MODS=*1000 100% centered:TIME=61.93:LEN=0.03:MODS=*8 -100% mini:TIME=74.32:LEN=0.02:MODS=*10000 150% Drunk:TIME=74.32:LEN=0.02:MODS=*4 -15% mini:TIME=74.51:LEN=0.02:MODS=*10000 -150% Drunk:TIME=74.51:LEN=0.02:MODS=*4 -15% mini:TIME=74.70:LEN=0.02:MODS=*10000 150% Drunk:TIME=74.70:LEN=0.02:MODS=*4 -15% mini:TIME=74.90:LEN=0.02:MODS=*10000 -150% Drunk:TIME=74.90:LEN=0.02:MODS=*4 -15% mini:TIME=74.99:LEN=0.02:MODS=*10000 150% Drunk:TIME=74.99:LEN=0.02:MODS=*4 -15% mini:TIME=75.19:LEN=0.02:MODS=*10000 -150% Drunk:TIME=75.19:LEN=0.02:MODS=*4 -15% mini:TIME=75.28:LEN=0.02:MODS=*10000 0% Drunk:TIME=75.28:LEN=0.01:MODS=*10000 0% mini;
#NOTES:
0000
0000
0000
0000
,
0000
0000
0000
0000
,
0000
0000
0000
0000
,
0000
0000
0000
0000
,
0001
0000
0000
0000
,
0100
0000
0000
0000
,
0010
0000
0000
0000
,
1000
0000
0000
0000
,
1002
0000
0000
0000
0000
0003
0000
0000
,
2000
0000
0000
0000
0000
3000
0000
0000
,
0020
0000
0000
0000
0000
0030
0000
0000
,
0200
0000
0000
0000
0000
0300
0000
0000
,
0210
0000
0000
0000
0000
0300
0000
0000
,
0002
0000
0000
0000
0000
0003
0000
0000
,
0020
0000
0000
0000
0000
0030
0000
0000
,
0110
0000
0000
0000
,
1001
0000
0000
0000
,
1000
0000
0000
0000
,
0001
0000
0000
0000
,
0100
0000
0000
0000
,
0010
0000
0000
0000
,
0100
0000
0000
0000
,
0001
0000
0000
0000
,
1000
0000
0000
0000
,
1001
0000
0000
0000
,
1000
0000
0000
0000
,
0100
0000
0010
0010
,
0010
0000
0000
0000
,
0001
0000
0000
0000
,
1000
0000
0000
0000
,
0010
0000
0000
0000
,
0100
0000
0000
0000
,
0110
0000
0000
0000
,
1001
0000
0000
0000
,
0110
0000
0000
0000
,
1001
0000
0000
0000
,
0110
0000
0000
0000
,
1001
0000
0000
0100
,
0110
0000
0000
0000
,
0110
0000
0000
0010
,
1001
0000
0000
0000
,
2000
0000
0000
0000
0000
3000
0000
0000
,
0200
0000
0000
0000
0000
0300
0000
0000
,
0020
0000
0000
0000
0000
0030
0000
0000
,
0002
0000
0000
0000
0000
0003
0000
0000
,
0002
0000
0000
0000
0000
0003
0000
0000
,
0200
0000
0000
0000
0000
0300
0000
0000
,
0020
0000
0000
0000
0000
0030
0000
0000
,
0110
0000
0000
0000
,
1001
0000
0000
0000
,
0001
0000
0000
0000
,
1000
0000
0000
0000
,
0001
0000
0000
0000
,
0100
0000
0000
0000
,
0010
0000
0000
0000
,
0100
0000
0000
0000
,
0001
0000
0000
0000
,
1000
0000
0000
0000
,
0100
0000
0000
0000
,
0010
0000
0000
0000
,
0100
0000
0000
0000
,
1001
0000
0000
0000
;

//---------------dance-single - ----------------
#NOTEDATA:;
#CHARTNAME:;
#STEPSTYPE:dance-single;
#DESCRIPTION:;
#CHARTSTYLE:;
#DIFFICULTY:Easy;
#METER:5;
#RADARVALUES:0.288675,0.347668,0.186529,0.176166,0.000000,195.000000,177.000000,18.000000,17.000000,0.000000,0.000000,0.000000,0.000000,0.000000,0.288675,0.347668,0.186529,0.176166,0.000000,195.000000,177.000000,18.000000,17.000000,0.000000,0.000000,0.000000,0.000000,0.000000;
#CREDIT:Team Red Under Armour T-Shirt;
#ATTACKS:TIME=23.22:LEN=0.02:MODS=*10000 150% Drunk:TIME=23.22:LEN=0.02:MODS=*4 -15% mini:TIME=23.42:LEN=0.02:MODS=*10000 -150% Drunk:TIME=23.42:LEN=0.02:MODS=*4 -15% mini:TIME=23.61:LEN=0.02:MODS=*10000 150% Drunk:TIME=23.61:LEN=0.02:MODS=*4 -15% mini:TIME=23.80:LEN=0.02:MODS=*10000 -150% Drunk:TIME=23.80:LEN=0.02:MODS=*4 -15% mini:TIME=23.90:LEN=0.02:MODS=*10000 150% Drunk:TIME=23.90:LEN=0.02:MODS=*4 -15% mini:TIME=24.09:LEN=0.02:MODS=*10000 -150% Drunk:TIME=24.09:LEN=0.02:MODS=*4 -15% mini:TIME=24.19:LEN=0.02:MODS=*10000 0% Drunk:TIME=24.19:LEN=0.01:MODS=*10000 0% mini:TIME=30.21:LEN=5.00:MODS=*100 200% Dizzy:TIME=30.31:LEN=5.00:MODS=*100 -200% Dizzy:TIME=30.40:LEN=5.00:MODS=*100 200% Dizzy:TIME=30.50:LEN=5.00:MODS=*100 0% Dizzy:TIME=30.60:LEN=5.00:MODS=*100 200% Dizzy:TIME=30.69:LEN=5.00:MODS=*100 -200% Dizzy:TIME=30.79:LEN=5.00:MODS=*100 200% Dizzy:TIME=30.89:LEN=5.00:MODS=*100 0% Dizzy:TIME=30.98:LEN=5.00:MODS=*100 200% Dizzy:TIME=31.08:LEN=5.00:MODS=*100 -200% Dizzy:TIME=31.18:LEN=5.00:MODS=*100 200% Dizzy:TIME=31.27:LEN=5.00:MODS=*100 -200% Dizzy:TIME=31.37:LEN=5.00:MODS=*100 200% Dizzy:TIME=31.47:LEN=5.00:MODS=*100 0% Dizzy:TIME=37.50:LEN=0.05:MODS=*10000 -50% mini:TIME=37.74:LEN=5.00:MODS=*100 0% mini:TIME=41.03:LEN=0.40:MODS=*10 50% drunk:TIME=41.42:LEN=0.40:MODS=*10 -100% drunk:TIME=41.80:LEN=5.00:MODS=*10 0% drunk:TIME=42.60:LEN=5.00:MODS=*100 200% Dizzy:TIME=42.69:LEN=5.00:MODS=*100 -200% Dizzy:TIME=42.79:LEN=5.00:MODS=*100 200% Dizzy:TIME=42.89:LEN=5.00:MODS=*100 0% Dizzy:TIME=42.98:LEN=5.00:MODS=*100 200% Dizzy:TIME=43.08:LEN=5.00:MODS=*100 -200% Dizzy:TIME=43.18:LEN=5.00:MODS=*100 200% Dizzy:TIME=43.27:LEN=5.00:MODS=*100 0% Dizzy:TIME=43.37:LEN=5.00:MODS=*100 200% Dizzy:TIME=43.47:LEN=5.00:MODS=*100 -200% Dizzy:TIME=43.56:LEN=5.00:MODS=*100 200% Dizzy:TIME=43.66:LEN=5.00:MODS=*100 -200% Dizzy:TIME=43.76:LEN=5.00:MODS=*100 200% Dizzy:TIME=43.85:LEN=5.00:MODS=*100 0% Dizzy:TIME=49.54:LEN=5.00:MODS=*10 15% dizzy:TIME=50.71:LEN=5.00:MODS=*1000 0% dizzy:TIME=57.28:LEN=1.00:MODS=*100 75% flip:TIME=57.28:LEN=1.00:MODS=*100 75% invert:TIME=57.28:LEN=0.05:MODS=*4 -15% mini:TIME=57.87:LEN=1.00:MODS=*100 0 invert:TIME=57.87:LEN=1.00:MODS=*100 0 flip:TIME=57.87:LEN=0.05:MODS=*6 -35% mini:TIME=58.25:LEN=1.00:MODS=*100 25% flip:TIME=58.25:LEN=1.00:MODS=*100 -75% invert:TIME=58.25:LEN=0.05:MODS=*8 -55% mini:TIME=58.64:LEN=1.00:MODS=*100 75% flip:TIME=58.64:LEN=1.00:MODS=*100 75% invert:TIME=58.64:LEN=0.05:MODS=*10 -75% mini:TIME=58.83:LEN=1.00:MODS=*100 0% flip:TIME=58.83:LEN=1.00:MODS=*100 0% invert:TIME=58.83:LEN=0.03:MODS=*8 -100% mini:TIME=60.38:LEN=0.05:MODS=*4 -15% mini:TIME=60.38:LEN=5.00:MODS=*1000 cross:TIME=60.96:LEN=0.05:MODS=*6 -35% mini:TIME=60.96:LEN=5.00:MODS=*1000 0% cross:TIME=61.35:LEN=0.05:MODS=*8 -55% mini:TIME=61.35:LEN=0.40:MODS=*1000 reverse:TIME=61.74:LEN=0.05:MODS=*10 -75% mini:TIME=61.74:LEN=0.20:MODS=*1000 100% centered:TIME=61.93:LEN=0.03:MODS=*8 -100% mini:TIME=74.32:LEN=0.02:MODS=*10000 150% Drunk:TIME=74.32:LEN=0.02:MODS=*4 -15% mini:TIME=74.51:LEN=0.02:MODS=*10000 -150% Drunk:TIME=74.51:LEN=0.02:MODS=*4 -15% mini:TIME=74.70:LEN=0.02:MODS=*10000 150% Drunk:TIME=74.70:LEN=0.02:MODS=*4 -15% mini:TIME=74.90:LEN=0.02:MODS=*10000 -150% Drunk:TIME=74.90:LEN=0.02:MODS=*4 -15% mini:TIME=74.99:LEN=0.02:MODS=*10000 150% Drunk:TIME=74.99:LEN=0.02:MODS=*4 -15% mini:TIME=75.19:LEN=0.02:MODS=*10000 -150% Drunk:TIME=75.19:LEN=0.02:MODS=*4 -15% mini:TIME=75.28:LEN=0.02:MODS=*10000 0% Drunk:TIME=75.28:LEN=0.01:MODS=*10000 0% mini:TIME=75.87:LEN=6.00:MODS=*0.5 20% drunk:TIME=92.91:LEN=5.00:MODS=*5 40% mini:TIME=93.11:LEN=5.00:MODS=*5 -20% mini:TIME=93.49:LEN=5.00:MODS=*5 50% mini:TIME=93.88:LEN=5.00:MODS=*5 -40% mini:TIME=94.27:LEN=5.00:MODS=*5 0% mini:TIME=94.46:LEN=5.00:MODS=*20 200% mini:TIME=23.22:LEN=0.02:MODS=*10000 150% Drunk:TIME=23.22:LEN=0.02:MODS=*4 -15% mini:TIME=23.42:LEN=0.02:MODS=*10000 -150% Drunk:TIME=23.42:LEN=0.02:MODS=*4 -15% mini:TIME=23.61:LEN=0.02:MODS=*10000 150% Drunk:TIME=23.61:LEN=0.02:MODS=*4 -15% mini:TIME=23.80:LEN=0.02:MODS=*10000 -150% Drunk:TIME=23.80:LEN=0.02:MODS=*4 -15% mini:TIME=23.90:LEN=0.02:MODS=*10000 150% Drunk:TIME=23.90:LEN=0.02:MODS=*4 -15% mini:TIME=24.09:LEN=0.02:MODS=*10000 -150% Drunk:TIME=24.09:LEN=0.02:MODS=*4 -15% mini:TIME=24.19:LEN=0.02:MODS=*10000 0% Drunk:TIME=24.19:LEN=0.01:MODS=*10000 0% mini:TIME=30.21:LEN=5.00:MODS=*100 200% Dizzy:TIME=30.31:LEN=5.00:MODS=*100 -200% Dizzy:TIME=30.40:LEN=5.00:MODS=*100 200% Dizzy:TIME=30.50:LEN=5.00:MODS=*100 0% Dizzy:TIME=30.60:LEN=5.00:MODS=*100 200% Dizzy:TIME=30.69:LEN=5.00:MODS=*100 -200% Dizzy:TIME=30.79:LEN=5.00:MODS=*100 200% Dizzy:TIME=30.89:LEN=5.00:MODS=*100 0% Dizzy:TIME=30.98:LEN=5.00:MODS=*100 200% Dizzy:TIME=31.08:LEN=5.00:MODS=*100 -200% Dizzy:TIME=31.18:LEN=5.00:MODS=*100 200% Dizzy:TIME=31.27:LEN=5.00:MODS=*100 -200% Dizzy:TIME=31.37:LEN=5.00:MODS=*100 200% Dizzy:TIME=31.47:LEN=5.00:MODS=*100 0% Dizzy:TIME=37.50:LEN=0.05:MODS=*10000 -50% mini:TIME=37.74:LEN=5.00:MODS=*100 0% mini:TIME=41.03:LEN=0.40:MODS=*10 50% drunk:TIME=41.42:LEN=0.40:MODS=*10 -100% drunk:TIME=41.80:LEN=5.00:MODS=*10 0% drunk:TIME=42.60:LEN=5.00:MODS=*100 200% Dizzy:TIME=42.69:LEN=5.00:MODS=*100 -200% Dizzy:TIME=42.79:LEN=5.00:MODS=*100 200% Dizzy:TIME=42.89:LEN=5.00:MODS=*100 0% Dizzy:TIME=42.98:LEN=5.00:MODS=*100 200% Dizzy:TIME=43.08:LEN=5.00:MODS=*100 -200% Dizzy:TIME=43.18:LEN=5.00:MODS=*100 200% Dizzy:TIME=43.27:LEN=5.00:MODS=*100 0% Dizzy:TIME=43.37:LEN=5.00:MODS=*100 200% Dizzy:TIME=43.47:LEN=5.00:MODS=*100 -200% Dizzy:TIME=43.56:LEN=5.00:MODS=*100 200% Dizzy:TIME=43.66:LEN=5.00:MODS=*100 -200% Dizzy:TIME=43.76:LEN=5.00:MODS=*100 200% Dizzy:TIME=43.85:LEN=5.00:MODS=*100 0% Dizzy:TIME=49.54:LEN=5.00:MODS=*10 15% dizzy:TIME=50.71:LEN=5.00:MODS=*1000 0% dizzy:TIME=57.28:LEN=1.00:MODS=*100 75% flip:TIME=57.28:LEN=1.00:MODS=*100 75% invert:TIME=57.28:LEN=0.05:MODS=*4 -15% mini:TIME=57.87:LEN=1.00:MODS=*100 0 invert:TIME=57.87:LEN=1.00:MODS=*100 0 flip:TIME=57.87:LEN=0.05:MODS=*6 -35% mini:TIME=58.25:LEN=1.00:MODS=*100 25% flip:TIME=58.25:LEN=1.00:MODS=*100 -75% invert:TIME=58.25:LEN=0.05:MODS=*8 -55% mini:TIME=58.64:LEN=1.00:MODS=*100 75% flip:TIME=58.64:LEN=1.00:MODS=*100 75% invert:TIME=58.64:LEN=0.05:MODS=*10 -75% mini:TIME=58.83:LEN=1.00:MODS=*100 0% flip:TIME=58.83:LEN=1.00:MODS=*100 0% invert:TIME=58.83:LEN=0.03:MODS=*8 -100% mini:TIME=60.38:LEN=0.05:MODS=*4 -15% mini:TIME=60.38:LEN=5.00:MODS=*1000 cross:TIME=60.96:LEN=0.05:MODS=*6 -35% mini:TIME=60.96:LEN=5.00:MODS=*1000 0% cross:TIME=61.35:LEN=0.05:MODS=*8 -55% mini:TIME=61.35:LEN=0.40:MODS=*1000 reverse:TIME=61.74:LEN=0.05:MODS=*10 -75% mini:TIME=61.74:LEN=0.20:MODS=*1000 100% centered:TIME=61.93:LEN=0.03:MODS=*8 -100% mini:TIME=74.32:LEN=0.02:MODS=*10000 150% Drunk:TIME=74.32:LEN=0.02:MODS=*4 -15% mini:TIME=74.51:LEN=0.02:MODS=*10000 -150% Drunk:TIME=74.51:LEN=0.02:MODS=*4 -15% mini:TIME=74.70:LEN=0.02:MODS=*10000 150% Drunk:TIME=74.70:LEN=0.02:MODS=*4 -15% mini:TIME=74.90:LEN=0.02:MODS=*10000 -150% Drunk:TIME=74.90:LEN=0.02:MODS=*4 -15% mini:TIME=74.99:LEN=0.02:MODS=*10000 150% Drunk:TIME=74.99:LEN=0.02:MODS=*4 -15% mini:TIME=75.19:LEN=0.02:MODS=*10000 -150% Drunk:TIME=75.19:LEN=0.02:MODS=*4 -15% mini:TIME=75.28:LEN=0.02:MODS=*10000 0% Drunk:TIME=75.28:LEN=0.01:MODS=*10000 0% mini:TIME=75.87:LEN=6.00:MODS=*0.5 20% drunk:TIME=92.91:LEN=5.00:MODS=*5 40% mini:TIME=93.11:LEN=5.00:MODS=*5 -20% mini:TIME=93.49:LEN=5.00:MODS=*5 50% mini:TIME=93.88:LEN=5.00:MODS=*5 -40% mini:TIME=94.27:LEN=5.00:MODS=*5 0% mini:TIME=94.46:LEN=5.00:MODS=*20 200% mini:TIME=23.22:LEN=0.02:MODS=*10000 150% Drunk:TIME=23.22:LEN=0.02:MODS=*4 -15% mini:TIME=23.42:LEN=0.02:MODS=*10000 -150% Drunk:TIME=23.42:LEN=0.02:MODS=*4 -15% mini:TIME=23.61:LEN=0.02:MODS=*10000 150% Drunk:TIME=23.61:LEN=0.02:MODS=*4 -15% mini:TIME=23.80:LEN=0.02:MODS=*10000 -150% Drunk:TIME=23.80:LEN=0.02:MODS=*4 -15% mini:TIME=23.90:LEN=0.02:MODS=*10000 150% Drunk:TIME=23.90:LEN=0.02:MODS=*4 -15% mini:TIME=24.09:LEN=0.02:MODS=*10000 -150% Drunk:TIME=24.09:LEN=0.02:MODS=*4 -15% mini:TIME=24.19:LEN=0.02:MODS=*10000 0% Drunk:TIME=24.19:LEN=0.01:MODS=*10000 0% mini:TIME=30.21:LEN=5.00:MODS=*100 200% Dizzy:TIME=30.31:LEN=5.00:MODS=*100 -200% Dizzy:TIME=30.40:LEN=5.00:MODS=*100 200% Dizzy:TIME=30.50:LEN=5.00:MODS=*100 0% Dizzy:TIME=30.60:LEN=5.00:MODS=*100 200% Dizzy:TIME=30.69:LEN=5.00:MODS=*100 -200% Dizzy:TIME=30.79:LEN=5.00:MODS=*100 200% Dizzy:TIME=30.89:LEN=5.00:MODS=*100 0% Dizzy:TIME=30.98:LEN=5.00:MODS=*100 200% Dizzy:TIME=31.08:LEN=5.00:MODS=*100 -200% Dizzy:TIME=31.18:LEN=5.00:MODS=*100 200% Dizzy:TIME=31.27:LEN=5.00:MODS=*100 -200% Dizzy:TIME=31.37:LEN=5.00:MODS=*100 200% Dizzy:TIME=31.47:LEN=5.00:MODS=*100 0% Dizzy:TIME=37.50:LEN=0.05:MODS=*10000 -50% mini:TIME=37.74:LEN=5.00:MODS=*100 0% mini:TIME=41.03:LEN=0.40:MODS=*10 50% drunk:TIME=41.42:LEN=0.40:MODS=*10 -100% drunk:TIME=41.80:LEN=5.00:MODS=*10 0% drunk:TIME=42.60:LEN=5.00:MODS=*100 200% Dizzy:TIME=42.69:LEN=5.00:MODS=*100 -200% Dizzy:TIME=42.79:LEN=5.00:MODS=*100 200% Dizzy:TIME=42.89:LEN=5.00:MODS=*100 0% Dizzy:TIME=42.98:LEN=5.00:MODS=*100 200% Dizzy:TIME=43.08:LEN=5.00:MODS=*100 -200% Dizzy:TIME=43.18:LEN=5.00:MODS=*100 200% Dizzy:TIME=43.27:LEN=5.00:MODS=*100 0% Dizzy:TIME=43.37:LEN=5.00:MODS=*100 200% Dizzy:TIME=43.47:LEN=5.00:MODS=*100 -200% Dizzy:TIME=43.56:LEN=5.00:MODS=*100 200% Dizzy:TIME=43.66:LEN=5.00:MODS=*100 -200% Dizzy:TIME=43.76:LEN=5.00:MODS=*100 200% Dizzy:TIME=43.85:LEN=5.00:MODS=*100 0% Dizzy:TIME=49.54:LEN=5.00:MODS=*10 15% dizzy:TIME=50.71:LEN=5.00:MODS=*1000 0% dizzy:TIME=57.28:LEN=1.00:MODS=*100 75% flip:TIME=57.28:LEN=1.00:MODS=*100 75% invert:TIME=57.28:LEN=0.05:MODS=*4 -15% mini:TIME=57.87:LEN=1.00:MODS=*100 0 invert:TIME=57.87:LEN=1.00:MODS=*100 0 flip:TIME=57.87:LEN=0.05:MODS=*6 -35% mini:TIME=58.25:LEN=1.00:MODS=*100 25% flip:TIME=58.25:LEN=1.00:MODS=*100 -75% invert:TIME=58.25:LEN=0.05:MODS=*8 -55% mini:TIME=58.64:LEN=1.00:MODS=*100 75% flip:TIME=58.64:LEN=1.00:MODS=*100 75% invert:TIME=58.64:LEN=0.05:MODS=*10 -75% mini:TIME=58.83:LEN=1.00:MODS=*100 0% flip:TIME=58.83:LEN=1.00:MODS=*100 0% invert:TIME=58.83:LEN=0.03:MODS=*8 -100% mini:TIME=60.38:LEN=0.05:MODS=*4 -15% mini:TIME=60.38:LEN=5.00:MODS=*1000 cross:TIME=60.96:LEN=0.05:MODS=*6 -35% mini:TIME=60.96:LEN=5.00:MODS=*1000 0% cross:TIME=61.35:LEN=0.05:MODS=*8 -55% mini:TIME=61.35:LEN=0.40:MODS=*1000 reverse:TIME=61.74:LEN=0.05:MODS=*10 -75% mini:TIME=61.74:LEN=0.20:MODS=*1000 100% centered:TIME=61.93:LEN=0.03:MODS=*8 -100% mini:TIME=74.32:LEN=0.02:MODS=*10000 150% Drunk:TIME=74.32:LEN=0.02:MODS=*4 -15% mini:TIME=74.51:LEN=0.02:MODS=*10000 -150% Drunk:TIME=74.51:LEN=0.02:MODS=*4 -15% mini:TIME=74.70:LEN=0.02:MODS=*10000 150% Drunk:TIME=74.70:LEN=0.02:MODS=*4 -15% mini:TIME=74.90:LEN=0.02:MODS=*10000 -150% Drunk:TIME=74.90:LEN=0.02:MODS=*4 -15% mini:TIME=74.99:LEN=0.02:MODS=*10000 150% Drunk:TIME=74.99:LEN=0.02:MODS=*4 -15% mini:TIME=75.19:LEN=0.02:MODS=*10000 -150% Drunk:TIME=75.19:LEN=0.02:MODS=*4 -15% mini:TIME=75.28:LEN=0.02:MODS=*10000 0% Drunk:TIME=75.28:LEN=0.01:MODS=*10000 0% mini:TIME=75.87:LEN=6.00:MODS=*0.5 20% drunk:TIME=23.22:LEN=0.02:MODS=*10000 150% Drunk:TIME=23.22:LEN=0.02:MODS=*4 -15% mini:TIME=23.42:LEN=0.02:MODS=*10000 -150% Drunk:TIME=23.42:LEN=0.02:MODS=*4 -15% mini:TIME=23.61:LEN=0.02:MODS=*10000 150% Drunk:TIME=23.61:LEN=0.02:MODS=*4 -15% mini:TIME=23.80:LEN=0.02:MODS=*10000 -150% Drunk:TIME=23.80:LEN=0.02:MODS=*4 -15% mini:TIME=23.90:LEN=0.02:MODS=*10000 150% Drunk:TIME=23.90:LEN=0.02:MODS=*4 -15% mini:TIME=24.09:LEN=0.02:MODS=*10000 -150% Drunk:TIME=24.09:LEN=0.02:MODS=*4 -15% mini:TIME=24.19:LEN=0.02:MODS=*10000 0% Drunk:TIME=24.19:LEN=0.01:MODS=*10000 0% mini:TIME=30.21:LEN=5.00:MODS=*100 200% Dizzy:TIME=30.31:LEN=5.00:MODS=*100 -200% Dizzy:TIME=30.40:LEN=5.00:MODS=*100 200% Dizzy:TIME=30.50:LEN=5.00:MODS=*100 0% Dizzy:TIME=30.60:LEN=5.00:MODS=*100 200% Dizzy:TIME=30.69:LEN=5.00:MODS=*100 -200% Dizzy:TIME=30.79:LEN=5.00:MODS=*100 200% Dizzy:TIME=30.89:LEN=5.00:MODS=*100 0% Dizzy:TIME=30.98:LEN=5.00:MODS=*100 200% Dizzy:TIME=31.08:LEN=5.00:MODS=*100 -200% Dizzy:TIME=31.18:LEN=5.00:MODS=*100 200% Dizzy:TIME=31.27:LEN=5.00:MODS=*100 -200% Dizzy:TIME=31.37:LEN=5.00:MODS=*100 200% Dizzy:TIME=31.47:LEN=5.00:MODS=*100 0% Dizzy:TIME=37.50:LEN=0.05:MODS=*10000 -50% mini:TIME=37.74:LEN=5.00:MODS=*100 0% mini:TIME=41.03:LEN=0.40:MODS=*10 50% drunk:TIME=41.42:LEN=0.40:MODS=*10 -100% drunk:TIME=41.80:LEN=5.00:MODS=*10 0% drunk:TIME=42.60:LEN=5.00:MODS=*100 200% Dizzy:TIME=42.69:LEN=5.00:MODS=*100 -200% Dizzy:TIME=42.79:LEN=5.00:MODS=*100 200% Dizzy:TIME=42.89:LEN=5.00:MODS=*100 0% Dizzy:TIME=42.98:LEN=5.00:MODS=*100 200% Dizzy:TIME=43.08:LEN=5.00:MODS=*100 -200% Dizzy:TIME=43.18:LEN=5.00:MODS=*100 200% Dizzy:TIME=43.27:LEN=5.00:MODS=*100 0% Dizzy:TIME=43.37:LEN=5.00:MODS=*100 200% Dizzy:TIME=43.47:LEN=5.00:MODS=*100 -200% Dizzy:TIME=43.56:LEN=5.00:MODS=*100 200% Dizzy:TIME=43.66:LEN=5.00:MODS=*100 -200% Dizzy:TIME=43.76:LEN=5.00:MODS=*100 200% Dizzy:TIME=43.85:LEN=5.00:MODS=*100 0% Dizzy:TIME=49.54:LEN=5.00:MODS=*10 15% dizzy:TIME=50.71:LEN=5.00:MODS=*1000 0% dizzy:TIME=57.28:LEN=1.00:MODS=*100 75% flip:TIME=57.28:LEN=1.00:MODS=*100 75% invert:TIME=57.28:LEN=0.05:MODS=*4 -15% mini:TIME=57.87:LEN=1.00:MODS=*100 0 invert:TIME=57.87:LEN=1.00:MODS=*100 0 flip:TIME=57.87:LEN=0.05:MODS=*6 -35% mini:TIME=58.25:LEN=1.00:MODS=*100 25% flip:TIME=58.25:LEN=1.00:MODS=*100 -75% invert:TIME=58.25:LEN=0.05:MODS=*8 -55% mini:TIME=58.64:LEN=1.00:MODS=*100 75% flip:TIME=58.64:LEN=1.00:MODS=*100 75% invert:TIME=58.64:LEN=0.05:MODS=*10 -75% mini:TIME=58.83:LEN=1.00:MODS=*100 0% flip:TIME=58.83:LEN=1.00:MODS=*100 0% invert:TIME=58.83:LEN=0.03:MODS=*8 -100% mini:TIME=60.38:LEN=0.05:MODS=*4 -15% mini:TIME=60.38:LEN=5.00:MODS=*1000 cross:TIME=60.96:LEN=0.05:MODS=*6 -35% mini:TIME=60.96:LEN=5.00:MODS=*1000 0% cross:TIME=61.35:LEN=0.05:MODS=*8 -55% mini:TIME=61.35:LEN=0.40:MODS=*1000 reverse:TIME=61.74:LEN=0.05:MODS=*10 -75% mini:TIME=61.74:LEN=0.20:MODS=*1000 100% centered:TIME=61.93:LEN=0.03:MODS=*8 -100% mini:TIME=74.32:LEN=0.02:MODS=*10000 150% Drunk:TIME=74.32:LEN=0.02:MODS=*4 -15% mini:TIME=74.51:LEN=0.02:MODS=*10000 -150% Drunk:TIME=74.51:LEN=0.02:MODS=*4 -15% mini:TIME=74.70:LEN=0.02:MODS=*10000 150% Drunk:TIME=74.70:LEN=0.02:MODS=*4 -15% mini:TIME=74.90:LEN=0.02:MODS=*10000 -150% Drunk:TIME=74.90:LEN=0.02:MODS=*4 -15% mini:TIME=74.99:LEN=0.02:MODS=*10000 150% Drunk:TIME=74.99:LEN=0.02:MODS=*4 -15% mini:TIME=75.19:LEN=0.02:MODS=*10000 -150% Drunk:TIME=75.19:LEN=0.02:MODS=*4 -15% mini:TIME=75.28:LEN=0.02:MODS=*10000 0% Drunk:TIME=75.28:LEN=0.01:MODS=*10000 0% mini;
#NOTES:
0000
0000
0000
0000
,
0000
0000
0000
0000
,
0000
0000
0000
0000
,
0000
0000
0000
0000
,
1000
1000
0001
0010
,
0001
0001
0100
0010
,
0100
0001
0010
0100
,
1000
0000
0000
0001
0000
1000
0000
0000
,
0002
0000
0000
0103
,
0020
0000
0000
0130
,
0002
0000
0000
0013
,
0200
0000
0000
1300
,
2000
0000
0000
3010
,
0200
0000
0000
0310
,
2000
0000
0000
3100
,
0010
0000
0010
0000
0000
0110
0000
0000
,
1000
0100
1000
1000
,
0010
0100
0001
0001
,
0100
0001
0010
0100
,
1000
1000
0100
1000
,
0001
0001
0100
0100
,
0010
0100
0001
0110
,
1001
0001
0010
0010
,
0001
1000
0010
1000
,
1000
0200
0310
0100
,
1000
0001
0100
0020
,
0000
0030
0110
1001
,
0110
0000
1002
0003
,
0001
0010
0001
0100
,
0010
1000
0010
0100
,
0010
1000
0001
0010
,
0100
0100
0010
0100
,
0110
0000
0000
0000
,
1001
0000
0000
0001
,
0011
0000
0000
1000
,
1010
0000
0000
0001
,
0101
0000
0000
0000
,
1100
0000
0000
0011
0000
0000
0000
0001
,
0100
0000
0000
0000
,
0101
0000
0000
1010
0000
0000
0000
1000
,
0100
0100
0100
0100
,
2000
0000
0000
3010
,
0200
0000
0000
0310
,
2000
0000
0000
3100
,
0020
0000
0000
0031
,
0002
0000
0000
0103
,
0020
0000
0000
0130
,
0002
0000
0000
0013
,
0100
0000
0100
0000
0000
1001
0000
0000
,
1000
0100
0010
0001
,
1000
0010
0100
0001
,
1000
0001
0010
0100
,
1000
0001
0100
0010
,
1000
1000
0100
0010
,
0100
0100
1000
0001
,
0100
0100
0001
0100
,
0010
1000
0001
0010
,
0100
0100
0010
0001
,
0100
0100
0010
0010
,
1000
0001
1000
1000
,
0100
0000
0000
0100
0000
0010
0000
0100
,
0110
0000
0000
0000
;

//---------------dance-single - ----------------
#NOTEDATA:;
#CHARTNAME:;
#STEPSTYPE:dance-single;
#DESCRIPTION:;
#CHARTSTYLE:;
#DIFFICULTY:Medium;
#METER:9;
#RADARVALUES:0.389341,0.505700,0.196891,0.290155,0.108808,263.000000,244.000000,19.000000,28.000000,0.000000,0.000000,0.000000,0.000000,0.000000,0.389341,0.505700,0.196891,0.290155,0.108808,263.000000,244.000000,19.000000,28.000000,0.000000,0.000000,0.000000,0.000000,0.000000;
#CREDIT:Team Red Under Armour T-Shirt;
#ATTACKS:TIME=23.22:LEN=0.02:MODS=*10000 150% Drunk:TIME=23.22:LEN=0.02:MODS=*4 -15% mini:TIME=23.42:LEN=0.02:MODS=*10000 -150% Drunk:TIME=23.42:LEN=0.02:MODS=*4 -15% mini:TIME=23.61:LEN=0.02:MODS=*10000 150% Drunk:TIME=23.61:LEN=0.02:MODS=*4 -15% mini:TIME=23.80:LEN=0.02:MODS=*10000 -150% Drunk:TIME=23.80:LEN=0.02:MODS=*4 -15% mini:TIME=23.90:LEN=0.02:MODS=*10000 150% Drunk:TIME=23.90:LEN=0.02:MODS=*4 -15% mini:TIME=24.09:LEN=0.02:MODS=*10000 -150% Drunk:TIME=24.09:LEN=0.02:MODS=*4 -15% mini:TIME=24.19:LEN=0.02:MODS=*10000 0% Drunk:TIME=24.19:LEN=0.01:MODS=*10000 0% mini:TIME=30.21:LEN=5.00:MODS=*100 200% Dizzy:TIME=30.31:LEN=5.00:MODS=*100 -200% Dizzy:TIME=30.40:LEN=5.00:MODS=*100 200% Dizzy:TIME=30.50:LEN=5.00:MODS=*100 0% Dizzy:TIME=30.60:LEN=5.00:MODS=*100 200% Dizzy:TIME=30.69:LEN=5.00:MODS=*100 -200% Dizzy:TIME=30.79:LEN=5.00:MODS=*100 200% Dizzy:TIME=30.89:LEN=5.00:MODS=*100 0% Dizzy:TIME=30.98:LEN=5.00:MODS=*100 200% Dizzy:TIME=31.08:LEN=5.00:MODS=*100 -200% Dizzy:TIME=31.18:LEN=5.00:MODS=*100 200% Dizzy:TIME=31.27:LEN=5.00:MODS=*100 -200% Dizzy:TIME=31.37:LEN=5.00:MODS=*100 200% Dizzy:TIME=31.47:LEN=5.00:MODS=*100 0% Dizzy:TIME=37.50:LEN=0.05:MODS=*10000 -50% mini:TIME=37.74:LEN=5.00:MODS=*100 0% mini:TIME=41.03:LEN=0.40:MODS=*10 50% drunk:TIME=41.42:LEN=0.40:MODS=*10 -100% drunk:TIME=41.80:LEN=5.00:MODS=*10 0% drunk:TIME=42.60:LEN=5.00:MODS=*100 200% Dizzy:TIME=42.69:LEN=5.00:MODS=*100 -200% Dizzy:TIME=42.79:LEN=5.00:MODS=*100 200% Dizzy:TIME=42.89:LEN=5.00:MODS=*100 0% Dizzy:TIME=42.98:LEN=5.00:MODS=*100 200% Dizzy:TIME=43.08:LEN=5.00:MODS=*100 -200% Dizzy:TIME=43.18:LEN=5.00:MODS=*100 200% Dizzy:TIME=43.27:LEN=5.00:MODS=*100 0% Dizzy:TIME=43.37:LEN=5.00:MODS=*100 200% Dizzy:TIME=43.47:LEN=5.00:MODS=*100 -200% Dizzy:TIME=43.56:LEN=5.00:MODS=*100 200% Dizzy:TIME=43.66:LEN=5.00:MODS=*100 -200% Dizzy:TIME=43.76:LEN=5.00:MODS=*100 200% Dizzy:TIME=43.85:LEN=5.00:MODS=*100 0% Dizzy:TIME=49.54:LEN=5.00:MODS=*10 15% dizzy:TIME=50.71:LEN=5.00:MODS=*1000 0% dizzy:TIME=57.28:LEN=1.00:MODS=*100 75% flip:TIME=57.28:LEN=1.00:MODS=*100 75% invert:TIME=57.28:LEN=0.05:MODS=*4 -15% mini:TIME=57.87:LEN=1.00:MODS=*100 0 invert:TIME=57.87:LEN=1.00:MODS=*100 0 flip:TIME=57.87:LEN=0.05:MODS=*6 -35% mini:TIME=58.25:LEN=1.00:MODS=*100 25% flip:TIME=58.25:LEN=1.00:MODS=*100 -75% invert:TIME=58.25:LEN=0.05:MODS=*8 -55% mini:TIME=58.64:LEN=1.00:MODS=*100 75% flip:TIME=58.64:LEN=1.00:MODS=*100 75% invert:TIME=58.64:LEN=0.05:MODS=*10 -75% mini:TIME=58.83:LEN=1.00:MODS=*100 0% flip:TIME=58.83:LEN=1.00:MODS=*100 0% invert:TIME=58.83:LEN=0.03:MODS=*8 -100% mini:TIME=60.38:LEN=0.05:MODS=*4 -15% mini:TIME=60.38:LEN=5.00:MODS=*1000 cross:TIME=60.96:LEN=0.05:MODS=*6 -35% mini:TIME=60.96:LEN=5.00:MODS=*1000 0% cross:TIME=61.35:LEN=0.05:MODS=*8 -55% mini:TIME=61.35:LEN=0.40:MODS=*1000 reverse:TIME=61.74:LEN=0.05:MODS=*10 -75% mini:TIME=61.74:LEN=0.20:MODS=*1000 100% centered:TIME=61.93:LEN=0.03:MODS=*8 -100% mini:TIME=74.32:LEN=0.02:MODS=*10000 150% Drunk:TIME=74.32:LEN=0.02:MODS=*4 -15% mini:TIME=74.51:LEN=0.02:MODS=*10000 -150% Drunk:TIME=74.51:LEN=0.02:MODS=*4 -15% mini:TIME=74.70:LEN=0.02:MODS=*10000 150% Drunk:TIME=74.70:LEN=0.02:MODS=*4 -15% mini:TIME=74.90:LEN=0.02:MODS=*10000 -150% Drunk:TIME=74.90:LEN=0.02:MODS=*4 -15% mini:TIME=74.99:LEN=0.02:MODS=*10000 150% Drunk:TIME=74.99:LEN=0.02:MODS=*4 -15% mini:TIME=75.19:LEN=0.02:MODS=*10000 -150% Drunk:TIME=75.19:LEN=0.02:MODS=*4 -15% mini:TIME=75.28:LEN=0.02:MODS=*10000 0% Drunk:TIME=75.28:LEN=0.01:MODS=*10000 0% mini:TIME=75.87:LEN=6.00:MODS=*0.5 20% drunk:TIME=92.91:LEN=5.00:MODS=*5 40% mini:TIME=93.11:LEN=5.00:MODS=*5 -20% mini:TIME=93.49:LEN=5.00:MODS=*5 50% mini:TIME=93.88:LEN=5.00:MODS=*5 -40% mini:TIME=94.27:LEN=5.00:MODS=*5 0% mini:TIME=94.46:LEN=5.00:MODS=*20 200% mini:TIME=23.22:LEN=0.02:MODS=*10000 150% Drunk:TIME=23.22:LEN=0.02:MODS=*4 -15% mini:TIME=23.42:LEN=0.02:MODS=*10000 -150% Drunk:TIME=23.42:LEN=0.02:MODS=*4 -15% mini:TIME=23.61:LEN=0.02:MODS=*10000 150% Drunk:TIME=23.61:LEN=0.02:MODS=*4 -15% mini:TIME=23.80:LEN=0.02:MODS=*10000 -150% Drunk:TIME=23.80:LEN=0.02:MODS=*4 -15% mini:TIME=23.90:LEN=0.02:MODS=*10000 150% Drunk:TIME=23.90:LEN=0.02:MODS=*4 -15% mini:TIME=24.09:LEN=0.02:MODS=*10000 -150% Drunk:TIME=24.09:LEN=0.02:MODS=*4 -15% mini:TIME=24.19:LEN=0.02:MODS=*10000 0% Drunk:TIME=24.19:LEN=0.01:MODS=*10000 0% mini:TIME=30.21:LEN=5.00:MODS=*100 200% Dizzy:TIME=30.31:LEN=5.00:MODS=*100 -200% Dizzy:TIME=30.40:LEN=5.00:MODS=*100 200% Dizzy:TIME=30.50:LEN=5.00:MODS=*100 0% Dizzy:TIME=30.60:LEN=5.00:MODS=*100 200% Dizzy:TIME=30.69:LEN=5.00:MODS=*100 -200% Dizzy:TIME=30.79:LEN=5.00:MODS=*100 200% Dizzy:TIME=30.89:LEN=5.00:MODS=*100 0% Dizzy:TIME=30.98:LEN=5.00:MODS=*100 200% Dizzy:TIME=31.08:LEN=5.00:MODS=*100 -200% Dizzy:TIME=31.18:LEN=5.00:MODS=*100 200% Dizzy:TIME=31.27:LEN=5.00:MODS=*100 -200% Dizzy:TIME=31.37:LEN=5.00:MODS=*100 200% Dizzy:TIME=31.47:LEN=5.00:MODS=*100 0% Dizzy:TIME=37.50:LEN=0.05:MODS=*10000 -50% mini:TIME=37.74:LEN=5.00:MODS=*100 0% mini:TIME=41.03:LEN=0.40:MODS=*10 50% drunk:TIME=41.42:LEN=0.40:MODS=*10 -100% drunk:TIME=41.80:LEN=5.00:MODS=*10 0% drunk:TIME=42.60:LEN=5.00:MODS=*100 200% Dizzy:TIME=42.69:LEN=5.00:MODS=*100 -200% Dizzy:TIME=42.79:LEN=5.00:MODS=*100 200% Dizzy:TIME=42.89:LEN=5.00:MODS=*100 0% Dizzy:TIME=42.98:LEN=5.00:MODS=*100 200% Dizzy:TIME=43.08:LEN=5.00:MODS=*100 -200% Dizzy:TIME=43.18:LEN=5.00:MODS=*100 200% Dizzy:TIME=43.27:LEN=5.00:MODS=*100 0% Dizzy:TIME=43.37:LEN=5.00:MODS=*100 200% Dizzy:TIME=43.47:LEN=5.00:MODS=*100 -200% Dizzy:TIME=43.56:LEN=5.00:MODS=*100 200% Dizzy:TIME=43.66:LEN=5.00:MODS=*100 -200% Dizzy:TIME=43.76:LEN=5.00:MODS=*100 200% Dizzy:TIME=43.85:LEN=5.00:MODS=*100 0% Dizzy:TIME=49.54:LEN=5.00:MODS=*10 15% dizzy:TIME=50.71:LEN=5.00:MODS=*1000 0% dizzy:TIME=57.28:LEN=1.00:MODS=*100 75% flip:TIME=57.28:LEN=1.00:MODS=*100 75% invert:TIME=57.28:LEN=0.05:MODS=*4 -15% mini:TIME=57.87:LEN=1.00:MODS=*100 0 invert:TIME=57.87:LEN=1.00:MODS=*100 0 flip:TIME=57.87:LEN=0.05:MODS=*6 -35% mini:TIME=58.25:LEN=1.00:MODS=*100 25% flip:TIME=58.25:LEN=1.00:MODS=*100 -75% invert:TIME=58.25:LEN=0.05:MODS=*8 -55% mini:TIME=58.64:LEN=1.00:MODS=*100 75% flip:TIME=58.64:LEN=1.00:MODS=*100 75% invert:TIME=58.64:LEN=0.05:MODS=*10 -75% mini:TIME=58.83:LEN=1.00:MODS=*100 0% flip:TIME=58.83:LEN=1.00:MODS=*100 0% invert:TIME=58.83:LEN=0.03:MODS=*8 -100% mini:TIME=60.38:LEN=0.05:MODS=*4 -15% mini:TIME=60.38:LEN=5.00:MODS=*1000 cross:TIME=60.96:LEN=0.05:MODS=*6 -35% mini:TIME=60.96:LEN=5.00:MODS=*1000 0% cross:TIME=61.35:LEN=0.05:MODS=*8 -55% mini:TIME=61.35:LEN=0.40:MODS=*1000 reverse:TIME=61.74:LEN=0.05:MODS=*10 -75% mini:TIME=61.74:LEN=0.20:MODS=*1000 100% centered:TIME=61.93:LEN=0.03:MODS=*8 -100% mini:TIME=74.32:LEN=0.02:MODS=*10000 150% Drunk:TIME=74.32:LEN=0.02:MODS=*4 -15% mini:TIME=74.51:LEN=0.02:MODS=*10000 -150% Drunk:TIME=74.51:LEN=0.02:MODS=*4 -15% mini:TIME=74.70:LEN=0.02:MODS=*10000 150% Drunk:TIME=74.70:LEN=0.02:MODS=*4 -15% mini:TIME=74.90:LEN=0.02:MODS=*10000 -150% Drunk:TIME=74.90:LEN=0.02:MODS=*4 -15% mini:TIME=74.99:LEN=0.02:MODS=*10000 150% Drunk:TIME=74.99:LEN=0.02:MODS=*4 -15% mini:TIME=75.19:LEN=0.02:MODS=*10000 -150% Drunk:TIME=75.19:LEN=0.02:MODS=*4 -15% mini:TIME=75.28:LEN=0.02:MODS=*10000 0% Drunk:TIME=75.28:LEN=0.01:MODS=*10000 0% mini:TIME=75.87:LEN=6.00:MODS=*0.5 20% drunk:TIME=92.91:LEN=5.00:MODS=*5 40% mini:TIME=93.11:LEN=5.00:MODS=*5 -20% mini:TIME=93.49:LEN=5.00:MODS=*5 50% mini:TIME=93.88:LEN=5.00:MODS=*5 -40% mini:TIME=94.27:LEN=5.00:MODS=*5 0% mini:TIME=94.46:LEN=5.00:MODS=*20 200% mini:TIME=23.22:LEN=0.02:MODS=*10000 150% Drunk:TIME=23.22:LEN=0.02:MODS=*4 -15% mini:TIME=23.42:LEN=0.02:MODS=*10000 -150% Drunk:TIME=23.42:LEN=0.02:MODS=*4 -15% mini:TIME=23.61:LEN=0.02:MODS=*10000 150% Drunk:TIME=23.61:LEN=0.02:MODS=*4 -15% mini:TIME=23.80:LEN=0.02:MODS=*10000 -150% Drunk:TIME=23.80:LEN=0.02:MODS=*4 -15% mini:TIME=23.90:LEN=0.02:MODS=*10000 150% Drunk:TIME=23.90:LEN=0.02:MODS=*4 -15% mini:TIME=24.09:LEN=0.02:MODS=*10000 -150% Drunk:TIME=24.09:LEN=0.02:MODS=*4 -15% mini:TIME=24.19:LEN=0.02:MODS=*10000 0% Drunk:TIME=24.19:LEN=0.01:MODS=*10000 0% mini:TIME=30.21:LEN=5.00:MODS=*100 200% Dizzy:TIME=30.31:LEN=5.00:MODS=*100 -200% Dizzy:TIME=30.40:LEN=5.00:MODS=*100 200% Dizzy:TIME=30.50:LEN=5.00:MODS=*100 0% Dizzy:TIME=30.60:LEN=5.00:MODS=*100 200% Dizzy:TIME=30.69:LEN=5.00:MODS=*100 -200% Dizzy:TIME=30.79:LEN=5.00:MODS=*100 200% Dizzy:TIME=30.89:LEN=5.00:MODS=*100 0% Dizzy:TIME=30.98:LEN=5.00:MODS=*100 200% Dizzy:TIME=31.08:LEN=5.00:MODS=*100 -200% Dizzy:TIME=31.18:LEN=5.00:MODS=*100 200% Dizzy:TIME=31.27:LEN=5.00:MODS=*100 -200% Dizzy:TIME=31.37:LEN=5.00:MODS=*100 200% Dizzy:TIME=31.47:LEN=5.00:MODS=*100 0% Dizzy:TIME=37.50:LEN=0.05:MODS=*10000 -50% mini:TIME=37.74:LEN=5.00:MODS=*100 0% mini:TIME=41.03:LEN=0.40:MODS=*10 50% drunk:TIME=41.42:LEN=0.40:MODS=*10 -100% drunk:TIME=41.80:LEN=5.00:MODS=*10 0% drunk:TIME=42.60:LEN=5.00:MODS=*100 200% Dizzy:TIME=42.69:LEN=5.00:MODS=*100 -200% Dizzy:TIME=42.79:LEN=5.00:MODS=*100 200% Dizzy:TIME=42.89:LEN=5.00:MODS=*100 0% Dizzy:TIME=42.98:LEN=5.00:MODS=*100 200% Dizzy:TIME=43.08:LEN=5.00:MODS=*100 -200% Dizzy:TIME=43.18:LEN=5.00:MODS=*100 200% Dizzy:TIME=43.27:LEN=5.00:MODS=*100 0% Dizzy:TIME=43.37:LEN=5.00:MODS=*100 200% Dizzy:TIME=43.47:LEN=5.00:MODS=*100 -200% Dizzy:TIME=43.56:LEN=5.00:MODS=*100 200% Dizzy:TIME=43.66:LEN=5.00:MODS=*100 -200% Dizzy:TIME=43.76:LEN=5.00:MODS=*100 200% Dizzy:TIME=43.85:LEN=5.00:MODS=*100 0% Dizzy:TIME=49.54:LEN=5.00:MODS=*10 15% dizzy:TIME=50.71:LEN=5.00:MODS=*1000 0% dizzy:TIME=57.28:LEN=1.00:MODS=*100 75% flip:TIME=57.28:LEN=1.00:MODS=*100 75% invert:TIME=57.28:LEN=0.05:MODS=*4 -15% mini:TIME=57.87:LEN=1.00:MODS=*100 0 invert:TIME=57.87:LEN=1.00:MODS=*100 0 flip:TIME=57.87:LEN=0.05:MODS=*6 -35% mini:TIME=58.25:LEN=1.00:MODS=*100 25% flip:TIME=58.25:LEN=1.00:MODS=*100 -75% invert:TIME=58.25:LEN=0.05:MODS=*8 -55% mini:TIME=58.64:LEN=1.00:MODS=*100 75% flip:TIME=58.64:LEN=1.00:MODS=*100 75% invert:TIME=58.64:LEN=0.05:MODS=*10 -75% mini:TIME=58.83:LEN=1.00:MODS=*100 0% flip:TIME=58.83:LEN=1.00:MODS=*100 0% invert:TIME=58.83:LEN=0.03:MODS=*8 -100% mini:TIME=60.38:LEN=0.05:MODS=*4 -15% mini:TIME=60.38:LEN=5.00:MODS=*1000 cross:TIME=60.96:LEN=0.05:MODS=*6 -35% mini:TIME=60.96:LEN=5.00:MODS=*1000 0% cross:TIME=61.35:LEN=0.05:MODS=*8 -55% mini:TIME=61.35:LEN=0.40:MODS=*1000 reverse:TIME=61.74:LEN=0.05:MODS=*10 -75% mini:TIME=61.74:LEN=0.20:MODS=*1000 100% centered:TIME=61.93:LEN=0.03:MODS=*8 -100% mini:TIME=74.32:LEN=0.02:MODS=*10000 150% Drunk:TIME=74.32:LEN=0.02:MODS=*4 -15% mini:TIME=74.51:LEN=0.02:MODS=*10000 -150% Drunk:TIME=74.51:LEN=0.02:MODS=*4 -15% mini:TIME=74.70:LEN=0.02:MODS=*10000 150% Drunk:TIME=74.70:LEN=0.02:MODS=*4 -15% mini:TIME=74.90:LEN=0.02:MODS=*10000 -150% Drunk:TIME=74.90:LEN=0.02:MODS=*4 -15% mini:TIME=74.99:LEN=0.02:MODS=*10000 150% Drunk:TIME=74.99:LEN=0.02:MODS=*4 -15% mini:TIME=75.19:LEN=0.02:MODS=*10000 -150% Drunk:TIME=75.19:LEN=0.02:MODS=*4 -15% mini:TIME=75.28:LEN=0.02:MODS=*10000 0% Drunk:TIME=75.28:LEN=0.01:MODS=*10000 0% mini:TIME=75.87:LEN=6.00:MODS=*0.5 20% drunk:TIME=23.22:LEN=0.02:MODS=*10000 150% Drunk:TIME=23.22:LEN=0.02:MODS=*4 -15% mini:TIME=23.42:LEN=0.02:MODS=*10000 -150% Drunk:TIME=23.42:LEN=0.02:MODS=*4 -15% mini:TIME=23.61:LEN=0.02:MODS=*10000 150% Drunk:TIME=23.61:LEN=0.02:MODS=*4 -15% mini:TIME=23.80:LEN=0.02:MODS=*10000 -150% Drunk:TIME=23.80:LEN=0.02:MODS=*4 -15% mini:TIME=23.90:LEN=0.02:MODS=*10000 150% Drunk:TIME=23.90:LEN=0.02:MODS=*4 -15% mini:TIME=24.09:LEN=0.02:MODS=*10000 -150% Drunk:TIME=24.09:LEN=0.02:MODS=*4 -15% mini:TIME=24.19:LEN=0.02:MODS=*10000 0% Drunk:TIME=24.19:LEN=0.01:MODS=*10000 0% mini:TIME=30.21:LEN=5.00:MODS=*100 200% Dizzy:TIME=30.31:LEN=5.00:MODS=*100 -200% Dizzy:TIME=30.40:LEN=5.00:MODS=*100 200% Dizzy:TIME=30.50:LEN=5.00:MODS=*100 0% Dizzy:TIME=30.60:LEN=5.00:MODS=*100 200% Dizzy:TIME=30.69:LEN=5.00:MODS=*100 -200% Dizzy:TIME=30.79:LEN=5.00:MODS=*100 200% Dizzy:TIME=30.89:LEN=5.00:MODS=*100 0% Dizzy:TIME=30.98:LEN=5.00:MODS=*100 200% Dizzy:TIME=31.08:LEN=5.00:MODS=*100 -200% Dizzy:TIME=31.18:LEN=5.00:MODS=*100 200% Dizzy:TIME=31.27:LEN=5.00:MODS=*100 -200% Dizzy:TIME=31.37:LEN=5.00:MODS=*100 200% Dizzy:TIME=31.47:LEN=5.00:MODS=*100 0% Dizzy:TIME=37.50:LEN=0.05:MODS=*10000 -50% mini:TIME=37.74:LEN=5.00:MODS=*100 0% mini:TIME=41.03:LEN=0.40:MODS=*10 50% drunk:TIME=41.42:LEN=0.40:MODS=*10 -100% drunk:TIME=41.80:LEN=5.00:MODS=*10 0% drunk:TIME=42.60:LEN=5.00:MODS=*100 200% Dizzy:TIME=42.69:LEN=5.00:MODS=*100 -200% Dizzy:TIME=42.79:LEN=5.00:MODS=*100 200% Dizzy:TIME=42.89:LEN=5.00:MODS=*100 0% Dizzy:TIME=42.98:LEN=5.00:MODS=*100 200% Dizzy:TIME=43.08:LEN=5.00:MODS=*100 -200% Dizzy:TIME=43.18:LEN=5.00:MODS=*100 200% Dizzy:TIME=43.27:LEN=5.00:MODS=*100 0% Dizzy:TIME=43.37:LEN=5.00:MODS=*100 200% Dizzy:TIME=43.47:LEN=5.00:MODS=*100 -200% Dizzy:TIME=43.56:LEN=5.00:MODS=*100 200% Dizzy:TIME=43.66:LEN=5.00:MODS=*100 -200% Dizzy:TIME=43.76:LEN=5.00:MODS=*100 200% Dizzy:TIME=43.85:LEN=5.00:MODS=*100 0% Dizzy:TIME=49.54:LEN=5.00:MODS=*10 15% dizzy:TIME=50.71:LEN=5.00:MODS=*1000 0% dizzy:TIME=57.28:LEN=1.00:MODS=*100 75% flip:TIME=57.28:LEN=1.00:MODS=*100 75% invert:TIME=57.28:LEN=0.05:MODS=*4 -15% mini:TIME=57.87:LEN=1.00:MODS=*100 0 invert:TIME=57.87:LEN=1.00:MODS=*100 0 flip:TIME=57.87:LEN=0.05:MODS=*6 -35% mini:TIME=58.25:LEN=1.00:MODS=*100 25% flip:TIME=58.25:LEN=1.00:MODS=*100 -75% invert:TIME=58.25:LEN=0.05:MODS=*8 -55% mini:TIME=58.64:LEN=1.00:MODS=*100 75% flip:TIME=58.64:LEN=1.00:MODS=*100 75% invert:TIME=58.64:LEN=0.05:MODS=*10 -75% mini:TIME=58.83:LEN=1.00:MODS=*100 0% flip:TIME=58.83:LEN=1.00:MODS=*100 0% invert:TIME=58.83:LEN=0.03:MODS=*8 -100% mini:TIME=60.38:LEN=0.05:MODS=*4 -15% mini:TIME=60.38:LEN=5.00:MODS=*1000 cross:TIME=60.96:LEN=0.05:MODS=*6 -35% mini:TIME=60.96:LEN=5.00:MODS=*1000 0% cross:TIME=61.35:LEN=0.05:MODS=*8 -55% mini:TIME=61.35:LEN=0.40:MODS=*1000 reverse:TIME=61.74:LEN=0.05:MODS=*10 -75% mini:TIME=61.74:LEN=0.20:MODS=*1000 100% centered:TIME=61.93:LEN=0.03:MODS=*8 -100% mini:TIME=74.32:LEN=0.02:MODS=*10000 150% Drunk:TIME=74.32:LEN=0.02:MODS=*4 -15% mini:TIME=74.51:LEN=0.02:MODS=*10000 -150% Drunk:TIME=74.51:LEN=0.02:MODS=*4 -15% mini:TIME=74.70:LEN=0.02:MODS=*10000 150% Drunk:TIME=74.70:LEN=0.02:MODS=*4 -15% mini:TIME=74.90:LEN=0.02:MODS=*10000 -150% Drunk:TIME=74.90:LEN=0.02:MODS=*4 -15% mini:TIME=74.99:LEN=0.02:MODS=*10000 150% Drunk:TIME=74.99:LEN=0.02:MODS=*4 -15% mini:TIME=75.19:LEN=0.02:MODS=*10000 -150% Drunk:TIME=75.19:LEN=0.02:MODS=*4 -15% mini:TIME=75.28:LEN=0.02:MODS=*10000 0% Drunk:TIME=75.28:LEN=0.01:MODS=*10000 0% mini;
#NOTES:
0000
0000
0000
0000
,
0000
0000
0000
0000
,
0000
0000
0000
0000
,
0000
0000
0000
0000
,
1000
0001
1000
0000
0001
0000
0100
0000
,
0010
1000
0001
0010
,
0100
0000
1000
0000
0000
0100
0000
0000
1000
0000
0000
0010
0000
0000
1000
0000
,
0001
0001
0000
0100
0000
0001
0000
1000
,
0002
0000
0000
0000
0000
0103
0010
0200
,
0000
0000
0000
0000
0000
0310
1000
0200
,
0000
0000
0000
0000
0000
0310
0100
2000
,
0000
0000
0000
0000
0000
3010
0100
0002
,
0000
0000
0000
0000
0000
0103
0001
0200
,
0000
0000
0000
0000
0000
0310
1000
0020
,
0000
0000
0000
0000
0000
0130
0001
0100
,
0010
0000
0000
0000
1000
0000
0000
0001
0000
0000
0011
0000
0000
0000
0000
0000
,
0001
0001
0010
0000
0001
0000
0100
0000
,
0010
0010
0100
0000
0001
0000
1000
0000
,
1000
0100
0000
0100
0010
0000
0001
0000
,
1000
0001
1000
0000
0010
0000
0010
0000
,
0100
0100
0010
0000
1000
0000
0010
0000
,
0100
0100
0001
0000
0010
0000
0110
0000
,
0011
0000
1100
0000
1000
0010
0100
0000
,
0010
1000
0010
0100
,
0001
0010
0200
0000
1300
1000
0010
0000
,
0100
0000
0000
0100
0010
0000
1000
0000
,
0001
1000
1010
0110
,
0101
0000
1001
0000
,
1000
0100
1000
0000
0100
0000
1000
0000
,
0010
0100
0010
0000
0100
0001
0000
0001
,
1000
1000
0100
0000
0010
0000
0100
0000
,
1000
0001
1000
0000
0010
0000
0100
0000
,
0110
0000
0000
0110
,
0010
0000
0000
1000
0000
0000
0100
0000
0000
0000
0000
0000
1000
0000
0001
0000
,
0010
0000
0000
0001
0000
0000
0100
0000
0000
0000
0000
0000
0000
0000
0000
0000
,
0010
0000
0000
0100
0000
0000
0001
0000
0000
0000
0000
0000
1000
0000
0001
0000
,
0010
0000
0000
0100
0000
0000
1000
0000
0000
0000
0000
0000
0000
0000
0000
0000
,
1001
0000
0000
0110
0000
1001
0000
1000
,
0001
0000
0000
0100
0000
0000
0010
0000
0000
0000
0000
0000
0000
0000
0000
0000
,
0110
0000
0000
1001
0000
0110
0000
0010
,
0100
0100
0100
0100
,
2001
0000
0000
0000
0000
3001
0100
0020
,
0000
0000
0000
0000
0000
0130
0001
0020
,
0000
0000
0000
0000
0000
0130
1000
0020
,
0000
0000
0000
0000
0000
0130
0001
0200
,
0000
0000
0000
0000
0000
0310
1000
0002
,
0000
0000
0000
0000
0000
0013
0100
0020
,
0000
0000
0000
0000
0000
0130
1000
0001
,
1000
0000
0000
0000
0010
0000
0000
0100
0000
0000
0101
0000
0000
0000
0000
0000
,
0200
0000
0000
0320
0000
0000
0000
0230
,
0302
0000
0000
2003
0000
0000
0000
3200
,
0320
0000
0000
0230
0000
0000
0000
2300
,
3002
0023
0230
2300
,
3010
0000
0100
0000
0010
0000
0000
0000
1000
0000
0000
0010
0000
0000
0000
0100
,
0000
0000
0000
0001
0000
0001
0000
0001
0010
0000
0100
0000
0010
0000
0001
0000
,
1000
0000
0010
0000
0100
0000
0000
0000
0010
0000
0010
1000
0000
0000
0010
0000
,
0100
0100
0001
0001
1000
0001
0010
0000
,
0100
0000
0100
0000
1000
0000
0000
0000
1000
0000
0000
0010
0000
0000
0000
0010
,
0000
0000
0000
0100
0000
0010
0000
0000
1000
0000
0001
0000
0001
0000
0000
0000
,
1000
0000
0100
0000
0000
0010
0000
0000
0001
0000
0000
1000
0000
0000
0001
0000
,
0100
0100
0000
0010
0000
1000
0000
0001
,
1001
0000
0000
0000
;

//---------------dance-single - this is for bemani boomers----------------
#NOTEDATA:;
#CHARTNAME:;
#STEPSTYPE:dance-single;
#DESCRIPTION:this is for bemani boomers;
#CHARTSTYLE:;
#DIFFICULTY:Hard;
#METER:13;
#RADARVALUES:0.638046,0.632124,0.290155,0.186529,0.274611,431.000000,403.000000,28.000000,18.000000,1.000000,0.000000,0.000000,0.000000,0.000000,0.638046,0.632124,0.290155,0.186529,0.274611,431.000000,403.000000,28.000000,18.000000,1.000000,0.000000,0.000000,0.000000,0.000000;
#CREDIT:Team Red Under Armour T-Shirt;
#ATTACKS:TIME=23.22:LEN=0.02:MODS=*10000 150% Drunk:TIME=23.22:LEN=0.02:MODS=*4 -15% mini:TIME=23.42:LEN=0.02:MODS=*10000 -150% Drunk:TIME=23.42:LEN=0.02:MODS=*4 -15% mini:TIME=23.61:LEN=0.02:MODS=*10000 150% Drunk:TIME=23.61:LEN=0.02:MODS=*4 -15% mini:TIME=23.80:LEN=0.02:MODS=*10000 -150% Drunk:TIME=23.80:LEN=0.02:MODS=*4 -15% mini:TIME=23.90:LEN=0.02:MODS=*10000 150% Drunk:TIME=23.90:LEN=0.02:MODS=*4 -15% mini:TIME=24.09:LEN=0.02:MODS=*10000 -150% Drunk:TIME=24.09:LEN=0.02:MODS=*4 -15% mini:TIME=24.19:LEN=0.02:MODS=*10000 0% Drunk:TIME=24.19:LEN=0.01:MODS=*10000 0% mini:TIME=30.21:LEN=5.00:MODS=*100 200% Dizzy:TIME=30.31:LEN=5.00:MODS=*100 -200% Dizzy:TIME=30.40:LEN=5.00:MODS=*100 200% Dizzy:TIME=30.50:LEN=5.00:MODS=*100 0% Dizzy:TIME=30.60:LEN=5.00:MODS=*100 200% Dizzy:TIME=30.69:LEN=5.00:MODS=*100 -200% Dizzy:TIME=30.79:LEN=5.00:MODS=*100 200% Dizzy:TIME=30.89:LEN=5.00:MODS=*100 0% Dizzy:TIME=30.98:LEN=5.00:MODS=*100 200% Dizzy:TIME=31.08:LEN=5.00:MODS=*100 -200% Dizzy:TIME=31.18:LEN=5.00:MODS=*100 200% Dizzy:TIME=31.27:LEN=5.00:MODS=*100 -200% Dizzy:TIME=31.37:LEN=5.00:MODS=*100 200% Dizzy:TIME=31.47:LEN=5.00:MODS=*100 0% Dizzy:TIME=37.50:LEN=0.05:MODS=*10000 -50% mini:TIME=37.74:LEN=5.00:MODS=*100 0% mini:TIME=41.03:LEN=0.40:MODS=*10 50% drunk:TIME=41.42:LEN=0.40:MODS=*10 -100% drunk:TIME=41.80:LEN=5.00:MODS=*10 0% drunk:TIME=42.60:LEN=5.00:MODS=*100 200% Dizzy:TIME=42.69:LEN=5.00:MODS=*100 -200% Dizzy:TIME=42.79:LEN=5.00:MODS=*100 200% Dizzy:TIME=42.89:LEN=5.00:MODS=*100 0% Dizzy:TIME=42.98:LEN=5.00:MODS=*100 200% Dizzy:TIME=43.08:LEN=5.00:MODS=*100 -200% Dizzy:TIME=43.18:LEN=5.00:MODS=*100 200% Dizzy:TIME=43.27:LEN=5.00:MODS=*100 0% Dizzy:TIME=43.37:LEN=5.00:MODS=*100 200% Dizzy:TIME=43.47:LEN=5.00:MODS=*100 -200% Dizzy:TIME=43.56:LEN=5.00:MODS=*100 200% Dizzy:TIME=43.66:LEN=5.00:MODS=*100 -200% Dizzy:TIME=43.76:LEN=5.00:MODS=*100 200% Dizzy:TIME=43.85:LEN=5.00:MODS=*100 0% Dizzy:TIME=49.54:LEN=5.00:MODS=*10 15% dizzy:TIME=50.71:LEN=5.00:MODS=*1000 0% dizzy:TIME=57.28:LEN=1.00:MODS=*100 75% flip:TIME=57.28:LEN=1.00:MODS=*100 75% invert:TIME=57.28:LEN=0.05:MODS=*4 -15% mini:TIME=57.87:LEN=1.00:MODS=*100 0 invert:TIME=57.87:LEN=1.00:MODS=*100 0 flip:TIME=57.87:LEN=0.05:MODS=*6 -35% mini:TIME=58.25:LEN=1.00:MODS=*100 25% flip:TIME=58.25:LEN=1.00:MODS=*100 -75% invert:TIME=58.25:LEN=0.05:MODS=*8 -55% mini:TIME=58.64:LEN=1.00:MODS=*100 75% flip:TIME=58.64:LEN=1.00:MODS=*100 75% invert:TIME=58.64:LEN=0.05:MODS=*10 -75% mini:TIME=58.83:LEN=1.00:MODS=*100 0% flip:TIME=58.83:LEN=1.00:MODS=*100 0% invert:TIME=58.83:LEN=0.03:MODS=*8 -100% mini:TIME=60.38:LEN=0.05:MODS=*4 -15% mini:TIME=60.38:LEN=5.00:MODS=*1000 cross:TIME=60.96:LEN=0.05:MODS=*6 -35% mini:TIME=60.96:LEN=5.00:MODS=*1000 0% cross:TIME=61.35:LEN=0.05:MODS=*8 -55% mini:TIME=61.35:LEN=0.40:MODS=*1000 reverse:TIME=61.74:LEN=0.05:MODS=*10 -75% mini:TIME=61.74:LEN=0.20:MODS=*1000 100% centered:TIME=61.93:LEN=0.03:MODS=*8 -100% mini:TIME=74.32:LEN=0.02:MODS=*10000 150% Drunk:TIME=74.32:LEN=0.02:MODS=*4 -15% mini:TIME=74.51:LEN=0.02:MODS=*10000 -150% Drunk:TIME=74.51:LEN=0.02:MODS=*4 -15% mini:TIME=74.70:LEN=0.02:MODS=*10000 150% Drunk:TIME=74.70:LEN=0.02:MODS=*4 -15% mini:TIME=74.90:LEN=0.02:MODS=*10000 -150% Drunk:TIME=74.90:LEN=0.02:MODS=*4 -15% mini:TIME=74.99:LEN=0.02:MODS=*10000 150% Drunk:TIME=74.99:LEN=0.02:MODS=*4 -15% mini:TIME=75.19:LEN=0.02:MODS=*10000 -150% Drunk:TIME=75.19:LEN=0.02:MODS=*4 -15% mini:TIME=75.28:LEN=0.02:MODS=*10000 0% Drunk:TIME=75.28:LEN=0.01:MODS=*10000 0% mini:TIME=75.87:LEN=6.00:MODS=*0.5 20% drunk:TIME=92.91:LEN=5.00:MODS=*5 40% mini:TIME=93.11:LEN=5.00:MODS=*5 -20% mini:TIME=93.49:LEN=5.00:MODS=*5 50% mini:TIME=93.88:LEN=5.00:MODS=*5 -40% mini:TIME=94.27:LEN=5.00:MODS=*5 0% mini:TIME=94.46:LEN=5.00:MODS=*20 200% mini:TIME=23.22:LEN=0.02:MODS=*10000 150% Drunk:TIME=23.22:LEN=0.02:MODS=*4 -15% mini:TIME=23.42:LEN=0.02:MODS=*10000 -150% Drunk:TIME=23.42:LEN=0.02:MODS=*4 -15% mini:TIME=23.61:LEN=0.02:MODS=*10000 150% Drunk:TIME=23.61:LEN=0.02:MODS=*4 -15% mini:TIME=23.80:LEN=0.02:MODS=*10000 -150% Drunk:TIME=23.80:LEN=0.02:MODS=*4 -15% mini:TIME=23.90:LEN=0.02:MODS=*10000 150% Drunk:TIME=23.90:LEN=0.02:MODS=*4 -15% mini:TIME=24.09:LEN=0.02:MODS=*10000 -150% Drunk:TIME=24.09:LEN=0.02:MODS=*4 -15% mini:TIME=24.19:LEN=0.02:MODS=*10000 0% Drunk:TIME=24.19:LEN=0.01:MODS=*10000 0% mini:TIME=30.21:LEN=5.00:MODS=*100 200% Dizzy:TIME=30.31:LEN=5.00:MODS=*100 -200% Dizzy:TIME=30.40:LEN=5.00:MODS=*100 200% Dizzy:TIME=30.50:LEN=5.00:MODS=*100 0% Dizzy:TIME=30.60:LEN=5.00:MODS=*100 200% Dizzy:TIME=30.69:LEN=5.00:MODS=*100 -200% Dizzy:TIME=30.79:LEN=5.00:MODS=*100 200% Dizzy:TIME=30.89:LEN=5.00:MODS=*100 0% Dizzy:TIME=30.98:LEN=5.00:MODS=*100 200% Dizzy:TIME=31.08:LEN=5.00:MODS=*100 -200% Dizzy:TIME=31.18:LEN=5.00:MODS=*100 200% Dizzy:TIME=31.27:LEN=5.00:MODS=*100 -200% Dizzy:TIME=31.37:LEN=5.00:MODS=*100 200% Dizzy:TIME=31.47:LEN=5.00:MODS=*100 0% Dizzy:TIME=37.50:LEN=0.05:MODS=*10000 -50% mini:TIME=37.74:LEN=5.00:MODS=*100 0% mini:TIME=41.03:LEN=0.40:MODS=*10 50% drunk:TIME=41.42:LEN=0.40:MODS=*10 -100% drunk:TIME=41.80:LEN=5.00:MODS=*10 0% drunk:TIME=42.60:LEN=5.00:MODS=*100 200% Dizzy:TIME=42.69:LEN=5.00:MODS=*100 -200% Dizzy:TIME=42.79:LEN=5.00:MODS=*100 200% Dizzy:TIME=42.89:LEN=5.00:MODS=*100 0% Dizzy:TIME=42.98:LEN=5.00:MODS=*100 200% Dizzy:TIME=43.08:LEN=5.00:MODS=*100 -200% Dizzy:TIME=43.18:LEN=5.00:MODS=*100 200% Dizzy:TIME=43.27:LEN=5.00:MODS=*100 0% Dizzy:TIME=43.37:LEN=5.00:MODS=*100 200% Dizzy:TIME=43.47:LEN=5.00:MODS=*100 -200% Dizzy:TIME=43.56:LEN=5.00:MODS=*100 200% Dizzy:TIME=43.66:LEN=5.00:MODS=*100 -200% Dizzy:TIME=43.76:LEN=5.00:MODS=*100 200% Dizzy:TIME=43.85:LEN=5.00:MODS=*100 0% Dizzy:TIME=49.54:LEN=5.00:MODS=*10 15% dizzy:TIME=50.71:LEN=5.00:MODS=*1000 0% dizzy:TIME=57.28:LEN=1.00:MODS=*100 75% flip:TIME=57.28:LEN=1.00:MODS=*100 75% invert:TIME=57.28:LEN=0.05:MODS=*4 -15% mini:TIME=57.87:LEN=1.00:MODS=*100 0 invert:TIME=57.87:LEN=1.00:MODS=*100 0 flip:TIME=57.87:LEN=0.05:MODS=*6 -35% mini:TIME=58.25:LEN=1.00:MODS=*100 25% flip:TIME=58.25:LEN=1.00:MODS=*100 -75% invert:TIME=58.25:LEN=0.05:MODS=*8 -55% mini:TIME=58.64:LEN=1.00:MODS=*100 75% flip:TIME=58.64:LEN=1.00:MODS=*100 75% invert:TIME=58.64:LEN=0.05:MODS=*10 -75% mini:TIME=58.83:LEN=1.00:MODS=*100 0% flip:TIME=58.83:LEN=1.00:MODS=*100 0% invert:TIME=58.83:LEN=0.03:MODS=*8 -100% mini:TIME=60.38:LEN=0.05:MODS=*4 -15% mini:TIME=60.38:LEN=5.00:MODS=*1000 cross:TIME=60.96:LEN=0.05:MODS=*6 -35% mini:TIME=60.96:LEN=5.00:MODS=*1000 0% cross:TIME=61.35:LEN=0.05:MODS=*8 -55% mini:TIME=61.35:LEN=0.40:MODS=*1000 reverse:TIME=61.74:LEN=0.05:MODS=*10 -75% mini:TIME=61.74:LEN=0.20:MODS=*1000 100% centered:TIME=61.93:LEN=0.03:MODS=*8 -100% mini:TIME=74.32:LEN=0.02:MODS=*10000 150% Drunk:TIME=74.32:LEN=0.02:MODS=*4 -15% mini:TIME=74.51:LEN=0.02:MODS=*10000 -150% Drunk:TIME=74.51:LEN=0.02:MODS=*4 -15% mini:TIME=74.70:LEN=0.02:MODS=*10000 150% Drunk:TIME=74.70:LEN=0.02:MODS=*4 -15% mini:TIME=74.90:LEN=0.02:MODS=*10000 -150% Drunk:TIME=74.90:LEN=0.02:MODS=*4 -15% mini:TIME=74.99:LEN=0.02:MODS=*10000 150% Drunk:TIME=74.99:LEN=0.02:MODS=*4 -15% mini:TIME=75.19:LEN=0.02:MODS=*10000 -150% Drunk:TIME=75.19:LEN=0.02:MODS=*4 -15% mini:TIME=75.28:LEN=0.02:MODS=*10000 0% Drunk:TIME=75.28:LEN=0.01:MODS=*10000 0% mini:TIME=75.87:LEN=6.00:MODS=*0.5 20% drunk:TIME=92.91:LEN=5.00:MODS=*5 40% mini:TIME=93.11:LEN=5.00:MODS=*5 -20% mini:TIME=93.49:LEN=5.00:MODS=*5 50% mini:TIME=93.88:LEN=5.00:MODS=*5 -40% mini:TIME=94.27:LEN=5.00:MODS=*5 0% mini:TIME=94.46:LEN=5.00:MODS=*20 200% mini:TIME=23.22:LEN=0.02:MODS=*10000 150% Drunk:TIME=23.22:LEN=0.02:MODS=*4 -15% mini:TIME=23.42:LEN=0.02:MODS=*10000 -150% Drunk:TIME=23.42:LEN=0.02:MODS=*4 -15% mini:TIME=23.61:LEN=0.02:MODS=*10000 150% Drunk:TIME=23.61:LEN=0.02:MODS=*4 -15% mini:TIME=23.80:LEN=0.02:MODS=*10000 -150% Drunk:TIME=23.80:LEN=0.02:MODS=*4 -15% mini:TIME=23.90:LEN=0.02:MODS=*10000 150% Drunk:TIME=23.90:LEN=0.02:MODS=*4 -15% mini:TIME=24.09:LEN=0.02:MODS=*10000 -150% Drunk:TIME=24.09:LEN=0.02:MODS=*4 -15% mini:TIME=24.19:LEN=0.02:MODS=*10000 0% Drunk:TIME=24.19:LEN=0.01:MODS=*10000 0% mini:TIME=30.21:LEN=5.00:MODS=*100 200% Dizzy:TIME=30.31:LEN=5.00:MODS=*100 -200% Dizzy:TIME=30.40:LEN=5.00:MODS=*100 200% Dizzy:TIME=30.50:LEN=5.00:MODS=*100 0% Dizzy:TIME=30.60:LEN=5.00:MODS=*100 200% Dizzy:TIME=30.69:LEN=5.00:MODS=*100 -200% Dizzy:TIME=30.79:LEN=5.00:MODS=*100 200% Dizzy:TIME=30.89:LEN=5.00:MODS=*100 0% Dizzy:TIME=30.98:LEN=5.00:MODS=*100 200% Dizzy:TIME=31.08:LEN=5.00:MODS=*100 -200% Dizzy:TIME=31.18:LEN=5.00:MODS=*100 200% Dizzy:TIME=31.27:LEN=5.00:MODS=*100 -200% Dizzy:TIME=31.37:LEN=5.00:MODS=*100 200% Dizzy:TIME=31.47:LEN=5.00:MODS=*100 0% Dizzy:TIME=37.50:LEN=0.05:MODS=*10000 -50% mini:TIME=37.74:LEN=5.00:MODS=*100 0% mini:TIME=41.03:LEN=0.40:MODS=*10 50% drunk:TIME=41.42:LEN=0.40:MODS=*10 -100% drunk:TIME=41.80:LEN=5.00:MODS=*10 0% drunk:TIME=42.60:LEN=5.00:MODS=*100 200% Dizzy:TIME=42.69:LEN=5.00:MODS=*100 -200% Dizzy:TIME=42.79:LEN=5.00:MODS=*100 200% Dizzy:TIME=42.89:LEN=5.00:MODS=*100 0% Dizzy:TIME=42.98:LEN=5.00:MODS=*100 200% Dizzy:TIME=43.08:LEN=5.00:MODS=*100 -200% Dizzy:TIME=43.18:LEN=5.00:MODS=*100 200% Dizzy:TIME=43.27:LEN=5.00:MODS=*100 0% Dizzy:TIME=43.37:LEN=5.00:MODS=*100 200% Dizzy:TIME=43.47:LEN=5.00:MODS=*100 -200% Dizzy:TIME=43.56:LEN=5.00:MODS=*100 200% Dizzy:TIME=43.66:LEN=5.00:MODS=*100 -200% Dizzy:TIME=43.76:LEN=5.00:MODS=*100 200% Dizzy:TIME=43.85:LEN=5.00:MODS=*100 0% Dizzy:TIME=49.54:LEN=5.00:MODS=*10 15% dizzy:TIME=50.71:LEN=5.00:MODS=*1000 0% dizzy:TIME=57.28:LEN=1.00:MODS=*100 75% flip:TIME=57.28:LEN=1.00:MODS=*100 75% invert:TIME=57.28:LEN=0.05:MODS=*4 -15% mini:TIME=57.87:LEN=1.00:MODS=*100 0 invert:TIME=57.87:LEN=1.00:MODS=*100 0 flip:TIME=57.87:LEN=0.05:MODS=*6 -35% mini:TIME=58.25:LEN=1.00:MODS=*100 25% flip:TIME=58.25:LEN=1.00:MODS=*100 -75% invert:TIME=58.25:LEN=0.05:MODS=*8 -55% mini:TIME=58.64:LEN=1.00:MODS=*100 75% flip:TIME=58.64:LEN=1.00:MODS=*100 75% invert:TIME=58.64:LEN=0.05:MODS=*10 -75% mini:TIME=58.83:LEN=1.00:MODS=*100 0% flip:TIME=58.83:LEN=1.00:MODS=*100 0% invert:TIME=58.83:LEN=0.03:MODS=*8 -100% mini:TIME=60.38:LEN=0.05:MODS=*4 -15% mini:TIME=60.38:LEN=5.00:MODS=*1000 cross:TIME=60.96:LEN=0.05:MODS=*6 -35% mini:TIME=60.96:LEN=5.00:MODS=*1000 0% cross:TIME=61.35:LEN=0.05:MODS=*8 -55% mini:TIME=61.35:LEN=0.40:MODS=*1000 reverse:TIME=61.74:LEN=0.05:MODS=*10 -75% mini:TIME=61.74:LEN=0.20:MODS=*1000 100% centered:TIME=61.93:LEN=0.03:MODS=*8 -100% mini:TIME=74.32:LEN=0.02:MODS=*10000 150% Drunk:TIME=74.32:LEN=0.02:MODS=*4 -15% mini:TIME=74.51:LEN=0.02:MODS=*10000 -150% Drunk:TIME=74.51:LEN=0.02:MODS=*4 -15% mini:TIME=74.70:LEN=0.02:MODS=*10000 150% Drunk:TIME=74.70:LEN=0.02:MODS=*4 -15% mini:TIME=74.90:LEN=0.02:MODS=*10000 -150% Drunk:TIME=74.90:LEN=0.02:MODS=*4 -15% mini:TIME=74.99:LEN=0.02:MODS=*10000 150% Drunk:TIME=74.99:LEN=0.02:MODS=*4 -15% mini:TIME=75.19:LEN=0.02:MODS=*10000 -150% Drunk:TIME=75.19:LEN=0.02:MODS=*4 -15% mini:TIME=75.28:LEN=0.02:MODS=*10000 0% Drunk:TIME=75.28:LEN=0.01:MODS=*10000 0% mini:TIME=75.87:LEN=6.00:MODS=*0.5 20% drunk:TIME=23.22:LEN=0.02:MODS=*10000 150% Drunk:TIME=23.22:LEN=0.02:MODS=*4 -15% mini:TIME=23.42:LEN=0.02:MODS=*10000 -150% Drunk:TIME=23.42:LEN=0.02:MODS=*4 -15% mini:TIME=23.61:LEN=0.02:MODS=*10000 150% Drunk:TIME=23.61:LEN=0.02:MODS=*4 -15% mini:TIME=23.80:LEN=0.02:MODS=*10000 -150% Drunk:TIME=23.80:LEN=0.02:MODS=*4 -15% mini:TIME=23.90:LEN=0.02:MODS=*10000 150% Drunk:TIME=23.90:LEN=0.02:MODS=*4 -15% mini:TIME=24.09:LEN=0.02:MODS=*10000 -150% Drunk:TIME=24.09:LEN=0.02:MODS=*4 -15% mini:TIME=24.19:LEN=0.02:MODS=*10000 0% Drunk:TIME=24.19:LEN=0.01:MODS=*10000 0% mini:TIME=30.21:LEN=5.00:MODS=*100 200% Dizzy:TIME=30.31:LEN=5.00:MODS=*100 -200% Dizzy:TIME=30.40:LEN=5.00:MODS=*100 200% Dizzy:TIME=30.50:LEN=5.00:MODS=*100 0% Dizzy:TIME=30.60:LEN=5.00:MODS=*100 200% Dizzy:TIME=30.69:LEN=5.00:MODS=*100 -200% Dizzy:TIME=30.79:LEN=5.00:MODS=*100 200% Dizzy:TIME=30.89:LEN=5.00:MODS=*100 0% Dizzy:TIME=30.98:LEN=5.00:MODS=*100 200% Dizzy:TIME=31.08:LEN=5.00:MODS=*100 -200% Dizzy:TIME=31.18:LEN=5.00:MODS=*100 200% Dizzy:TIME=31.27:LEN=5.00:MODS=*100 -200% Dizzy:TIME=31.37:LEN=5.00:MODS=*100 200% Dizzy:TIME=31.47:LEN=5.00:MODS=*100 0% Dizzy:TIME=37.50:LEN=0.05:MODS=*10000 -50% mini:TIME=37.74:LEN=5.00:MODS=*100 0% mini:TIME=41.03:LEN=0.40:MODS=*10 50% drunk:TIME=41.42:LEN=0.40:MODS=*10 -100% drunk:TIME=41.80:LEN=5.00:MODS=*10 0% drunk:TIME=42.60:LEN=5.00:MODS=*100 200% Dizzy:TIME=42.69:LEN=5.00:MODS=*100 -200% Dizzy:TIME=42.79:LEN=5.00:MODS=*100 200% Dizzy:TIME=42.89:LEN=5.00:MODS=*100 0% Dizzy:TIME=42.98:LEN=5.00:MODS=*100 200% Dizzy:TIME=43.08:LEN=5.00:MODS=*100 -200% Dizzy:TIME=43.18:LEN=5.00:MODS=*100 200% Dizzy:TIME=43.27:LEN=5.00:MODS=*100 0% Dizzy:TIME=43.37:LEN=5.00:MODS=*100 200% Dizzy:TIME=43.47:LEN=5.00:MODS=*100 -200% Dizzy:TIME=43.56:LEN=5.00:MODS=*100 200% Dizzy:TIME=43.66:LEN=5.00:MODS=*100 -200% Dizzy:TIME=43.76:LEN=5.00:MODS=*100 200% Dizzy:TIME=43.85:LEN=5.00:MODS=*100 0% Dizzy:TIME=49.54:LEN=5.00:MODS=*10 15% dizzy:TIME=50.71:LEN=5.00:MODS=*1000 0% dizzy:TIME=57.28:LEN=1.00:MODS=*100 75% flip:TIME=57.28:LEN=1.00:MODS=*100 75% invert:TIME=57.28:LEN=0.05:MODS=*4 -15% mini:TIME=57.87:LEN=1.00:MODS=*100 0 invert:TIME=57.87:LEN=1.00:MODS=*100 0 flip:TIME=57.87:LEN=0.05:MODS=*6 -35% mini:TIME=58.25:LEN=1.00:MODS=*100 25% flip:TIME=58.25:LEN=1.00:MODS=*100 -75% invert:TIME=58.25:LEN=0.05:MODS=*8 -55% mini:TIME=58.64:LEN=1.00:MODS=*100 75% flip:TIME=58.64:LEN=1.00:MODS=*100 75% invert:TIME=58.64:LEN=0.05:MODS=*10 -75% mini:TIME=58.83:LEN=1.00:MODS=*100 0% flip:TIME=58.83:LEN=1.00:MODS=*100 0% invert:TIME=58.83:LEN=0.03:MODS=*8 -100% mini:TIME=60.38:LEN=0.05:MODS=*4 -15% mini:TIME=60.38:LEN=5.00:MODS=*1000 cross:TIME=60.96:LEN=0.05:MODS=*6 -35% mini:TIME=60.96:LEN=5.00:MODS=*1000 0% cross:TIME=61.35:LEN=0.05:MODS=*8 -55% mini:TIME=61.35:LEN=0.40:MODS=*1000 reverse:TIME=61.74:LEN=0.05:MODS=*10 -75% mini:TIME=61.74:LEN=0.20:MODS=*1000 100% centered:TIME=61.93:LEN=0.03:MODS=*8 -100% mini:TIME=74.32:LEN=0.02:MODS=*10000 150% Drunk:TIME=74.32:LEN=0.02:MODS=*4 -15% mini:TIME=74.51:LEN=0.02:MODS=*10000 -150% Drunk:TIME=74.51:LEN=0.02:MODS=*4 -15% mini:TIME=74.70:LEN=0.02:MODS=*10000 150% Drunk:TIME=74.70:LEN=0.02:MODS=*4 -15% mini:TIME=74.90:LEN=0.02:MODS=*10000 -150% Drunk:TIME=74.90:LEN=0.02:MODS=*4 -15% mini:TIME=74.99:LEN=0.02:MODS=*10000 150% Drunk:TIME=74.99:LEN=0.02:MODS=*4 -15% mini:TIME=75.19:LEN=0.02:MODS=*10000 -150% Drunk:TIME=75.19:LEN=0.02:MODS=*4 -15% mini:TIME=75.28:LEN=0.02:MODS=*10000 0% Drunk:TIME=75.28:LEN=0.01:MODS=*10000 0% mini;
#NOTES:
0000
0000
0000
0000
,
0000
0000
0000
0000
,
0000
0000
0000
0000
,
0000
0000
0000
0000
,
0001
0000
0100
0000
0001
0000
0000
1000
0010
0000
0000
0100
0000
0000
0100
0010
,
0000
0000
0000
1000
0000
0100
0000
1000
0001
0000
0010
0000
0100
0000
0000
0000
,
0010
0000
0001
0000
0000
0100
0000
0000
0001
0000
0000
0010
0000
0000
0001
0000
,
0011
0011
0000
1010
0000
0110
0000
1001
,
0001
0010
0100
1000
0001
1000
0010
0001
,
0010
0100
0001
1000
0010
1000
0100
0001
,
0100
1000
0001
0010
0001
0100
0010
0001
,
0010
1000
0100
1000
0001
0010
0100
0001
,
0100
1000
0001
0010
0100
1000
0010
0001
,
0010
1000
0100
0010
0001
0010
0100
0001
,
0100
1000
0100
1000
0001
0100
0001
0100
,
0010
0000
0010
0000
0010
0000
0000
1000
0000
0000
0001
0000
0000
0000
0000
0000
,
1000
0100
1000
0010
0100
1000
0100
0100
,
0001
1000
0010
0100
0001
0001
0010
0100
,
1000
0001
1000
0100
0001
0100
0001
0100
,
0010
0000
0100
0000
1000
0000
0010
0000
1000
0001
0000
1000
0001
0000
0010
0000
,
0100
1000
0010
0100
0001
0001
1000
1000
,
0010
1000
0100
0100
0010
0001
0100
0000
,
1010
0000
1000
0100
0010
0001
0010
0000
,
0100
1000
0001
0010
0001
0100
0001
0020
,
0000
0001
013M
0000
0010
0001
0010
0100
,
0010
1000
0010
0100
0010
0001
0010
0100
,
0010
1000
0010
0001
1001
0000
0011
0000
,
0101
0000
0000
0000
1010
0000
0000
0000
1000
0001
1000
0000
1000
0001
1000
0000
,
0100
0001
0100
0010
0100
0010
0100
1000
,
0100
0010
0100
0001
0100
0001
0100
1000
,
0100
0010
0100
1000
0100
1000
0100
0010
,
0100
0000
1000
0000
0010
0000
0100
0001
0000
0100
0010
0000
1000
0000
0001
0000
,
1001
0000
0100
1001
,
1000
0000
0000
1000
0010
0000
0000
0010
0100
0000
0000
0100
0001
0000
0000
0001
,
0010
0000
0000
0010
0001
0000
0000
0001
1000
0000
0000
1000
0001
0000
0000
0001
,
0010
0000
0000
0010
0100
0000
0000
0100
1000
0000
0000
1000
0010
0000
0000
0010
,
0100
0000
0000
0100
0001
0000
0000
0001
1000
0000
0000
1000
0010
0000
0000
0000
,
0110
0000
0000
1010
0000
0101
0000
0011
,
1001
0000
0000
0001
0100
0000
0000
0000
1000
0000
0000
1000
0100
0000
0000
0000
,
1001
0000
0000
0101
0000
0011
0000
1100
,
1001
0001
0001
0001
1000
0100
0010
0001
,
1000
0010
0100
0001
1000
0001
0010
1000
,
0010
0100
1000
0001
0010
0001
0100
1000
,
0100
0001
1000
0010
1000
0100
0010
1000
,
0010
0001
0100
0001
1000
0010
0100
1000
,
0100
0001
1000
0010
0100
0001
0010
1000
,
0010
0001
0100
0010
1000
0010
0100
1000
,
0100
0001
0100
0001
1000
0100
1000
0100
,
0010
0000
0010
0000
0010
0000
0000
0001
0000
0000
1000
0000
0000
0000
0000
0000
,
0002
0000
0000
0023
0000
0032
0000
2003
,
3020
0000
0000
0230
0000
0320
0000
2030
,
3200
0000
0000
0320
0000
0230
0000
2300
,
3002
0000
0000
0203
0000
0000
0302
0000
2003
0000
0000
0000
3200
0000
0000
0000
,
0310
0000
0001
0000
0010
0000
0000
0000
0100
0000
0100
0010
0000
0000
0001
0010
,
0000
0000
0000
0001
0000
0100
0000
0010
0100
0000
0100
0000
0010
0000
1000
0000
,
0100
0000
1000
0000
0001
0000
0000
0000
0100
0000
0010
0100
0000
0000
0010
0100
,
0010
0000
0010
0000
1000
0000
1000
0000
0100
0000
0100
0010
0000
0000
0000
0000
,
0100
0000
1000
0000
0100
0000
0000
0000
1000
0000
1000
0001
0000
0000
0100
0001
,
0000
0000
0000
0100
0000
0010
0000
0100
0010
0000
1000
0001
0000
0000
0001
0010
,
0000
0000
0010
0100
0010
0100
0000
0000
1000
0100
0000
1000
0000
0000
0001
0000
,
0101
0101
0000
1001
0000
1010
0000
0110
,
1001
0000
0000
0000
;

//---------------dance-single - one (1) hand BR----------------
#NOTEDATA:;
#CHARTNAME:;
#STEPSTYPE:dance-single;
#DESCRIPTION:one (1) hand BR;
#CHARTSTYLE:;
#DIFFICULTY:Challenge;
#METER:17;
#RADARVALUES:0.871947,0.916580,0.207254,0.341969,1.062176,589.000000,569.000000,20.000000,33.000000,1.000000,2.000000,0.000000,0.000000,0.000000,0.871947,0.916580,0.207254,0.341969,1.062176,589.000000,569.000000,20.000000,33.000000,1.000000,2.000000,0.000000,0.000000,0.000000;
#CREDIT:Team Red Under Armour T-Shirt;
#ATTACKS:TIME=23.219999:LEN=0.020000:MODS=*10000 150% Drunk:TIME=23.219999:LEN=0.020000:MODS=*4 -15% mini:TIME=23.420000:LEN=0.020000:MODS=*10000 -150% Drunk:TIME=23.420000:LEN=0.020000:MODS=*4 -15% mini:TIME=23.610001:LEN=0.020000:MODS=*10000 150% Drunk:TIME=23.610001:LEN=0.020000:MODS=*4 -15% mini:TIME=23.799999:LEN=0.020000:MODS=*10000 -150% Drunk:TIME=23.799999:LEN=0.020000:MODS=*4 -15% mini:TIME=23.900000:LEN=0.020000:MODS=*10000 150% Drunk:TIME=23.900000:LEN=0.020000:MODS=*4 -15% mini:TIME=24.090000:LEN=0.020000:MODS=*10000 -150% Drunk:TIME=24.090000:LEN=0.020000:MODS=*4 -15% mini:TIME=24.190001:LEN=0.020000:MODS=*10000 0% Drunk:TIME=24.190001:LEN=0.010000:MODS=*10000 0% mini:TIME=30.209999:LEN=5.000000:MODS=*100 200% Dizzy:TIME=30.309999:LEN=5.000000:MODS=*100 -200% Dizzy:TIME=30.400000:LEN=5.000000:MODS=*100 200% Dizzy:TIME=30.500000:LEN=5.000000:MODS=*100 0% Dizzy:TIME=30.600000:LEN=5.000000:MODS=*100 200% Dizzy:TIME=30.690001:LEN=5.000000:MODS=*100 -200% Dizzy:TIME=30.790001:LEN=5.000000:MODS=*100 200% Dizzy:TIME=30.889999:LEN=5.000000:MODS=*100 0% Dizzy:TIME=30.980000:LEN=5.000000:MODS=*100 200% Dizzy:TIME=31.080000:LEN=5.000000:MODS=*100 -200% Dizzy:TIME=31.180000:LEN=5.000000:MODS=*100 200% Dizzy:TIME=31.270000:LEN=5.000000:MODS=*100 -200% Dizzy:TIME=31.370001:LEN=5.000000:MODS=*100 200% Dizzy:TIME=31.469999:LEN=5.000000:MODS=*100 0% Dizzy:TIME=37.500000:LEN=0.050000:MODS=*10000 -50% mini:TIME=37.740002:LEN=5.000000:MODS=*100 0% mini:TIME=41.029999:LEN=0.400000:MODS=*10 50% drunk:TIME=41.419998:LEN=0.400000:MODS=*10 -100% drunk:TIME=41.799999:LEN=5.000000:MODS=*10 0% drunk:TIME=42.599998:LEN=5.000000:MODS=*100 200% Dizzy:TIME=42.689999:LEN=5.000000:MODS=*100 -200% Dizzy:TIME=42.790001:LEN=5.000000:MODS=*100 200% Dizzy:TIME=42.889999:LEN=5.000000:MODS=*100 0% Dizzy:TIME=42.980000:LEN=5.000000:MODS=*100 200% Dizzy:TIME=43.080002:LEN=5.000000:MODS=*100 -200% Dizzy:TIME=43.180000:LEN=5.000000:MODS=*100 200% Dizzy:TIME=43.270000:LEN=5.000000:MODS=*100 0% Dizzy:TIME=43.369999:LEN=5.000000:MODS=*100 200% Dizzy:TIME=43.470001:LEN=5.000000:MODS=*100 -200% Dizzy:TIME=43.560001:LEN=5.000000:MODS=*100 200% Dizzy:TIME=43.660000:LEN=5.000000:MODS=*100 -200% Dizzy:TIME=43.759998:LEN=5.000000:MODS=*100 200% Dizzy:TIME=43.849998:LEN=5.000000:MODS=*100 0% Dizzy:TIME=49.540001:LEN=5.000000:MODS=*10 15% dizzy:TIME=50.709999:LEN=5.000000:MODS=*1000 0% dizzy:TIME=57.279999:LEN=1.000000:MODS=*100 75% flip:TIME=57.279999:LEN=1.000000:MODS=*100 75% invert:TIME=57.279999:LEN=0.050000:MODS=*4 -15% mini:TIME=57.869999:LEN=1.000000:MODS=*100 0 invert:TIME=57.869999:LEN=1.000000:MODS=*100 0 flip:TIME=57.869999:LEN=0.050000:MODS=*6 -35% mini:TIME=58.250000:LEN=1.000000:MODS=*100 25% flip:TIME=58.250000:LEN=1.000000:MODS=*100 -75% invert:TIME=58.250000:LEN=0.050000:MODS=*8 -55% mini:TIME=58.639999:LEN=1.000000:MODS=*100 75% flip:TIME=58.639999:LEN=1.000000:MODS=*100 75% invert:TIME=58.639999:LEN=0.050000:MODS=*10 -75% mini:TIME=58.830002:LEN=1.000000:MODS=*100 0% flip:TIME=58.830002:LEN=1.000000:MODS=*100 0% invert:TIME=58.830002:LEN=0.030000:MODS=*8 -100% mini:TIME=60.380001:LEN=0.050000:MODS=*4 -15% mini:TIME=60.380001:LEN=5.000000:MODS=*1000 cross:TIME=60.959999:LEN=0.050000:MODS=*6 -35% mini:TIME=60.959999:LEN=5.000000:MODS=*1000 0% cross:TIME=61.349998:LEN=0.050000:MODS=*8 -55% mini:TIME=61.349998:LEN=0.400000:MODS=*1000 reverse:TIME=61.740002:LEN=0.050000:MODS=*10 -75% mini:TIME=61.740002:LEN=0.200000:MODS=*1000 100% centered:TIME=61.930000:LEN=0.030000:MODS=*8 -100% mini:TIME=74.320000:LEN=0.020000:MODS=*10000 150% Drunk:TIME=74.320000:LEN=0.020000:MODS=*4 -15% mini:TIME=74.510002:LEN=0.020000:MODS=*10000 -150% Drunk:TIME=74.510002:LEN=0.020000:MODS=*4 -15% mini:TIME=74.699997:LEN=0.020000:MODS=*10000 150% Drunk:TIME=74.699997:LEN=0.020000:MODS=*4 -15% mini:TIME=74.900002:LEN=0.020000:MODS=*10000 -150% Drunk:TIME=74.900002:LEN=0.020000:MODS=*4 -15% mini:TIME=74.989998:LEN=0.020000:MODS=*10000 150% Drunk:TIME=74.989998:LEN=0.020000:MODS=*4 -15% mini:TIME=75.190002:LEN=0.020000:MODS=*10000 -150% Drunk:TIME=75.190002:LEN=0.020000:MODS=*4 -15% mini:TIME=75.279999:LEN=0.020000:MODS=*10000 0% Drunk:TIME=75.279999:LEN=0.010000:MODS=*10000 0% mini:TIME=75.870003:LEN=6.000000:MODS=*0.5 20% drunk:TIME=92.910004:LEN=5.000000:MODS=*5 40% mini:TIME=93.110001:LEN=5.000000:MODS=*5 -20% mini:TIME=93.489998:LEN=5.000000:MODS=*5 50% mini:TIME=93.879997:LEN=5.000000:MODS=*5 -40% mini:TIME=94.269997:LEN=5.000000:MODS=*5 0% mini:TIME=94.459999:LEN=5.000000:MODS=*20 200% mini:TIME=23.219999:LEN=0.020000:MODS=*10000 150% Drunk:TIME=23.219999:LEN=0.020000:MODS=*4 -15% mini:TIME=23.420000:LEN=0.020000:MODS=*10000 -150% Drunk:TIME=23.420000:LEN=0.020000:MODS=*4 -15% mini:TIME=23.610001:LEN=0.020000:MODS=*10000 150% Drunk:TIME=23.610001:LEN=0.020000:MODS=*4 -15% mini:TIME=23.799999:LEN=0.020000:MODS=*10000 -150% Drunk:TIME=23.799999:LEN=0.020000:MODS=*4 -15% mini:TIME=23.900000:LEN=0.020000:MODS=*10000 150% Drunk:TIME=23.900000:LEN=0.020000:MODS=*4 -15% mini:TIME=24.090000:LEN=0.020000:MODS=*10000 -150% Drunk:TIME=24.090000:LEN=0.020000:MODS=*4 -15% mini:TIME=24.190001:LEN=0.020000:MODS=*10000 0% Drunk:TIME=24.190001:LEN=0.010000:MODS=*10000 0% mini:TIME=30.209999:LEN=5.000000:MODS=*100 200% Dizzy:TIME=30.309999:LEN=5.000000:MODS=*100 -200% Dizzy:TIME=30.400000:LEN=5.000000:MODS=*100 200% Dizzy:TIME=30.500000:LEN=5.000000:MODS=*100 0% Dizzy:TIME=30.600000:LEN=5.000000:MODS=*100 200% Dizzy:TIME=30.690001:LEN=5.000000:MODS=*100 -200% Dizzy:TIME=30.790001:LEN=5.000000:MODS=*100 200% Dizzy:TIME=30.889999:LEN=5.000000:MODS=*100 0% Dizzy:TIME=30.980000:LEN=5.000000:MODS=*100 200% Dizzy:TIME=31.080000:LEN=5.000000:MODS=*100 -200% Dizzy:TIME=31.180000:LEN=5.000000:MODS=*100 200% Dizzy:TIME=31.270000:LEN=5.000000:MODS=*100 -200% Dizzy:TIME=31.370001:LEN=5.000000:MODS=*100 200% Dizzy:TIME=31.469999:LEN=5.000000:MODS=*100 0% Dizzy:TIME=37.500000:LEN=0.050000:MODS=*10000 -50% mini:TIME=37.740002:LEN=5.000000:MODS=*100 0% mini:TIME=41.029999:LEN=0.400000:MODS=*10 50% drunk:TIME=41.419998:LEN=0.400000:MODS=*10 -100% drunk:TIME=41.799999:LEN=5.000000:MODS=*10 0% drunk:TIME=42.599998:LEN=5.000000:MODS=*100 200% Dizzy:TIME=42.689999:LEN=5.000000:MODS=*100 -200% Dizzy:TIME=42.790001:LEN=5.000000:MODS=*100 200% Dizzy:TIME=42.889999:LEN=5.000000:MODS=*100 0% Dizzy:TIME=42.980000:LEN=5.000000:MODS=*100 200% Dizzy:TIME=43.080002:LEN=5.000000:MODS=*100 -200% Dizzy:TIME=43.180000:LEN=5.000000:MODS=*100 200% Dizzy:TIME=43.270000:LEN=5.000000:MODS=*100 0% Dizzy:TIME=43.369999:LEN=5.000000:MODS=*100 200% Dizzy:TIME=43.470001:LEN=5.000000:MODS=*100 -200% Dizzy:TIME=43.560001:LEN=5.000000:MODS=*100 200% Dizzy:TIME=43.660000:LEN=5.000000:MODS=*100 -200% Dizzy:TIME=43.759998:LEN=5.000000:MODS=*100 200% Dizzy:TIME=43.849998:LEN=5.000000:MODS=*100 0% Dizzy:TIME=49.540001:LEN=5.000000:MODS=*10 15% dizzy:TIME=50.709999:LEN=5.000000:MODS=*1000 0% dizzy:TIME=57.279999:LEN=1.000000:MODS=*100 75% flip:TIME=57.279999:LEN=1.000000:MODS=*100 75% invert:TIME=57.279999:LEN=0.050000:MODS=*4 -15% mini:TIME=57.869999:LEN=1.000000:MODS=*100 0 invert:TIME=57.869999:LEN=1.000000:MODS=*100 0 flip:TIME=57.869999:LEN=0.050000:MODS=*6 -35% mini:TIME=58.250000:LEN=1.000000:MODS=*100 25% flip:TIME=58.250000:LEN=1.000000:MODS=*100 -75% invert:TIME=58.250000:LEN=0.050000:MODS=*8 -55% mini:TIME=58.639999:LEN=1.000000:MODS=*100 75% flip:TIME=58.639999:LEN=1.000000:MODS=*100 75% invert:TIME=58.639999:LEN=0.050000:MODS=*10 -75% mini:TIME=58.830002:LEN=1.000000:MODS=*100 0% flip:TIME=58.830002:LEN=1.000000:MODS=*100 0% invert:TIME=58.830002:LEN=0.030000:MODS=*8 -100% mini:TIME=60.380001:LEN=0.050000:MODS=*4 -15% mini:TIME=60.380001:LEN=5.000000:MODS=*1000 cross:TIME=60.959999:LEN=0.050000:MODS=*6 -35% mini:TIME=60.959999:LEN=5.000000:MODS=*1000 0% cross:TIME=61.349998:LEN=0.050000:MODS=*8 -55% mini:TIME=61.349998:LEN=0.400000:MODS=*1000 reverse:TIME=61.740002:LEN=0.050000:MODS=*10 -75% mini:TIME=61.740002:LEN=0.200000:MODS=*1000 100% centered:TIME=61.930000:LEN=0.030000:MODS=*8 -100% mini:TIME=74.320000:LEN=0.020000:MODS=*10000 150% Drunk:TIME=74.320000:LEN=0.020000:MODS=*4 -15% mini:TIME=74.510002:LEN=0.020000:MODS=*10000 -150% Drunk:TIME=74.510002:LEN=0.020000:MODS=*4 -15% mini:TIME=74.699997:LEN=0.020000:MODS=*10000 150% Drunk:TIME=74.699997:LEN=0.020000:MODS=*4 -15% mini:TIME=74.900002:LEN=0.020000:MODS=*10000 -150% Drunk:TIME=74.900002:LEN=0.020000:MODS=*4 -15% mini:TIME=74.989998:LEN=0.020000:MODS=*10000 150% Drunk:TIME=74.989998:LEN=0.020000:MODS=*4 -15% mini:TIME=75.190002:LEN=0.020000:MODS=*10000 -150% Drunk:TIME=75.190002:LEN=0.020000:MODS=*4 -15% mini:TIME=75.279999:LEN=0.020000:MODS=*10000 0% Drunk:TIME=75.279999:LEN=0.010000:MODS=*10000 0% mini:TIME=75.870003:LEN=6.000000:MODS=*0.5 20% drunk:TIME=92.910004:LEN=5.000000:MODS=*5 40% mini:TIME=93.110001:LEN=5.000000:MODS=*5 -20% mini:TIME=93.489998:LEN=5.000000:MODS=*5 50% mini:TIME=93.879997:LEN=5.000000:MODS=*5 -40% mini:TIME=94.269997:LEN=5.000000:MODS=*5 0% mini:TIME=94.459999:LEN=5.000000:MODS=*20 200% mini:TIME=23.219999:LEN=0.020000:MODS=*10000 150% Drunk:TIME=23.219999:LEN=0.020000:MODS=*4 -15% mini:TIME=23.420000:LEN=0.020000:MODS=*10000 -150% Drunk:TIME=23.420000:LEN=0.020000:MODS=*4 -15% mini:TIME=23.610001:LEN=0.020000:MODS=*10000 150% Drunk:TIME=23.610001:LEN=0.020000:MODS=*4 -15% mini:TIME=23.799999:LEN=0.020000:MODS=*10000 -150% Drunk:TIME=23.799999:LEN=0.020000:MODS=*4 -15% mini:TIME=23.900000:LEN=0.020000:MODS=*10000 150% Drunk:TIME=23.900000:LEN=0.020000:MODS=*4 -15% mini:TIME=24.090000:LEN=0.020000:MODS=*10000 -150% Drunk:TIME=24.090000:LEN=0.020000:MODS=*4 -15% mini:TIME=24.190001:LEN=0.020000:MODS=*10000 0% Drunk:TIME=24.190001:LEN=0.010000:MODS=*10000 0% mini:TIME=30.209999:LEN=5.000000:MODS=*100 200% Dizzy:TIME=30.309999:LEN=5.000000:MODS=*100 -200% Dizzy:TIME=30.400000:LEN=5.000000:MODS=*100 200% Dizzy:TIME=30.500000:LEN=5.000000:MODS=*100 0% Dizzy:TIME=30.600000:LEN=5.000000:MODS=*100 200% Dizzy:TIME=30.690001:LEN=5.000000:MODS=*100 -200% Dizzy:TIME=30.790001:LEN=5.000000:MODS=*100 200% Dizzy:TIME=30.889999:LEN=5.000000:MODS=*100 0% Dizzy:TIME=30.980000:LEN=5.000000:MODS=*100 200% Dizzy:TIME=31.080000:LEN=5.000000:MODS=*100 -200% Dizzy:TIME=31.180000:LEN=5.000000:MODS=*100 200% Dizzy:TIME=31.270000:LEN=5.000000:MODS=*100 -200% Dizzy:TIME=31.370001:LEN=5.000000:MODS=*100 200% Dizzy:TIME=31.469999:LEN=5.000000:MODS=*100 0% Dizzy:TIME=37.500000:LEN=0.050000:MODS=*10000 -50% mini:TIME=37.740002:LEN=5.000000:MODS=*100 0% mini:TIME=41.029999:LEN=0.400000:MODS=*10 50% drunk:TIME=41.419998:LEN=0.400000:MODS=*10 -100% drunk:TIME=41.799999:LEN=5.000000:MODS=*10 0% drunk:TIME=42.599998:LEN=5.000000:MODS=*100 200% Dizzy:TIME=42.689999:LEN=5.000000:MODS=*100 -200% Dizzy:TIME=42.790001:LEN=5.000000:MODS=*100 200% Dizzy:TIME=42.889999:LEN=5.000000:MODS=*100 0% Dizzy:TIME=42.980000:LEN=5.000000:MODS=*100 200% Dizzy:TIME=43.080002:LEN=5.000000:MODS=*100 -200% Dizzy:TIME=43.180000:LEN=5.000000:MODS=*100 200% Dizzy:TIME=43.270000:LEN=5.000000:MODS=*100 0% Dizzy:TIME=43.369999:LEN=5.000000:MODS=*100 200% Dizzy:TIME=43.470001:LEN=5.000000:MODS=*100 -200% Dizzy:TIME=43.560001:LEN=5.000000:MODS=*100 200% Dizzy:TIME=43.660000:LEN=5.000000:MODS=*100 -200% Dizzy:TIME=43.759998:LEN=5.000000:MODS=*100 200% Dizzy:TIME=43.849998:LEN=5.000000:MODS=*100 0% Dizzy:TIME=49.540001:LEN=5.000000:MODS=*10 15% dizzy:TIME=50.709999:LEN=5.000000:MODS=*1000 0% dizzy:TIME=57.279999:LEN=1.000000:MODS=*100 75% flip:TIME=57.279999:LEN=1.000000:MODS=*100 75% invert:TIME=57.279999:LEN=0.050000:MODS=*4 -15% mini:TIME=57.869999:LEN=1.000000:MODS=*100 0 invert:TIME=57.869999:LEN=1.000000:MODS=*100 0 flip:TIME=57.869999:LEN=0.050000:MODS=*6 -35% mini:TIME=58.250000:LEN=1.000000:MODS=*100 25% flip:TIME=58.250000:LEN=1.000000:MODS=*100 -75% invert:TIME=58.250000:LEN=0.050000:MODS=*8 -55% mini:TIME=58.639999:LEN=1.000000:MODS=*100 75% flip:TIME=58.639999:LEN=1.000000:MODS=*100 75% invert:TIME=58.639999:LEN=0.050000:MODS=*10 -75% mini:TIME=58.830002:LEN=1.000000:MODS=*100 0% flip:TIME=58.830002:LEN=1.000000:MODS=*100 0% invert:TIME=58.830002:LEN=0.030000:MODS=*8 -100% mini:TIME=60.380001:LEN=0.050000:MODS=*4 -15% mini:TIME=60.380001:LEN=5.000000:MODS=*1000 cross:TIME=60.959999:LEN=0.050000:MODS=*6 -35% mini:TIME=60.959999:LEN=5.000000:MODS=*1000 0% cross:TIME=61.349998:LEN=0.050000:MODS=*8 -55% mini:TIME=61.349998:LEN=0.400000:MODS=*1000 reverse:TIME=61.740002:LEN=0.050000:MODS=*10 -75% mini:TIME=61.740002:LEN=0.200000:MODS=*1000 100% centered:TIME=61.930000:LEN=0.030000:MODS=*8 -100% mini:TIME=74.320000:LEN=0.020000:MODS=*10000 150% Drunk:TIME=74.320000:LEN=0.020000:MODS=*4 -15% mini:TIME=74.510002:LEN=0.020000:MODS=*10000 -150% Drunk:TIME=74.510002:LEN=0.020000:MODS=*4 -15% mini:TIME=74.699997:LEN=0.020000:MODS=*10000 150% Drunk:TIME=74.699997:LEN=0.020000:MODS=*4 -15% mini:TIME=74.900002:LEN=0.020000:MODS=*10000 -150% Drunk:TIME=74.900002:LEN=0.020000:MODS=*4 -15% mini:TIME=74.989998:LEN=0.020000:MODS=*10000 150% Drunk:TIME=74.989998:LEN=0.020000:MODS=*4 -15% mini:TIME=75.190002:LEN=0.020000:MODS=*10000 -150% Drunk:TIME=75.190002:LEN=0.020000:MODS=*4 -15% mini:TIME=75.279999:LEN=0.020000:MODS=*10000 0% Drunk:TIME=75.279999:LEN=0.010000:MODS=*10000 0% mini:TIME=75.870003:LEN=6.000000:MODS=*0.5 20% drunk:TIME=23.219999:LEN=0.020000:MODS=*10000 150% Drunk:TIME=23.219999:LEN=0.020000:MODS=*4 -15% mini:TIME=23.420000:LEN=0.020000:MODS=*10000 -150% Drunk:TIME=23.420000:LEN=0.020000:MODS=*4 -15% mini:TIME=23.610001:LEN=0.020000:MODS=*10000 150% Drunk:TIME=23.610001:LEN=0.020000:MODS=*4 -15% mini:TIME=23.799999:LEN=0.020000:MODS=*10000 -150% Drunk:TIME=23.799999:LEN=0.020000:MODS=*4 -15% mini:TIME=23.900000:LEN=0.020000:MODS=*10000 150% Drunk:TIME=23.900000:LEN=0.020000:MODS=*4 -15% mini:TIME=24.090000:LEN=0.020000:MODS=*10000 -150% Drunk:TIME=24.090000:LEN=0.020000:MODS=*4 -15% mini:TIME=24.190001:LEN=0.020000:MODS=*10000 0% Drunk:TIME=24.190001:LEN=0.010000:MODS=*10000 0% mini:TIME=30.209999:LEN=5.000000:MODS=*100 200% Dizzy:TIME=30.309999:LEN=5.000000:MODS=*100 -200% Dizzy:TIME=30.400000:LEN=5.000000:MODS=*100 200% Dizzy:TIME=30.500000:LEN=5.000000:MODS=*100 0% Dizzy:TIME=30.600000:LEN=5.000000:MODS=*100 200% Dizzy:TIME=30.690001:LEN=5.000000:MODS=*100 -200% Dizzy:TIME=30.790001:LEN=5.000000:MODS=*100 200% Dizzy:TIME=30.889999:LEN=5.000000:MODS=*100 0% Dizzy:TIME=30.980000:LEN=5.000000:MODS=*100 200% Dizzy:TIME=31.080000:LEN=5.000000:MODS=*100 -200% Dizzy:TIME=31.180000:LEN=5.000000:MODS=*100 200% Dizzy:TIME=31.270000:LEN=5.000000:MODS=*100 -200% Dizzy:TIME=31.370001:LEN=5.000000:MODS=*100 200% Dizzy:TIME=31.469999:LEN=5.000000:MODS=*100 0% Dizzy:TIME=37.500000:LEN=0.050000:MODS=*10000 -50% mini:TIME=37.740002:LEN=5.000000:MODS=*100 0% mini:TIME=41.029999:LEN=0.400000:MODS=*10 50% drunk:TIME=41.419998:LEN=0.400000:MODS=*10 -100% drunk:TIME=41.799999:LEN=5.000000:MODS=*10 0% drunk:TIME=42.599998:LEN=5.000000:MODS=*100 200% Dizzy:TIME=42.689999:LEN=5.000000:MODS=*100 -200% Dizzy:TIME=42.790001:LEN=5.000000:MODS=*100 200% Dizzy:TIME=42.889999:LEN=5.000000:MODS=*100 0% Dizzy:TIME=42.980000:LEN=5.000000:MODS=*100 200% Dizzy:TIME=43.080002:LEN=5.000000:MODS=*100 -200% Dizzy:TIME=43.180000:LEN=5.000000:MODS=*100 200% Dizzy:TIME=43.270000:LEN=5.000000:MODS=*100 0% Dizzy:TIME=43.369999:LEN=5.000000:MODS=*100 200% Dizzy:TIME=43.470001:LEN=5.000000:MODS=*100 -200% Dizzy:TIME=43.560001:LEN=5.000000:MODS=*100 200% Dizzy:TIME=43.660000:LEN=5.000000:MODS=*100 -200% Dizzy:TIME=43.759998:LEN=5.000000:MODS=*100 200% Dizzy:TIME=43.849998:LEN=5.000000:MODS=*100 0% Dizzy:TIME=49.540001:LEN=5.000000:MODS=*10 15% dizzy:TIME=50.709999:LEN=5.000000:MODS=*1000 0% dizzy:TIME=57.279999:LEN=1.000000:MODS=*100 75% flip:TIME=57.279999:LEN=1.000000:MODS=*100 75% invert:TIME=57.279999:LEN=0.050000:MODS=*4 -15% mini:TIME=57.869999:LEN=1.000000:MODS=*100 0 invert:TIME=57.869999:LEN=1.000000:MODS=*100 0 flip:TIME=57.869999:LEN=0.050000:MODS=*6 -35% mini:TIME=58.250000:LEN=1.000000:MODS=*100 25% flip:TIME=58.250000:LEN=1.000000:MODS=*100 -75% invert:TIME=58.250000:LEN=0.050000:MODS=*8 -55% mini:TIME=58.639999:LEN=1.000000:MODS=*100 75% flip:TIME=58.639999:LEN=1.000000:MODS=*100 75% invert:TIME=58.639999:LEN=0.050000:MODS=*10 -75% mini:TIME=58.830002:LEN=1.000000:MODS=*100 0% flip:TIME=58.830002:LEN=1.000000:MODS=*100 0% invert:TIME=58.830002:LEN=0.030000:MODS=*8 -100% mini:TIME=60.380001:LEN=0.050000:MODS=*4 -15% mini:TIME=60.380001:LEN=5.000000:MODS=*1000 cross:TIME=60.959999:LEN=0.050000:MODS=*6 -35% mini:TIME=60.959999:LEN=5.000000:MODS=*1000 0% cross:TIME=61.349998:LEN=0.050000:MODS=*8 -55% mini:TIME=61.349998:LEN=0.400000:MODS=*1000 reverse:TIME=61.740002:LEN=0.050000:MODS=*10 -75% mini:TIME=61.740002:LEN=0.200000:MODS=*1000 100% centered:TIME=61.930000:LEN=0.030000:MODS=*8 -100% mini:TIME=74.320000:LEN=0.020000:MODS=*10000 150% Drunk:TIME=74.320000:LEN=0.020000:MODS=*4 -15% mini:TIME=74.510002:LEN=0.020000:MODS=*10000 -150% Drunk:TIME=74.510002:LEN=0.020000:MODS=*4 -15% mini:TIME=74.699997:LEN=0.020000:MODS=*10000 150% Drunk:TIME=74.699997:LEN=0.020000:MODS=*4 -15% mini:TIME=74.900002:LEN=0.020000:MODS=*10000 -150% Drunk:TIME=74.900002:LEN=0.020000:MODS=*4 -15% mini:TIME=74.989998:LEN=0.020000:MODS=*10000 150% Drunk:TIME=74.989998:LEN=0.020000:MODS=*4 -15% mini:TIME=75.190002:LEN=0.020000:MODS=*10000 -150% Drunk:TIME=75.190002:LEN=0.020000:MODS=*4 -15% mini:TIME=75.279999:LEN=0.020000:MODS=*10000 0% Drunk:TIME=75.279999:LEN=0.010000:MODS=*10000 0% mini;
#NOTES:
// measure 0
0000
0000
0000
0000
,  // measure 1
0000
0000
0000
0000
,  // measure 2
0000
0000
0000
0000
,  // measure 3
0000
0000
0000
0000
,  // measure 4
1000
0010
1000
0000
0001
0010
0000
0100
1000
0001
0100
0010
0000
0000
0100
0010
,  // measure 5
0000
1000
0001
1000
0000
0100
0000
0010
0100
1000
0001
0100
0000
0000
0010
1000
,  // measure 6
0001
0000
0010
0100
0000
1000
0000
0000
0001
0100
0000
0010
0000
0100
0001
0010
,  // measure 7
0100
0100
0000
1100
0000
0101
0000
1010
,  // measure 8
1001
0000
0001
0000
0010
0000
0001
0000
1000
0000
0010
0100
0001
1000
0200
0000
,  // measure 9
0310
0000
0001
1000
0001
0000
0100
0000
0010
0000
1000
0010
0100
0001
2000
0000
,  // measure 10
3100
0000
1000
0000
0001
0000
0010
0000
0100
0000
0010
0001
1000
0001
0200
0000
,  // measure 11
0310
0000
1000
0100
1000
0000
0010
0000
0100
0000
0001
1000
0100
0010
0002
0000
,  // measure 12
0103
0000
0010
0000
1000
0000
0010
0000
0100
0000
0010
1000
0010
0100
0020
0000
,  // measure 13
1030
0000
0100
1000
0001
0000
1000
0000
0001
0000
0010
0001
0100
0001
2000
0000
,  // measure 14
3001
0010
0100
1000
0010
0100
0001
1000
0001
0010
0100
1000
0100
0010
0001
1000
,  // measure 15
0010
0000
0000
0000
0000
0000
1000
0000
0000
0000
0000
0000
0001
0000
0000
0000
0000
0000
0100
0000
0000
0100
0000
0000
0000
0000
0000
0010
0000
0000
0010
0000
0000
0000
0000
0000
1000
0000
0100
0000
1000
0000
0001
0000
0000
0100
0000
0000
,  // measure 16
0010
1000
0010
0000
0100
0000
0001
0000
0010
0000
0100
0000
0010
0000
0001
1000
,  // measure 17
0010
0000
0100
0001
0000
0000
1000
0000
0100
0000
0010
0100
0000
0010
0001
1000
,  // measure 18
0010
0000
0100
0000
0001
0000
1000
0010
0100
1000
0100
1000
0000
0000
0100
0010
,  // measure 19
0000
0100
0001
0000
1000
0000
0100
0000
0010
0001
0000
0100
0000
0000
0010
0000
,  // measure 20
0100
0001
0100
0000
0010
0000
0010
0000
1000
0000
1000
0000
0100
0000
0010
0001
,  // measure 21
0010
0100
1000
0000
0001
0000
0001
0000
0100
0000
0100
0000
0110
0000
0000
0000
,  // measure 22
1000
0100
0010
0000
1000
0000
0010
0001
1000
0010
0100
0001
0000
0000
0000
0000
,  // measure 23
1000
0000
0001
0010
0001
0000
1000
0100
0010
0001
0010
0000
0100
1000
0001
0100
,  // measure 24
0010
0000
0000
0000
0000
0000
0100
0000
0000
0000
0000
0M00
1000
0000
0000
0000
0000
0000
0000
0000
0000
0000
0000
0000
0001
0000
0000
0100
0000
0000
0001
0000
0000
0000
0000
0000
0010
0000
0000
0000
0000
0000
0100
0000
0000
1000
0000
0000
,  // measure 25
0100
0000
1000
0100
0000
0010
0100
1000
0001
0000
0100
0000
0020
0000
0000
0000
,  // measure 26
0130
0000
0001
0100
0000
0000
0010
1000
0002
0000
0000
0000
2000
0000
0000
0000
,  // measure 27
3013
0000
1001
0000
,  // measure 28
0001
0100
0010
0000
1000
0100
1000
0001
0100
0010
1000
0000
0100
0000
0000
0010
,  // measure 29
0000
0010
0000
0100
1000
0000
0001
0100
0000
0000
0010
0000
0000
0000
0010
0000
,  // measure 30
1000
0000
0000
0001
0000
0000
1000
0000
0000
0100
0000
0000
0000
0000
0000
0100
0000
0000
0010
0000
0000
0000
0000
0000
0001
0000
0000
0000
0000
0000
0010
0000
0000
0000
0100
0000
0000
0000
0000
0000
0000
0000
1000
0000
0000
0000
0000
0000
,  // measure 31
1000
0000
0100
0000
1000
0000
0001
0100
0000
0001
0100
0000
0010
0000
1000
0000
,  // measure 32
0001
0010
0001
1000
0001
0100
0010
1000
0100
0010
0001
0100
1000
0000
0000
0000
,  // measure 33
0100
0000
0000
0000
0000
0000
0001
0000
0000
1000
0000
0000
0100
0000
0000
0000
0010
0000
0000
0000
0001
0000
0000
0000
1000
0000
0000
0000
0000
0000
0010
0000
0000
0100
0000
0000
0001
0000
0000
0000
1000
0000
0000
0000
0100
0000
0000
0000
,  // measure 34
0001
0000
0000
0000
0000
0000
0100
0000
0000
0010
0000
0000
0001
0000
0000
0000
1000
0000
0000
0000
0010
0000
0000
0000
0100
0000
0000
0000
0000
0000
0010
0000
0000
1000
0000
0000
0001
0000
0000
0000
0100
0000
0000
0000
0010
0000
0000
0000
,  // measure 35
0001
0000
0000
0000
0000
0000
0010
0000
0000
0100
0000
0000
0001
0000
0000
0000
1000
0000
0000
0000
0100
0000
0000
0000
0010
0000
0000
0000
0000
0000
0001
0000
0000
0100
0000
0000
0010
0000
0000
0000
1000
0000
0000
0000
0100
0000
0000
0000
,  // measure 36
0001
0000
0000
0000
0000
0000
0100
0000
0000
0010
0000
0000
0100
0000
0000
0000
1000
0000
0000
0000
0010
0000
0000
0000
0001
0000
0000
0000
0000
0000
0010
0000
0000
0100
0000
0000
0001
0000
0000
0000
0010
0000
0000
0000
0001
0000
0000
0000
,  // measure 37
1100
0001
0010
0101
0010
0101
1000
0011
,  // measure 38
1100
0000
0000
0000
0000
0000
0010
0000
0000
0100
0000
0000
0001
0000
0000
0000
0100
0000
0000
0000
0010
0000
0000
0000
1000
0000
0000
0000
0000
0000
0001
0000
0000
1000
0000
0000
0100
0000
0000
0000
0010
0000
0000
0000
0100
0000
0000
0000
,  // measure 39
1010
0100
1000
0011
1000
0011
0100
0011
,  // measure 40
1100
0000
0100
0000
0100
0000
0100
0000
0001
0100
0010
1000
0100
0010
0001
1000
,  // measure 41
0001
0000
1000
0000
0010
0000
1000
0000
0001
0000
0010
0100
1000
0001
0200
0000
,  // measure 42
0310
0000
1000
0001
1000
0000
0100
0000
0010
0000
0001
0010
0100
1000
0002
0000
,  // measure 43
0103
0000
0001
0000
1000
0000
0010
0000
0100
0000
0010
1000
0001
1000
0200
0000
,  // measure 44
0310
0000
0001
0100
0001
0000
0010
0000
0100
0000
1000
0001
0100
0010
2000
0000
,  // measure 45
3100
0000
0010
0000
0001
0000
1000
0000
0100
0000
0010
0001
0010
0100
0020
0000
,  // measure 46
0031
0000
0100
0001
1000
0000
0001
0000
1000
0000
0010
1000
0100
1000
0002
0000
,  // measure 47
1003
0010
0100
0001
0010
0100
1000
0001
1000
0010
0100
0001
0100
0010
1000
0001
,  // measure 48
0010
0000
0000
0000
0000
0000
0001
0000
0000
0000
0000
0000
1000
0000
0000
0000
0000
0000
0100
0000
0000
0100
0000
0000
0000
0000
0000
0010
0000
0000
0010
0000
0000
0000
0000
0000
0001
0000
0100
0000
0001
0000
1000
0000
0000
0100
0000
0000
,  // measure 49
0020
0000
0000
0230
0000
2300
0000
0200
,  // measure 50
3320
0000
0000
0230
0000
2000
0300
3020
,  // measure 51
0230
0000
0000
0302
0000
2003
0000
3020
,  // measure 52
0230
0000
0300
0002
0000
0003
0020
0000
0230
0000
0000
0000
2300
0000
3000
0000
,  // measure 53
0001
0010
0001
0000
1000
0010
0000
0100
0001
0010
0100
0001
0000
0000
0100
1000
,  // measure 54
0000
0010
0100
0010
0000
0100
0000
0010
1000
0000
0001
0000
0100
0001
0010
0001
,  // measure 55
1000
0100
0010
0000
0100
1000
0000
0001
1000
0010
0100
1000
0000
0000
0100
0001
,  // measure 56
1000
0100
0001
0000
0100
2000
0000
3001
0100
0010
0100
1000
0000
0000
0100
0000
,  // measure 57
0001
0010
0001
0000
1000
0010
0000
1000
0001
0010
0100
0001
0000
0000
0100
1000
,  // measure 58
0000
0001
1000
0001
0000
0100
0000
0001
1000
0010
0100
1000
0000
0000
0100
0001
,  // measure 59
1000
0000
0010
0100
0001
0010
0000
0000
0100
0010
0000
1000
0000
0010
0100
1000
,  // measure 60
0001
0100
0000
0101
0000
1100
0000
0011
,  // measure 61
1001
0000
0000
0000
;
