#VERSION:0.83;
#TITLE:Quilt;
#SUBTITLE:;
#ARTIST:Des-Sana+wpt9;
#TITLETRANSLIT:;
#SUBTITLETRANSLIT:;
#ARTISTTRANSLIT:;
#GENRE:;
#ORIGIN:;
#TAGS:;
#CREDIT:;
#BANNER:Quilt-bn.png;
#BACKGROUND:Quilt-bg.png;
#PREVIEWVID:;
#JACKET:Quilt-jk.png;
#CDIMAGE:;
#DISCIMAGE:;
#LYRICSPATH:;
#CDTITLE:;
#MUSIC:Quilt.ogg;
#OFFSET:0.000000;
#SAMPLESTART:77.505203;
#SAMPLELENGTH:16.179001;
#SELECTABLE:YES;
#BPMS:0.000000=178.000000
;
#STOPS:;
#DELAYS:;
#WARPS:;
#TIMESIGNATURES:0.000000=4=4
,132.000000=2=4
,134.000000=4=4
;
#TICKCOUNTS:0.000000=4
;
#COMBOS:0.000000=1
;
#SPEEDS:0.000000=1.000000=0.000000=0
;
#SCROLLS:0.000000=1.000000
;
#LABELS:0.000000=Song Start
;
#BGCHANGES:;
#KEYSOUNDS:;
#ATTACKS:
;

//---------------dance-double - ----------------
#NOTEDATA:;
#CHARTNAME:;
#CHARTHASH:227358213;
#STEPSTYPE:dance-double;
#BANNER:;
#DESCRIPTION:;
#CHARTSTYLE:;
#DIFFICULTY:Medium;
#METER:13;
#METERF:13.000000;
#LASTSECONDHINT:115.617973;
#RADARVALUES:0.000000,0.000000,0.000000,0.000000,0.000000,0.000000,0.000000,0.000000,0.000000,0.000000,0.000000,0.000000,0.000000,0.000000,0.000000,0.000000,0.000000,0.000000,0.000000,0.000000,0.000000,0.000000,0.000000,0.000000,0.000000,0.000000,0.000000,0.000000;
#CREDIT:Embrace;
#NOTES:
00000000
00000000
00000000
00000000
,
00000000
00000000
00000000
00000000
,
00000000
00000000
00000000
00000000
,
00000000
00000000
00000000
00000000
,
00000000
00000000
00000000
00000000
,
00000001
00000010
00000100
00001000
00000000
00000100
00010000
00001000
,
00100000
00010000
01000000
00200000
00000000
00000000
10300000
00000000
,
00010000
00010000
00000000
00100000
00100000
00000000
00001000
00001000
,
00000000
00010000
00000100
00001000
00000100
00000010
00000001
00000000
,
00000200
00000000
00000310
00010000
00000010
00000000
00000100
00001000
,
00010000
00001000
01000000
00200000
00000000
00000000
10300000
00000000
,
00020000
00000000
10030000
00100000
10000000
00000000
00010000
00100000
,
00001000
00010000
00001000
00000020
00000000
00000000
00000031
00000000
,
00002000
00000000
00003100
00010000
00000100
00000000
00100000
00001000
,
00010000
01000000
10000000
00200000
00000000
00000000
01300000
00000000
,
00010000
00010000
00000000
00100000
00100000
00000000
00001000
00001000
,
00000000
00010000
00010000
00000010
00000100
00000010
00000010
00000000
,
00001000
00000000
00000000
00000101
00000000
00000000
00001000
00000001
,
00000000
00000100
00000001
00000010
00000000
00000100
00010000
00000000
,
00001000
00000000
00000000
00101000
00000000
00000000
00100000
01000000
,
00000000
01000000
10000000
00000000
00010000
01000000
00001000
00000000
,
00010000
00000000
00000100
00000000
00000010
00000001
00000000
00000200
,
00000000
00000310
00000000
00010000
00002000
00000000
01003000
00000000
,
00100000
00000000
01000000
00010000
00100000
00000000
01000000
00000000
,
20000000
00000000
30010000
00100000
00001000
00000000
00011000
00000000
,
00002000
00100000
00010000
01000000
,
00023000
00000100
00001000
00030010
,
00021000
00000010
00001000
00000100
,
00032000
01000000
00010000
00103000
,
00110000
00000000
00010000
00000000
10000000
00100000
00000000
01100000
,
00000000
01000000
00000000
00010000
01000000
00001000
00010000
00000100
,
00002000
00000000
00000000
00000010
00003010
00000000
00000100
00000001
,
00000000
00000001
00000010
00000000
00000100
00010000
00001000
00000000
,
00100000
00000000
00100000
00110000
00000000
00000000
10000000
00000000
,
00100000
00010000
00001000
00010000
00000000
00000000
00000100
00000000
,
00000010
00000001
00001000
00000010
00000000
00000000
00000100
00000000
,
00001000
00010000
00001000
00000000
00100000
00000000
01000000
00000000
,
10000000
00010000
10000000
10100000
00000000
00000000
10000000
00000000
,
01000000
00010000
00001000
00010000
00000000
00010000
00000100
00010000
,
00000100
00001000
00000100
00000001
00000000
00000001
00000100
00000000
,
00000010
00001000
00010000
00001000
00000000
00001000
01000000
00000000
,
00100000
00000000
00100000
10000000
00000000
10000000
02000000
00000000
00000000
00000000
00000000
00000000
,
00000000
03200000
00000000
00000000
,
00301000
00000000
00001000
00000000
00010000
00010000
00000000
00000010
,
00000010
00000000
00000100
00000100
00000000
00001000
00001000
00000000
,
00000100
00000010
00001000
00000001
00000010
00000000
00000110
00000000
,
00010000
00000000
00101000
00100000
00010000
00000000
01010000
00000000
,
10000000
20010000
30100000
01100000
,
01000000
00000000
01001000
00000000
00001000
00000100
00000010
00000000
,
00010000
00001000
00000020
00000000
00000031
00000000
00000101
00000000
,
00000010
00010010
00012000
01003000
,
10200000
01300000
00002000
00013000
,
00000020
00000000
00000130
00000000
00000001
00000010
00000000
00000110
,
00000000
00000100
00010000
00000000
00001000
00000000
00001000
00000000
,
10010000
00000000
00000000
10000000
00000000
10000000
00010000
01000000
,
00001000
00000000
00001000
00010000
00000000
00010000
00000100
00000000
00000000
00000000
00000000
00000000
,
00000110
00000000
00000000
00000000
00000010
00000001
00001000
00001001
,
00000000
00010010
00000000
00000000
00000001
00000100
00001000
00020000
,
00000000
02030000
00000000
13000000
00000000
10000000
00010000
00100000
,
00001000
00010000
00000100
00000000
00000010
00000001
00000010
00001000
,
00000000
00010000
00100000
20000000
00000000
00000000
31000000
00100000
,
00001000
00010000
00000010
00000000
00000200
00000000
00000301
00000001
,
00000000
00000100
00000010
00000100
00002000
00000000
00023000
00000000
,
00230000
00000000
01300000
00000000
00001000
00001000
00000000
00010000
,
00010000
00000000
00001000
00100000
01000000
00000000
10000000
00100000
,
01000000
00001000
00010000
00000000
00010010
00000000
00000001
00001000
,
00000000
00010100
00000000
00000110
00000000
00000000
00000100
00000000
,
00010000
00000000
00001000
00000000
00101000
00000000
10000000
00010000
,
00000000
01001000
00000000
01100000
00000000
00100000
10000000
00000000
,
01000000
10000000
00100000
00000000
00020000
00000000
00031000
02000000
,
00000000
03100000
10000000
00000000
02000000
00000000
03010000
00002000
,
00000000
01003000
00020000
00000000
00230000
00000000
00301000
00020000
,
00000000
00000000
00030100
00000010
00002000
00000000
00003020
00000000
,
00000032
00000000
00000103
00000020
00000000
00000000
00000000
00000000
,
00000000
00000000
00000030
00000000
,
00010000
00000000
00001000
00010000
00001000
00000000
00000000
00000000
01000000
00000000
00000000
00000000
00100000
00000000
10000000
00000000
,
00010000
00000000
01000000
00000000
00001000
00000000
00010000
00000000
00000010
00000000
00000000
00000010
00000000
00000000
00001000
00000000
,
00000000
00001000
00000000
00000000
00000001
00000000
00000010
00000000
00000100
00000000
00000000
00000100
00000000
00000000
00010000
00000000
,
00000000
00010000
00000000
00000000
00001000
00000000
00000000
00001000
01000000
00000000
00100000
00000000
01000000
00000000
00010000
00000000
,
10000000
01000000
01100000
00000000
00010000
01000000
00100000
01000000
,
00001000
00010000
00000100
00000010
00000001
00001000
00000010
00000200
,
00000000
00001300
00000100
00000001
00000010
00001000
00010000
00000100
,
00001000
00000000
00000010
00000000
00010000
00001000
01000000
00000000
00000000
00000000
01100000
00000000
00000000
00000000
10100000
00000000
,
00000000
01001000
00000000
00001000
00010000
00010000
00000000
00001000
,
00001000
00000000
00010100
00010100
00000000
00001001
00001001
00000000
,
00001000
00000000
00000010
00001000
00000010
00000000
00010000
00002000
00000000
00000000
00000000
00000000
00003000
00000000
00000000
00000000
;

//---------------dance-single - ----------------
#NOTEDATA:;
#CHARTNAME:;
#CHARTHASH:2173578888;
#STEPSTYPE:dance-single;
#BANNER:;
#DESCRIPTION:;
#CHARTSTYLE:;
#DIFFICULTY:Beginner;
#METER:3;
#METERF:3.000000;
#LASTSECONDHINT:115.617973;
#RADARVALUES:0.000000,0.000000,0.000000,0.000000,0.000000,0.000000,0.000000,0.000000,0.000000,0.000000,0.000000,0.000000,0.000000,0.000000,0.000000,0.000000,0.000000,0.000000,0.000000,0.000000,0.000000,0.000000,0.000000,0.000000,0.000000,0.000000,0.000000,0.000000;
#CREDIT:Embrace;
#NOTES:
0000
0000
0000
0000
,
0000
0000
0000
0000
,
0000
0000
0000
0000
,
0000
0000
0000
0000
,
0000
0000
0000
0000
,
1000
0000
0000
0000
,
0000
0000
0000
0000
,
0001
0000
0000
0000
,
0001
0000
0000
0000
,
0020
0000
0000
0000
,
0030
0000
0000
0000
,
0200
0000
0000
0000
,
0300
0000
0000
0000
,
0020
0000
0000
0000
,
0030
0000
0000
0000
,
1000
0000
0000
0000
,
0001
0000
0000
0000
,
1000
0000
0000
0000
,
0000
0000
0000
0001
,
0001
0000
0000
0000
,
0000
0000
0000
1000
,
1000
0000
0000
0000
,
0010
0000
0000
0000
,
0100
0000
0000
0000
,
0100
0000
0000
0000
,
0001
0000
0000
0000
,
0000
0000
0000
0000
,
0010
0000
0000
0000
,
0000
0000
0000
0000
,
0100
0000
0000
0000
,
1000
0000
0000
0000
,
0010
0000
0010
0000
,
0010
0000
0010
0000
,
0000
0000
1001
0000
,
0001
0000
0010
0000
,
0001
0000
0100
0000
,
0001
0000
0010
0000
,
0001
0000
1000
0000
,
0010
0000
1000
0000
,
0100
0000
1000
0000
,
0010
0000
1000
0000
,
0100
0000
0020
0000
,
0000
0000
0000
0000
,
0030
0000
0001
0000
,
0001
0000
1000
0000
,
0020
0000
0030
0010
,
0000
1000
0000
0001
,
0000
0100
0000
1000
,
0000
0010
0000
0001
,
0001
0001
0000
1000
,
0000
0100
0000
0001
,
0000
0010
0000
1000
,
0000
0100
0000
0010
,
0000
0001
0002
0000
,
0000
0000
0003
0000
,
1000
0000
1000
0000
,
1000
0000
0010
0010
,
0010
0000
1001
0000
,
0001
0000
0100
0000
,
0010
0000
0001
0000
,
1000
0000
0010
0000
,
0100
0000
1000
0000
,
0100
0000
0001
0000
,
0010
0000
0100
0000
,
0100
0000
0010
0010
,
0010
0000
1000
0000
,
0001
0000
0020
0000
,
0030
0000
0100
0000
,
1000
0000
0020
0000
,
0030
0000
0100
0000
,
0100
0000
0010
0000
,
0010
0000
1000
0000
,
0001
0000
0010
0010
,
0010
0010
0000
0000
,
0000
0000
0000
0000
,
0000
0000
2002
0000
,
0000
0000
3003
0000
,
0000
0000
0020
0000
,
0000
0000
0030
0000
,
0000
0000
0200
0000
,
0000
0000
0300
0000
,
0000
0000
0002
0000
,
0003
0001
0000
1000
,
0000
0001
0001
0000
,
0000
1001
0000
0000
,
1000
2000
0000
3000
;

//---------------dance-single - ----------------
#NOTEDATA:;
#CHARTNAME:;
#CHARTHASH:2731788801;
#STEPSTYPE:dance-single;
#BANNER:;
#DESCRIPTION:;
#CHARTSTYLE:;
#DIFFICULTY:Easy;
#METER:7;
#METERF:7.000000;
#LASTSECONDHINT:115.280899;
#RADARVALUES:0.000000,0.000000,0.000000,0.000000,0.000000,0.000000,0.000000,0.000000,0.000000,0.000000,0.000000,0.000000,0.000000,0.000000,0.000000,0.000000,0.000000,0.000000,0.000000,0.000000,0.000000,0.000000,0.000000,0.000000,0.000000,0.000000,0.000000,0.000000;
#CREDIT:Embrace;
#NOTES:
0000
0000
0000
0000
,
0000
0000
0000
0000
,
0000
0000
0000
0000
,
0000
0000
0000
0000
,
0000
0000
0000
0000
,
0001
0001
0010
0000
,
0100
1000
0001
0000
,
0100
0000
0000
0010
0000
0000
1000
0000
,
0000
0001
0000
0000
0010
0000
0001
0000
,
2000
0001
3001
0000
,
1000
0001
0100
0000
,
0020
0100
0130
0000
,
0010
1000
0100
0000
,
0020
0001
0031
0000
,
1000
0010
0100
0000
,
0010
0000
0000
1000
0000
0000
0100
0000
,
0000
0010
0000
0000
0001
0000
1000
0000
,
1001
0000
0001
0000
,
0100
0010
1000
0010
,
0100
0000
0001
0000
,
0010
0100
1000
0001
,
0010
0000
0001
0000
,
0100
0000
0001
1000
,
0010
1000
0100
0000
,
0010
0001
1001
0000
,
1000
0010
0200
0300
,
0001
0010
0200
0300
,
0010
0001
0200
0300
,
0010
1000
0200
0300
,
1000
0001
0100
0010
,
1001
0000
1000
0100
,
0020
0001
0031
0000
,
2000
0010
3010
0000
,
0100
0000
0000
1001
0000
0000
0010
0000
,
0000
1000
0000
0001
,
0000
0010
0001
0100
,
0000
0010
0000
0100
,
0000
0010
0000
1001
0000
0000
0010
0000
,
0000
1000
0000
0100
,
1000
0010
0000
0100
,
0000
0001
1000
0001
,
0010
0100
2000
0000
,
0000
3002
0000
0000
,
0003
0000
0000
0000
1000
0000
0000
0010
,
0000
0000
0100
0000
0000
0001
0000
0000
,
0010
0100
0110
1000
,
0000
1000
0001
0100
,
0010
1000
0001
0010
,
0000
0010
0001
0100
,
0010
1000
1010
0010
,
0000
1000
0200
0300
,
0020
0030
0002
0003
,
2000
3000
0020
0030
,
0100
0001
0020
0000
,
0000
0000
0000
0000
0000
0030
0000
0001
,
0000
1000
0000
0001
1000
0000
0000
0000
,
0110
0000
0000
0000
0001
1000
0001
1000
,
0000
0001
0000
0000
1000
0000
0010
0000
,
1000
0100
0010
0000
,
1001
0000
0001
0100
,
0001
0010
0200
0300
,
1001
0000
1000
0100
,
0001
0000
0100
1000
,
0010
0100
0002
0000
,
1003
0000
2000
0000
,
3001
0000
0000
0000
0001
0000
0000
0010
,
0000
0010
0000
0010
0000
0000
0001
0000
,
1000
0000
0001
0000
1000
0000
0000
0010
,
0000
0010
0000
0010
0000
0000
1000
0000
,
0001
0000
0010
0000
0100
0000
0000
1000
,
0000
0000
0001
0000
1000
0000
0000
0010
,
0000
0000
0100
0000
0001
0000
0000
1000
,
0000
0000
0010
1000
0010
0000
1000
0000
,
0001
0000
0100
0002
0000
0000
0000
0000
,
0000
0000
0003
0000
,
0000
0000
1001
1000
,
0100
0010
0001
0100
,
0010
0100
0001
1000
,
0100
1000
0010
0100
,
0010
1000
0001
0010
,
0100
0010
0001
1000
,
0010
0100
0001
1000
,
0100
0000
0020
0000
0030
0001
0000
1000
,
0000
0010
0000
0100
0001
0000
0000
1001
,
0000
0000
0110
0000
0000
1001
0000
0000
,
0110
2002
3003
0000
;

//---------------dance-single - ----------------
#NOTEDATA:;
#CHARTNAME:;
#CHARTHASH:942126511;
#STEPSTYPE:dance-single;
#BANNER:;
#DESCRIPTION:;
#CHARTSTYLE:;
#DIFFICULTY:Medium;
#METER:12;
#METERF:12.000000;
#LASTSECONDHINT:115.617973;
#RADARVALUES:0.000000,0.000000,0.000000,0.000000,0.000000,0.000000,0.000000,0.000000,0.000000,0.000000,0.000000,0.000000,0.000000,0.000000,0.000000,0.000000,0.000000,0.000000,0.000000,0.000000,0.000000,0.000000,0.000000,0.000000,0.000000,0.000000,0.000000,0.000000;
#CREDIT:Embrace;
#NOTES:
0000
0000
0000
0000
,
0000
0000
0000
0000
,
0000
0000
0000
0000
,
0000
0000
0000
0000
,
0000
0000
0000
0000
,
1000
0001
1000
0010
0000
1000
0001
0010
,
0100
1000
0001
0200
0000
0000
0310
0000
,
1000
1000
0000
0001
0001
0000
0010
0010
,
0000
0001
1000
0100
1000
0001
0100
0000
,
0020
0000
1030
0001
1000
0000
0100
0010
,
0001
1000
0010
0200
0000
0000
0301
0000
,
2000
0000
3100
0010
0100
0000
1000
0001
,
0100
0010
1000
0200
0000
0000
0310
0000
,
0002
0000
0103
0001
0100
0000
0010
1000
,
0001
0010
0100
0020
0000
0000
0031
0000
,
1000
1000
0000
0010
0010
0000
0100
0100
,
0000
0001
0001
1000
0001
1000
1000
0000
,
0100
0000
0000
0110
0000
0000
1000
0001
,
0000
1000
0010
0100
0000
0010
1000
0000
,
0001
0000
0000
0011
0000
0000
0010
0100
,
0000
0100
0010
0000
0001
1000
0001
0000
,
0100
0000
0010
0000
1000
0100
0000
0020
,
0000
0031
0000
0001
2000
0000
3010
0000
,
0100
0000
0001
0010
0100
0000
0010
0000
,
0002
0000
1003
0010
1000
0000
1001
0000
,
0002
1000
0010
0103
,
0200
0010
1000
0301
,
2000
0001
0100
3010
,
0020
0100
0001
1030
,
0001
0000
0011
0000
0010
0100
0000
0110
,
0000
0100
0000
1000
0001
0100
0010
0100
,
0002
0000
0000
0010
0013
0000
0100
1000
,
0000
1000
0010
0000
1000
0100
0010
0000
,
0001
1000
0000
0001
1000
0000
1100
0000
0000
0000
0000
0000
0001
0000
0000
0000
,
0100
1000
0100
0001
0000
0000
1000
0000
,
0100
0010
0001
0100
0000
0000
0001
0000
,
0010
1000
0010
0000
0001
0000
1000
0000
,
0010
0100
0010
0110
0000
0000
1000
0000
,
0100
0001
0100
1000
0000
1000
0010
1000
,
0010
0100
0001
0010
0000
0010
0001
0000
,
1000
0010
0100
0001
0000
0001
0010
0000
,
0100
0000
0100
1000
0000
1000
0002
0000
0000
0000
0000
0000
,
0000
2003
0000
0000
,
3001
0000
0001
0000
0010
0010
0000
0001
,
0001
0000
0100
0100
0000
0010
0010
0000
,
1000
0100
0010
0001
1000
0000
1010
0000
,
0001
0000
0011
0010
0001
0000
0101
0000
,
1000
2100
3010
0110
,
0001
0000
0011
0000
1000
0100
0001
0000
,
0100
1000
0020
0000
0130
0000
0110
0000
,
0001
1100
1002
0013
,
2001
3100
0020
0031
,
0200
0000
0310
0000
1000
0100
0000
1100
,
0000
1000
0010
0000
0100
0000
0100
0000
,
0110
0000
0000
0010
0000
0010
1000
0001
,
0010
0000
0010
0001
0000
0001
0100
0000
0000
0000
0000
0000
,
0110
0000
0000
0000
0010
1000
0100
0110
,
0000
1001
0000
0000
0001
0100
0001
0020
,
0000
0230
0000
1300
0000
1000
0001
1000
,
0010
0010
1000
0000
0001
0010
0100
1000
,
0000
0010
0100
2000
0000
0000
3100
0001
,
1000
0010
0010
0000
2000
0000
3001
0001
,
0000
0010
0100
0010
0002
0000
2003
0000
,
3020
0000
0130
0000
0001
0001
0000
1000
,
1000
0000
0100
0010
0001
0000
0001
0100
,
0010
1000
1000
0000
1010
0000
0001
0100
,
0000
0101
0000
0011
0000
0000
1000
0000
,
0100
0000
0010
0000
0011
0000
0100
1000
,
0000
1100
0000
1010
0000
0010
0100
0000
,
0010
1000
0100
0000
0002
0000
0103
2000
,
0000
3100
0020
0000
2030
0000
3010
0002
,
0000
1003
0020
0000
0032
0000
0013
2000
,
0000
0000
3001
0010
0200
0000
2300
0000
,
3002
0000
0103
0020
0000
0000
0000
0000
,
0000
0000
0030
0000
,
0100
0000
0010
0100
0010
0000
0000
0000
1000
0000
0000
0000
0001
0000
0100
0000
,
0010
0000
1000
0000
0100
0000
0010
0000
0100
0000
0000
0100
0000
0000
1000
0000
,
0000
1000
0000
0000
0001
0000
0100
0000
0010
0000
0000
0010
0000
0000
0100
0000
,
0000
0100
0000
0000
0001
0000
0000
0001
1000
0000
0100
0000
0010
0000
0001
0000
,
1000
0010
1010
0000
0001
0100
0001
0010
,
0100
1000
0001
0100
0010
0001
0010
2000
,
0000
3001
1000
0001
0010
0100
1000
0100
,
0010
0000
0001
0000
1000
0010
1000
0000
0000
0000
0110
0000
0000
0000
0101
0000
,
0000
1001
0000
1000
0100
0100
0000
0010
,
0010
0000
1001
1001
0000
0110
0110
0000
,
0001
0000
1000
0001
1000
0000
0001
2000
0000
0000
0000
0000
3000
0000
0000
0000
;

//---------------dance-single - ----------------
#NOTEDATA:;
#CHARTNAME:;
#CHARTHASH:2609950228;
#STEPSTYPE:dance-single;
#BANNER:;
#DESCRIPTION:;
#CHARTSTYLE:;
#DIFFICULTY:Hard;
#METER:15;
#METERF:15.000000;
#LASTSECONDHINT:115.617973;
#RADARVALUES:0.000000,0.000000,0.000000,0.000000,0.000000,0.000000,0.000000,0.000000,0.000000,0.000000,0.000000,0.000000,0.000000,0.000000,0.000000,0.000000,0.000000,0.000000,0.000000,0.000000,0.000000,0.000000,0.000000,0.000000,0.000000,0.000000,0.000000,0.000000;
#CREDIT:Embrace;
#NOTES:
0000
0000
0000
0000
,
0000
0000
0000
0000
,
0000
0000
0000
0000
,
0000
0000
0000
0000
,
0000
0000
0000
0000
,
0001
0000
0010
0M00
0010
0000
2000
0000
0000
0000
3001
0000
1000
0000
0010
0000
,
0100
1000
0100
0002
0000
0000
1003
0000
,
0011
0000
0001
0000
0000
0000
0011
0000
0010
0000
0000
0000
1100
0000
0100
1000
,
0001
0100
0001
0010
0001
1000
0010
0000
,
0001
0000
0100
00M0
0100
0000
1000
0000
0010
0000
0000
0000
0010
0000
1000
0000
,
0001
0000
0100
0000
1000
0000
0100
0000
0010
0000
1000
0001
1000
0100
0000
0000
,
0001
0000
0010
0M00
0010
0000
1000
0000
0100
0000
0000
0000
0100
0000
2000
0000
,
0000
0000
3001
0010
0001
0010
0000
0000
0001
1000
0000
1000
0010
0000
0010
0000
,
1000
0000
0010
0M00
0010
0000
0100
0000
1000
0000
0000
0000
1000
0000
0100
0000
,
0001
0000
0100
0000
1000
0100
1000
0000
0001
0000
0100
0000
0010
0000
0000
0000
,
1001
0001
0000
1010
1000
0000
1100
0100
,
0000
0000
0011
0000
0001
0000
0000
0000
1000
0000
0010
0100
0010
0000
1000
0001
,
1000
0001
0000
1100
0000
0000
0110
0001
,
0000
0001
1000
0001
0000
0001
0100
0000
,
0010
0010
0000
0101
0000
0000
1000
0011
,
0000
0000
1000
0000
0001
0000
0010
0000
0000
0000
0100
0000
0010
0000
0000
0010
,
0001
0001
1000
0000
0001
0100
0001
0020
,
0000
0130
0000
0100
0010
0001
1000
0000
,
0102
0000
1003
0001
0100
0000
2010
0000
,
3002
0000
0000
0000
0013
0000
0100
0000
2000
0000
0000
0000
3001
0010
0000
0000
,
1001
0000
0001
0100
0010
0100
1000
0100
,
00M0
0100
0010
0001
0000
0001
1000
0000
,
1010
1000
0100
0010
0100
0001
0100
0010
,
0M00
0000
0010
0000
1000
0000
0100
0000
1000
0001
1000
0001
0100
0000
0001
1000
,
0010
0000
1000
0001
0010
1000
0010
0001
,
0000
1000
0000
1000
0010
0100
0010
1000
,
0002
0000
0013
0001
0001
0000
1000
0010
,
0000
0000
0010
0000
0100
0000
0001
1000
0100
1000
0001
0000
0010
0000
0001
0000
,
1000
0010
0000
0010
1000
0000
0200
0000
0000
0000
0310
0000
0100
0000
0000
0000
,
0001
0010
0001
0100
0000
0001
1000
0000
,
0100
1000
0100
0000
0010
0000
0002
0000
0000
0000
0103
0000
0010
0000
0000
0000
,
0001
0001
1000
0100
0010
0100
1000
0000
,
0001
0100
0000
0010
1000
0010
0200
0000
0000
0000
0310
0000
0001
0000
0000
0000
,
0100
0001
0010
0200
0000
1300
0001
0000
,
0010
0001
0010
0000
0100
0000
0002
0000
0000
0000
0103
0000
1000
0000
0000
0000
,
0010
0000
0001
0000
1000
0000
0020
0000
0000
0000
0130
0000
0001
0010
0000
0000
,
0001
0010
0100
1000
0001
0100
0020
0000
0000
0000
0000
0000
,
0000
2030
0000
0000
,
3001
0010
0001
0000
0010
0000
0000
0000
1001
0000
0001
0000
0000
0000
1010
0000
,
1000
0001
0011
0010
0000
0110
0110
0000
,
0001
0000
1000
0001
1000
0000
0001
0100
0010
0000
1000
0000
0010
0000
0100
0000
,
0010
1000
0001
0010
0100
1000
0001
0100
,
0001
1000
0100
0000
0101
0100
0010
1000
,
0100
1000
0010
0000
0011
0001
0100
0010
,
0100
0010
0100
0000
1001
1000
0001
0010
,
0100
0010
0001
1000
0020
0000
1030
0001
,
0020
0000
0130
0000
0210
0000
0310
0001
,
1000
0000
0000
0000
0010
0000
0000
0000
1000
0000
0000
0000
0010
0000
0000
0000
0000
0000
0100
0000
0000
0000
0000
0000
0001
0000
0000
0000
0000
0000
1000
0000
0000
0100
0000
0000
0010
0000
0000
0000
0000
0000
0001
0000
0000
0000
0000
0000
,
0100
0001
1000
0000
0010
0000
0000
0000
1002
0000
0000
0000
1000
0000
0000
0000
,
0010
0000
0000
0013
0000
0010
0001
0100
,
0010
1000
0001
1000
0100
0010
0200
0000
0000
0300
0000
0000
,
0022
0000
0000
0000
0033
0000
0000
0000
1000
0000
0010
1000
0001
0000
0100
0000
,
0000
0000
0110
0000
0010
0000
0000
0000
1000
0000
0100
00M0
0100
0000
0020
0000
,
0000
0130
0001
0020
0000
0130
0000
1000
,
0001
0000
0000
0000
0100
0000
0000
0000
0001
0000
0000
0000
0010
0000
0000
0000
0000
0000
0000
0000
0000
0000
0000
0000
0001
0000
0000
0000
0000
0000
0100
0000
0000
00M0
0000
0000
0100
0000
0000
0000
0000
0000
0010
0000
0000
0000
0000
0000
,
0001
1000
0100
0002
0000
0103
1000
0000
,
0001
0000
0010
0000
0001
0000
0100
0000
0000
0000
0000
0000
1010
0000
0000
0010
0000
0000
0100
0000
0000
0001
0000
0000
,
1000
0001
0100
0001
0020
0000
0130
0000
,
0010
0000
1000
0000
0010
0000
0001
0000
0000
0000
0000
0000
1001
0000
0000
1000
0000
0000
0010
0000
0000
0100
0000
0000
,
1000
0000
0100
0001
0010
0001
0010
0001
,
1000
0010
0010
0100
0101
0000
0010
1000
,
0000
1100
0000
0101
0000
0001
0010
0000
,
0100
0000
0010
0000
0001
0000
1000
0000
0000
0000
0000
0000
1100
0000
0000
0000
0000
0000
0010
0000
0000
0001
0000
0000
,
0000
0101
0000
1100
0000
1000
0010
1000
,
0001
0000
0100
0000
0010
0000
0100
0000
0001
0000
0000
0001
0010
0000
0100
0000
,
0010
0000
0001
0000
1000
0000
0010
0000
0100
0000
0000
0100
0010
0000
1000
0000
,
0001
0000
1000
0000
0010
0000
0100
0000
1000
0000
0100
0000
0001
0000
1000
0100
,
0010
0000
0100
0000
1000
0001
1000
0000
0010
1000
0000
0001
0010
0000
0100
0000
,
0010
0001
1000
0001
0100
0000
0020
0000
0000
0000
0100
0000
0000
0000
0100
0000
,
1000
0000
0000
0100
0000
0000
0001
0000
0000
0000
1000
0000
1030
0000
0001
0000
,
1000
0100
1000
0100
0010
0000
0001
1000
0100
0000
1000
0000
0001
0000
0100
00M0
,
0100
0000
1000
0000
0010
0M00
0010
0000
0001
0000
0000
0001
0100
0000
0010
0000
,
0000
0010
1000
0000
0001
0000
0001
0000
1000
0000
0000
1000
0100
0000
1000
0000
,
0000
1000
0010
0000
0100
0000
0001
1000
0001
0000
0100
0000
0001
0000
0100
0000
,
0010
0000
1000
0000
0010
0000
1000
0000
0100
0000
0000
0000
0001
0000
0010
0M00
,
0010
0000
1000
0001
1000
0000
0100
0000
0010
0000
0001
0000
0100
0000
2000
0000
,
0000
0000
3100
0000
0010
0000
1000
0000
0000
0000
0100
0001
0100
0000
0001
0000
,
0010
0M00
0010
0000
1000
0100
0010
0000
0000
0000
0110
0000
0001
0000
1001
0000
,
0000
0000
0101
0000
1000
0000
1010
0000
0001
0000
0001
1000
0100
0000
0010
0000
,
0010
0100
1000
0000
0001
0000
0001
0100
0010
0000
0110
0000
0110
0000
0000
0000
,
1000
0001
0010
0100
1000
0000
1000
0002
0000
0000
0000
0000
0003
0000
0000
0000
;

//---------------dance-double - ----------------
#NOTEDATA:;
#CHARTNAME:;
#CHARTHASH:2573237416;
#STEPSTYPE:dance-double;
#BANNER:;
#DESCRIPTION:;
#CHARTSTYLE:;
#DIFFICULTY:Easy;
#METER:7;
#METERF:7.000000;
#LASTSECONDHINT:115.280899;
#RADARVALUES:0.000000,0.000000,0.000000,0.000000,0.000000,0.000000,0.000000,0.000000,0.000000,0.000000,0.000000,0.000000,0.000000,0.000000,0.000000,0.000000,0.000000,0.000000,0.000000,0.000000,0.000000,0.000000,0.000000,0.000000,0.000000,0.000000,0.000000,0.000000;
#CREDIT:Embrace;
#NOTES:
00000000
00000000
00000000
00000000
,
00000000
00000000
00000000
00000000
,
00000000
00000000
00000000
00000000
,
00000000
00000000
00000000
00000000
,
00000000
00000000
00000000
00000000
,
00010000
00010000
00001000
00000000
,
00000010
00000001
00001000
00000000
,
00000100
00000000
00000000
00010000
00000000
00000000
00001000
00000000
,
00000000
00100000
00000000
00000000
00010000
00000000
10000000
00000000
,
00200000
01000000
01300000
00000000
,
00001000
00010000
00001000
00000000
,
00020000
00000100
00030100
00000000
,
00000010
00000001
00000100
00000000
,
00000020
00010000
00010030
00000000
,
00001000
00010000
00000100
00000000
,
00000010
00000000
00000000
00000100
00000000
00000000
00010000
00000000
,
00000000
00001000
00000000
00000000
01000000
00000000
00010000
00000000
,
10010000
00000000
10000000
00000000
,
01000000
00100000
00001000
00010000
,
00000010
00000000
00000100
00000000
,
00000010
00001000
00000100
00000010
,
00000001
00000000
00000100
00000000
,
00001000
00000000
00010000
00001000
,
00100000
01000000
10000000
00000000
,
00010000
00100000
00101000
00000000
,
00001000
01000000
00200000
00300000
,
10000000
01000000
00200000
00300000
,
00001000
00010000
00000020
00000030
,
00001000
00000001
00000200
00000300
,
00000010
00010000
00001000
00000100
,
00000101
00000000
00000001
00000010
,
00000200
00010000
00010300
00000000
,
00002000
01000000
01003000
00000000
,
00100000
00000000
00000000
01010000
00000000
00000000
10000000
00000000
,
00000000
00010000
00000000
00100000
,
00000000
00001000
00010000
00000100
,
00000000
00000010
00000000
00000001
,
00000000
00000010
00000000
00001001
00000000
00000000
00000001
00000000
,
00000000
00000100
00000000
00001000
,
00010000
00001000
00000000
00100000
,
00000000
01000000
10000000
00010000
,
00100000
00001000
00020000
00000000
,
00000000
00032000
00000000
00000000
,
00003000
00000000
00000000
00000000
00010000
00000000
00000000
00000010
,
00000000
00000000
00000100
00000000
00000000
00000001
00000000
00000000
,
00000010
00000100
00000110
00000010
,
00000000
00000001
00001000
00000010
,
00000100
00001000
00010000
00100000
,
00000000
10000000
00010000
00100000
,
01000000
00100000
00101000
00001000
,
00000000
00010000
00000020
00000030
,
00000200
00000300
00000002
00000003
,
00000020
00000000
00000030
00000000
00000200
00000000
00000000
00000300
,
00010000
00001000
00200000
00000000
,
00000000
00000000
00000000
00000000
00000000
00300000
00000000
01000000
,
00000000
10000000
00000000
00010000
10000000
00000000
00000000
00000000
,
00011000
00000000
00000000
00000000
00001000
00010000
00001000
00010000
,
00000000
00001000
00000000
00000000
00010000
00000000
00000100
00000000
,
00000010
00000001
00001000
00000000
,
00010010
00000000
00010000
00001000
,
00100000
01000000
20000000
30000000
,
00110000
00000000
00001000
00010000
,
01000000
10000000
01000000
00010000
,
00001000
00000010
00000002
00000000
,
00001003
00000000
00020000
00000000
,
10030000
00000000
00000000
00000000
01000000
00000000
00000000
00100000
,
00000000
00100000
00000000
00100000
00000000
00000000
00001000
00000000
,
00010000
00000000
00001000
00000000
00010000
00000000
00000000
00000010
,
00000000
00000010
00000000
00000010
00000000
00000000
00000100
00000000
,
00000001
00000000
00000010
00000000
00000100
00000000
00000000
00010000
,
00000000
00000000
00001000
00000000
00000100
00000000
00000000
00000001
,
00000000
00000000
00000010
00000000
00001000
00000000
00000000
00010000
,
00000000
00000000
00001000
00100000
00001000
00000000
00100000
00000000
,
01000000
00000000
10000000
00020000
00000000
00000000
00000000
00000000
,
00000000
00000000
00030000
00000000
,
00000000
00000000
10100000
10000000
,
00010000
01000000
00100000
00010000
,
00001000
00000100
00000001
00001000
,
00000100
00000010
00001000
00010000
,
01000000
10000000
10000000
00100000
,
01000000
00001000
00010000
00000100
,
00000010
00000001
00000100
00001000
,
00000100
00000000
00000002
00000000
00000003
00000010
00000000
00001000
,
00000000
00010000
00000000
01000000
10000000
00000000
00000000
00101000
,
00000000
00000000
00010010
00000000
00000000
00000101
00000000
00000000
,
00001010
00022000
00033000
00000000
;

//---------------dance-double - ----------------
#NOTEDATA:;
#CHARTNAME:;
#CHARTHASH:4242540634;
#STEPSTYPE:dance-double;
#BANNER:;
#DESCRIPTION:;
#CHARTSTYLE:;
#DIFFICULTY:Hard;
#METER:15;
#METERF:15.000000;
#LASTSECONDHINT:115.617973;
#RADARVALUES:0.733261,0.867271,0.345560,0.269705,0.358202,609.000000,568.000000,41.000000,32.000000,12.000000,0.000000,0.000000,0.000000,0.000000,0.733261,0.867271,0.345560,0.269705,0.358202,609.000000,568.000000,41.000000,32.000000,12.000000,0.000000,0.000000,0.000000,0.000000;
#CREDIT:Embrace;
#NOTES:
// measure 0
00000000
00000000
00000000
00000000
,  // measure 1
00000000
00000000
00000000
00000000
,  // measure 2
00000000
00000000
00000000
00000000
,  // measure 3
00000000
00000000
00000000
00000000
,  // measure 4
00000000
00000000
00000000
00000000
,  // measure 5
00001000
00000000
00010000
0M000000
00010000
00000000
00200000
00000000
00000000
00000000
00301000
00000000
00010000
00000000
01000000
00000000
,  // measure 6
10000000
00100000
01000000
20000000
00000000
00000000
31000000
00000000
,  // measure 7
10010000
00000000
00010000
00000000
00000000
00000000
00110000
00000000
00100000
00000000
00000000
00000000
00010100
00000000
00000100
00010000
,  // measure 8
00001000
00010000
00001000
00000010
00000001
00001000
00000010
00000000
,  // measure 9
00000001
00000000
00000100
000000M0
00000100
00000000
00010000
00000000
00001000
00000000
00000000
00000000
00001000
00000000
00010000
00000000
,  // measure 10
01000000
00000000
00010000
00000000
00001000
00000000
00100000
00000000
00010000
00000000
10000000
01000000
10000000
01000000
00000000
00000000
,  // measure 11
00010000
00000000
01000000
00M00000
01000000
00000000
10000000
00000000
00100000
00000000
00000000
00000000
00100000
00000000
02000000
00000000
,  // measure 12
00000000
00000000
03001000
00010000
00001000
00010000
00000000
00000000
00000100
00001000
00000000
00001000
00000001
00000000
00000001
00000000
,  // measure 13
00001000
00000000
00000010
00000M00
00000010
00000000
00000100
00000000
00010000
00000000
00001000
00000000
00000010
00000000
00001000
00000000
,  // measure 14
00010000
00000000
01000000
00000000
00100000
00010000
00100000
00000000
00010000
00000000
10000000
00000000
00100000
00000000
00000000
00000000
,  // measure 15
10100000
10000000
00000000
01001000
00001000
00000000
00011000
00001000
,  // measure 16
00000000
00000000
00110000
00000000
00100000
00000000
00000000
00000000
01000000
00000000
00100000
00010000
00100000
00000000
00001000
00010000
,  // measure 17
00001000
00010000
00000000
00001010
00000000
00000000
00011000
00000100
,  // measure 18
00000000
00000100
00000010
00000100
00000000
00000100
00001000
00000000
,  // measure 19
00000001
00000001
00000000
00010010
00000000
00000000
01000000
00011000
,  // measure 20
00000000
00000000
00001000
00000000
01000000
00000000
00010000
00000000
00000000
00000000
00010000
00000000
00100000
00000000
00000000
00100000
,  // measure 21
01000000
01000000
10000000
00000000
01000000
00100000
01000000
00020000
,  // measure 22
00000000
00031000
00000000
00001000
00010000
00000010
00000100
00000000
,  // measure 23
00002001
00000000
00003100
00000010
00000001
00000000
00010020
00000000
,  // measure 24
00002030
00000000
00000000
00000000
00003001
00000000
00000100
00000000
00002000
00000000
00000000
00000000
00013000
00001000
00000000
00000000
,  // measure 25
01001000
00000000
01000000
00001000
00010000
00001000
00000100
00001000
,  // measure 26
000M0000
00001000
00000010
00000100
00000000
00000100
00000001
00000000
,  // measure 27
00001001
00001000
00000100
00010000
00001000
00010000
01000000
00010000
,  // measure 28
0000M000
00000000
00010000
00000000
00100000
00000000
01000000
00000000
10000000
00010000
10000000
00010000
00100000
00000000
00010000
00100000
,  // measure 29
00001000
00000000
00010000
00001000
00010000
01000000
10000000
00100000
,  // measure 30
00000000
00100000
00000000
00100000
10000000
01000000
00100000
10000000
,  // measure 31
00200000
00000000
00301000
00010000
00010000
00000000
00000010
00001000
,  // measure 32
00000000
00000000
00001000
00000000
00000001
00000000
00000100
00000001
00001000
00000001
00000100
00000000
00000010
00000000
00000100
00000000
,  // measure 33
00001000
00010000
00000000
00010000
00001000
00000000
00200000
00000000
00000000
00000000
01300000
00000000
10000000
00000000
00000000
00000000
,  // measure 34
00100000
00001000
00100000
01000000
00000000
01000000
10000000
00000000
,  // measure 35
00100000
01000000
00100000
00000000
10000000
00000000
02000000
00000000
00000000
00000000
03100000
00000000
00010000
00000000
00000000
00000000
,  // measure 36
00001000
00001000
00010000
00000010
00000100
00000010
00001000
00000000
,  // measure 37
00000100
00010000
00000000
00010000
00001000
00010000
00002000
00000000
00000000
00000000
00003010
00000000
00000001
00000000
00000000
00000000
,  // measure 38
00000100
00001000
00000001
00002000
00000000
00003010
00000100
00000000
,  // measure 39
00001000
00010000
00001000
00000000
00000100
00000000
00000002
00000000
00000000
00000000
00001003
00000000
00000010
00000000
00000000
00000000
,  // measure 40
00000001
00000000
00000100
00000000
00001000
00000000
00020000
00000000
00000000
00000000
01030000
00000000
00100000
00010000
00000000
00000000
,  // measure 41
10000000
00100000
01000000
00010000
01000000
00001000
00020000
00000000
00000000
00000000
00000000
00000000
,  // measure 42
00000000
00030200
00000000
00000000
,  // measure 43
00000310
00000001
00000010
00000000
00000001
00000000
00000000
00000000
00010100
00000000
00010000
00000000
00000000
00000000
01001000
00000000
,  // measure 44
00001000
00010000
00010010
00000010
00000000
00101000
00101000
00000000
,  // measure 45
00100000
00000000
00010000
10000000
00010000
00000000
10000000
00010000
01000000
00000000
00010000
00000000
01000000
00000000
00010000
00000000
,  // measure 46
10000000
00100000
01000000
00001000
00010000
00000010
00010000
00001000
,  // measure 47
00010000
00000100
00001000
00000000
00000011
00000001
00001000
00000010
,  // measure 48
00010000
00000010
00001000
00000000
01001000
00001000
00010000
00001000
,  // measure 49
00010000
00001000
00100000
00000000
11000000
01000000
00100000
00001000
,  // measure 50
00010000
00000100
00001000
00000010
00000200
00000000
00000310
00001000
,  // measure 51
00000200
00000000
00000310
00000000
00000012
00000000
00000103
00000010
,  // measure 52
00010000
00000000
00000000
00000000
00001000
00000000
00000000
00000000
00010000
00000000
00000000
00000000
00001000
00000000
00000000
00000000
00000000
00000000
01000000
00000000
00000000
00000000
00000000
00000000
00010000
00000000
00000000
00000000
00000000
00000000
10000000
00000000
00000000
00010000
00000000
00000000
00100000
00000000
00000000
00000000
00000000
00000000
01000000
00000000
00000000
00000000
00000000
00000000
,  // measure 53
00100000
00010000
00100000
00000000
00001000
00000000
00000000
00000000
00012000
00000000
00000000
00000000
01000000
00000000
00000000
00000000
,  // measure 54
00010000
00000000
00000000
00100000
00000000
00103000
01000000
00100000
,  // measure 55
00001000
00010000
00000100
00001000
00000001
00001000
00000020
00000000
00000000
00000030
00000000
00000000
,  // measure 56
00002002
00000000
00000000
00000000
00003003
00000000
00000000
00000000
00001000
00000000
00000100
00001000
00000100
00000000
00010000
00000000
,  // measure 57
00000000
00000000
00011000
00000000
00001000
00000000
00000000
00000000
10000000
00000000
00100000
000M0000
00100000
00000000
00020000
00000000
,  // measure 58
00000000
01030000
00001000
00020000
00000000
00130000
00000000
10000000
,  // measure 59
00010000
00000000
00000000
00000000
01000000
00000000
00000000
00000000
00001000
00000000
00000000
00000000
00010000
00000000
00000000
00000000
00000000
00000000
00000000
00000000
00000000
00000000
00000000
00000000
00000010
00000000
00000000
00000000
00000000
00000000
00000100
00000000
00000000
0000M000
00000000
00000000
00000100
00000000
00000000
00000000
00000000
00000000
00001000
00000000
00000000
00000000
00000000
00000000
,  // measure 60
00000001
00001000
00000100
00000002
00000000
00000103
00001000
00000000
,  // measure 61
00000100
00000000
00010000
00000000
00001000
00000000
00100000
00000000
00000000
00000000
00000000
00000000
01100000
00000000
00000000
01000000
00000000
00000000
10000000
00000000
00000000
00100000
00000000
00000000
,  // measure 62
01000000
00100000
10000000
00010000
00200000
00000000
00302000
00000000
,  // measure 63
00003100
00000000
00000010
00000000
00001000
00000000
00000001
00000000
00000000
00000000
00000000
00000000
00000011
00000000
00000000
00000010
00000000
00000000
00000100
00000000
00000000
00001000
00000000
00000000
,  // measure 64
00000010
00000000
00010000
00001000
00100000
01000000
00100000
01000000
,  // measure 65
10000000
00010000
00010000
01000000
01001000
00000000
00001000
00000100
,  // measure 66
00000000
00000101
00000000
00000011
00000000
00000010
00000100
00000000
,  // measure 67
00000010
00000000
00001000
00000000
00010000
00000000
00001000
00000000
00000000
00000000
00000000
00000000
00010100
00000000
00000000
00000000
00000000
00000000
00010000
00000000
00000000
00100000
00000000
00000000
,  // measure 68
00000000
10100000
00000000
11000000
00000000
01000000
00100000
00010000
,  // measure 69
10000000
00000000
00100000
00000000
01000000
00000000
00001000
00000000
00010000
00000000
00000000
00010000
00001000
00000000
01000000
00000000
,  // measure 70
00100000
00000000
01000000
00000000
00010000
00000000
00100000
00000000
00001000
00000000
00000000
00001000
00010000
00000000
00000010
00000000
,  // measure 71
00000100
00000000
00000010
00000000
00001000
00000000
00000100
00000000
00000010
00000000
00001000
00000000
00000010
00000000
00000001
00001000
,  // measure 72
00000001
00000000
00000100
00000000
00000010
00001000
00000010
00000000
00010000
00001000
00000000
00100000
00010000
00000000
10000000
00000000
,  // measure 73
00010000
01000000
00001000
00010000
00001000
00000000
00020000
00000000
00000000
00000000
00000100
00000000
00000000
00000000
00000100
00000000
,  // measure 74
00001000
00000000
00000000
00000010
00000000
00000000
00001000
00000000
00000000
00000000
00130000
00000000
00100000
00000000
10000000
00000000
,  // measure 75
00010000
10000000
00010000
10000000
01000000
00000000
00100000
00010000
10000000
00000000
01000000
00000000
00100000
00000000
00010000
0000M000
,  // measure 76
00010000
00000000
00000100
00000000
00001000
000M0000
00001000
00000000
00010000
00000000
00000000
00010000
00000010
00000000
00001000
00000000
,  // measure 77
00000000
00001000
00000100
00000000
00000010
00000000
00000010
00000000
00000001
00000000
00000000
00000001
00000100
00000000
00000010
00000000
,  // measure 78
00000000
00000010
00010000
00000000
00001000
00000000
01000000
00001000
01000000
00000000
00010000
00000000
00100000
00000000
00010000
00000000
,  // measure 79
01000000
00000000
00100000
00000000
01000000
00000000
00100000
00000000
10000000
00000000
00000000
00000000
01000000
00000000
00010000
0000M000
,  // measure 80
00010000
00000000
00001000
00100000
00001000
00000000
00010000
00000000
00001000
00000000
00000010
00000000
00000001
00000000
00000200
00000000
,  // measure 81
00000000
00000000
00000301
00000000
00001000
00000000
00000010
00000000
00000000
00000000
00000001
00001000
00000010
00000000
00000100
00000000
,  // measure 82
00001000
000M0000
00001000
00000000
00000010
00010000
00001000
00000000
00000000
00000000
00011000
00000000
01000000
00000000
01010000
00000000
,  // measure 83
00000000
00000000
10010000
00000000
00100000
00000000
10100000
00000000
10000000
00000000
10000000
00100000
01000000
00000000
00001000
00000000
,  // measure 84
00001000
00010000
00000100
00000000
00000100
00000000
00000010
00000001
00001000
00000000
00001001
00000000
00001001
00000000
00000000
00000000
,  // measure 85
00000001
00001000
00000010
00010000
00001000
00000000
00001000
00200000
00000000
00000000
00000000
00000000
00300000
00000000
00000000
00000000
;
