#VERSION:0.83;
#TITLE:Queen of Love;
#SUBTITLE:;
#ARTIST:Wildside;
#TITLETRANSLIT:;
#SUBTITLETRANSLIT:;
#ARTISTTRANSLIT:;
#GENRE:;
#ORIGIN:;
#CREDIT:;
#BANNER:Queen of Love-banner.png;
#BACKGROUND:Queen of Love-bg.png;
#PREVIEWVID:;
#JACKET:Queen of Love-jacket.png;
#CDIMAGE:;
#DISCIMAGE:;
#LYRICSPATH:;
#CDTITLE:;
#MUSIC:Queen of Love.ogg;
#OFFSET:0.000000;
#SAMPLESTART:44.418999;
#SAMPLELENGTH:12.791000;
#SELECTABLE:YES;
#BPMS:0.000=172.197;
#STOPS:;
#DELAYS:;
#WARPS:;
#TIMESIGNATURES:0.000=4=4;
#TICKCOUNTS:0.000=4;
#COMBOS:0.000=1;
#SPEEDS:0.000=1.000=0.000=0;
#SCROLLS:0.000=1.000;
#FAKES:;
#LABELS:0.000=Song Start;
#BGCHANGES:16.000=Queen of Love.mp4=1.000=1=0=0=StretchNoLoop==CrossFade==,
352.000=Queen of Love-bg.png=1.000=0=0=1=====,
99999=-nosongbg-=1.000=0=0=0 // don't automatically add -songbackground-
;
#KEYSOUNDS:;
#ATTACKS:
;

//---------------dance-single - ----------------
#NOTEDATA:;
#CHARTNAME:;
#STEPSTYPE:dance-single;
#DESCRIPTION:;
#CHARTSTYLE:;
#DIFFICULTY:Beginner;
#METER:4;
#RADARVALUES:0.179350,0.279696,0.166864,0.000000,0.000000,158.000000,137.000000,21.000000,0.000000,0.000000,0.000000,0.000000,0.000000,0.000000,0.179350,0.279696,0.166864,0.000000,0.000000,158.000000,137.000000,21.000000,0.000000,0.000000,0.000000,0.000000,0.000000,0.000000;
#CREDIT:;
#NOTES:
0000
0000
0000
0000
,
0000
0000
0000
0000
,
0000
0000
0000
0000
,
0000
0000
0000
0000
,
0000
0000
0000
0000
,
0000
0000
0000
0000
,
0000
0000
0000
0000
,
0000
0000
0000
0000
,
1001
0000
0000
0000
,
1000
0000
0000
0000
,
0001
0000
0000
0000
,
0001
0000
0000
0000
,
1000
0000
0000
0000
,
0010
0000
0000
0000
,
0100
0000
0000
0000
,
0001
0000
0000
0000
,
1001
0000
1000
0000
,
0001
0000
1000
0000
,
0001
0000
0001
0000
,
1000
0000
0001
0000
,
0100
0000
0010
0000
,
0100
0000
0100
0000
,
0010
0000
0100
0000
,
0010
0000
0010
0000
,
0110
0000
0010
0000
,
1000
0000
0100
0000
,
1000
0000
0010
0000
,
1000
0000
0001
0000
,
0100
0000
0001
0000
,
0010
0000
0001
0000
,
0100
0000
0100
0000
,
0100
0000
0000
0000
,
0110
0000
0010
0000
,
0100
0000
0001
0001
,
1001
0000
1000
0000
,
0100
0000
1000
1000
,
1001
0000
0001
0000
,
0010
0000
0010
0010
,
0110
0000
0100
0000
,
0100
0000
1000
1000
,
1001
0000
1000
0000
,
0010
0000
0100
0000
,
0010
0000
1000
0000
,
0001
0000
0010
0000
,
0100
0000
0010
0000
,
0001
0000
1000
0000
,
0010
0000
0100
0000
,
0001
0000
1000
0000
,
1001
0000
0000
0000
,
1000
0000
0000
0000
,
0100
0000
0000
0000
,
0010
0000
0000
0000
,
1001
0000
0000
0000
,
0001
0000
0000
0000
,
0110
0000
0000
0000
,
0110
0000
0000
0000
,
1001
0000
1000
0000
,
0010
0000
1000
0000
,
0001
0000
0010
0000
,
0001
0000
0100
0000
,
0010
0000
0100
0000
,
0001
0000
0100
0000
,
0010
0000
1000
0000
,
1000
1000
1000
0000
,
1001
0000
0000
0000
,
1000
0000
0000
0000
,
1001
0000
0000
0000
,
0001
0000
0000
0000
,
0110
0000
0000
0000
,
0010
0000
0000
0000
,
0110
0000
0000
0000
,
0100
0000
0000
0000
,
1001
0000
0001
0000
,
0010
0000
0100
0000
,
0010
0000
0100
0000
,
1000
0000
0010
0000
,
1000
0000
0001
0000
,
0100
0000
0010
0000
,
0100
0000
0001
0000
,
1000
0000
0001
0000
,
1001
0000
0000
0000
,
1000
0000
0000
0000
,
0100
0000
0000
0000
,
0010
0010
0100
0000
,
0110
0000
0000
0000
,
0010
0000
0000
0000
,
0001
0000
0000
0000
,
1000
0001
1000
0000
,
1001
0000
0000
0000
;

//---------------dance-single - ----------------
#NOTEDATA:;
#CHARTNAME:;
#STEPSTYPE:dance-single;
#DESCRIPTION:;
#CHARTSTYLE:;
#DIFFICULTY:Easy;
#METER:7;
#RADARVALUES:0.340539,0.489468,0.365512,0.047675,0.000000,300.000000,254.000000,46.000000,6.000000,0.000000,0.000000,0.000000,0.000000,0.000000,0.340539,0.489468,0.365512,0.047675,0.000000,300.000000,254.000000,46.000000,6.000000,0.000000,0.000000,0.000000,0.000000,0.000000;
#CREDIT:;
#NOTES:
0000
0000
0000
0000
,
0000
0000
0000
0000
,
0000
0000
0000
0000
,
0000
0000
0000
0000
,
1001
1000
0001
0000
,
0100
0010
0100
0000
,
0001
1000
0100
0000
,
1000
0100
1000
0000
,
0110
0100
0100
1000
,
0010
0010
0010
0100
,
0001
0001
0001
1000
,
0100
0100
0100
0010
,
0100
0100
0100
1000
,
0001
0001
0001
0100
,
0010
0010
0010
0100
,
0001
0010
0100
1000
,
1001
1000
0000
1000
,
0000
1000
0000
0010
,
0100
0001
0000
0001
,
0000
0001
0000
0001
,
0100
0010
0000
0010
,
0000
0010
0000
0010
,
0110
0000
1010
0000
,
1001
0101
0110
0000
,
0100
0001
0000
0001
,
0000
0001
0000
0001
,
0010
0100
0000
0100
,
0000
0100
0000
0100
,
1000
0001
0000
0001
,
0000
0001
0000
0001
,
1001
0000
0011
0000
,
0110
1100
1001
0000
,
1010
0000
0110
0000
,
1010
0000
0010
0100
,
0110
0000
0101
0000
,
0110
0000
1000
0001
,
1001
0000
1100
0000
,
1001
0000
0001
0010
,
0011
0000
1100
0000
,
1001
1000
0001
0100
,
0101
0001
0001
0010
,
0001
0001
0001
0100
,
0001
0001
0001
1000
,
0001
0001
0001
1001
,
1000
1000
1000
0010
,
1000
1000
1000
0100
,
1000
1000
1000
0001
,
1000
0100
0010
0001
,
0010
0110
0000
0010
,
0000
0010
0000
0010
,
0001
1000
0000
1000
,
0000
1000
0000
1000
,
1001
0001
0000
0001
,
0000
0001
0000
0001
,
0100
0000
0100
0000
,
0110
1001
0110
0000
,
1001
1000
0001
1000
,
0010
0000
0000
1010
0000
0000
0000
0000
,
0010
0100
0001
0100
,
0010
0000
0000
0110
0000
0000
0000
0000
,
0100
0001
0010
0000
,
0001
1000
0100
0000
,
1100
0000
1001
0000
,
1010
0011
1001
0101
,
0110
0000
0010
0000
,
0100
0000
0001
0001
,
0010
0000
0100
0000
,
0100
0000
1000
1000
,
0010
0000
0100
0000
,
0010
0000
1000
1000
,
0001
0000
0010
0000
,
0001
1000
0100
0010
,
0011
0010
0010
0001
,
0100
0100
0100
0010
,
1000
1000
1000
0001
,
0010
0010
0010
0100
,
0010
0010
0010
0001
,
1000
1000
1000
0010
,
0100
0100
0100
0010
,
1000
0001
0010
0100
,
2100
0000
3001
0000
,
0002
0000
0103
0000
,
0200
0000
0310
0000
,
0010
1000
1001
0000
,
0002
0000
0013
0000
,
0020
0000
0130
0000
,
0020
0000
0031
0000
,
1000
0100
1000
0010
,
0110
0000
0000
0000
;

//---------------dance-single - ----------------
#NOTEDATA:;
#CHARTNAME:;
#STEPSTYPE:dance-single;
#DESCRIPTION:;
#CHARTSTYLE:;
#DIFFICULTY:Medium;
#METER:11;
#RADARVALUES:0.440430,0.524430,0.293998,0.405241,0.039730,388.000000,351.000000,37.000000,51.000000,0.000000,0.000000,0.000000,0.000000,0.000000,0.440430,0.524430,0.293998,0.405241,0.039730,388.000000,351.000000,37.000000,51.000000,0.000000,0.000000,0.000000,0.000000,0.000000;
#CREDIT:;
#NOTES:
0000
0000
0000
0000
,
0000
0000
0000
0000
,
0000
0000
0000
0000
,
0000
0000
0000
0000
,
1000
1001
0000
0011
,
0000
0110
0000
0011
,
0000
0101
0000
0110
,
0000
0000
1010
0000
1000
0010
0110
0000
,
2000
0000
3002
0000
0103
0010
0100
0000
,
0020
0000
2030
0000
3100
0010
0100
0000
,
0020
0000
0032
0000
1003
0010
1000
0000
,
0002
0000
0203
0000
0310
0100
0001
0000
,
0020
0000
0230
0000
1300
0010
0100
0000
,
0020
0000
2030
0000
3010
0100
0010
0000
,
0200
0000
0302
0000
0013
0001
0010
0000
,
0001
0001
1000
1000
,
0010
0000
0100
0000
0010
0100
0001
0000
,
0001
0000
0000
0010
0000
0000
0012
0000
0000
0000
0000
0000
1003
0000
0000
0000
,
1000
0000
0100
0000
0010
0100
1000
0000
,
0010
0000
0000
1000
0000
0000
1020
0000
0000
0000
0000
0000
0130
0000
0000
0000
,
0100
0000
0001
0000
0001
1000
0001
0000
,
1000
0000
0100
0000
0100
0010
0100
0000
,
0010
0000
0000
0100
0000
0000
2100
0000
0000
0000
3001
0000
0000
0000
0000
0000
,
0001
0000
0000
0100
0000
0000
0010
0000
0000
0000
0100
0000
0001
0000
0000
0000
,
0010
0000
0100
0000
0010
0001
1000
0000
,
0010
0000
0000
1000
0000
0000
1020
0000
0000
0000
0000
0000
0130
0000
0000
0000
,
0100
0000
0001
0000
0100
0010
0100
0000
,
0010
0000
0000
1000
0000
0000
1002
0000
0000
0000
0000
0000
0103
0000
0000
0000
,
0100
0000
0001
0000
1000
0100
1000
0100
,
0010
0100
1000
0001
,
1000
0000
0000
0010
0000
0000
0210
0000
0000
0000
0001
0000
0301
0000
0000
0000
,
0001
0000
0010
0000
0100
0000
0100
1000
,
0100
0000
0000
0001
0100
0000
0000
1000
,
0100
0000
0000
1000
0010
0000
0100
0000
,
0110
0000
0000
1000
0010
0000
0000
0001
,
0010
0000
0000
1000
0010
0000
0100
0000
,
1001
0000
0000
0001
0010
0000
0000
1000
,
0010
0000
0000
0001
0010
0000
0001
0000
,
0101
0000
0000
0001
0100
0000
0000
1000
,
0100
0000
0000
0001
0100
0000
0010
0000
,
2000
0000
3002
0000
0013
0100
1000
0000
,
0002
0000
2003
0000
3010
0100
0001
0000
,
0200
0000
0320
0000
1030
0001
0010
0000
,
0200
0000
0320
0000
0031
1000
0010
0000
,
2000
0000
3200
0000
0310
0001
0010
0000
,
0002
0000
0203
0000
0310
1000
0010
0000
,
2000
0000
3020
0000
0130
0001
0100
0000
,
0001
1000
0010
0100
,
0110
0010
0000
0010
,
0000
0010
0000
0010
,
1000
0100
0000
0100
,
0000
0100
0000
0100
,
1100
1000
0000
1000
,
0000
1000
0000
1000
,
1001
0000
0110
0000
,
0011
1010
1100
0101
,
0001
0100
0010
1000
,
0001
0000
0000
1000
0000
0000
1002
0000
0000
0000
0000
0000
0013
0000
0000
0000
,
0010
0100
1000
0010
,
1000
0000
0000
0001
0000
0000
2001
0000
0000
0000
0000
0000
3100
0000
0000
0000
,
1000
0000
0100
0000
0010
0000
0100
1000
,
0100
1000
0010
0100
,
0010
0000
0000
1000
0000
0000
2010
0000
0000
0000
0000
0000
3001
0000
0000
0000
,
0101
0000
1010
0000
1100
0000
0011
0001
,
1000
0000
0000
0001
0100
0000
0000
0001
,
0010
0000
0000
0001
1000
0000
0100
0000
,
1100
0000
0000
1000
0010
0000
0000
1000
,
0100
0000
0000
1000
0001
0000
0100
0000
,
0110
0000
0000
0010
1000
0000
0000
0010
,
0100
0000
0000
0010
1000
0000
0001
0000
,
0110
0000
0000
0010
0100
0000
0000
0010
,
0001
0000
0000
0010
0100
0000
0010
0001
,
0020
0030
0020
0030
0001
0001
0100
0000
,
0020
0030
0020
0030
1000
1000
0100
0000
,
0200
0300
0200
0300
1000
1000
0010
0000
,
0200
0300
0200
0300
0001
0001
1000
0000
,
0002
0003
0002
0003
1000
0001
1000
0000
,
2000
3000
2000
3000
0001
1000
0001
0000
,
2000
3000
0002
0003
0100
0001
0010
0000
,
0100
1000
0001
0100
,
0100
0001
0000
1000
,
0000
0010
0100
0001
,
1000
0100
0000
0010
,
0100
1000
0100
0000
1000
0000
0001
0000
,
0101
0100
0000
0010
,
0000
0100
0000
0001
,
0010
0100
0000
0010
,
0001
1000
0001
0000
1000
0000
0010
0000
,
0110
0000
0000
0000
;

//---------------dance-single - ----------------
#NOTEDATA:;
#CHARTNAME:;
#STEPSTYPE:dance-single;
#DESCRIPTION:;
#CHARTSTYLE:;
#DIFFICULTY:Hard;
#METER:14;
#RADARVALUES:0.587997,0.594354,0.270161,0.977346,0.059594,518.000000,484.000000,34.000000,123.000000,0.000000,0.000000,0.000000,0.000000,0.000000,0.587997,0.594354,0.270161,0.977346,0.059594,518.000000,484.000000,34.000000,123.000000,0.000000,0.000000,0.000000,0.000000,0.000000;
#CREDIT:;
#NOTES:
0000
0000
0000
0000
,
0000
0000
0000
0000
,
0000
0000
0000
0000
,
0000
0000
0000
0000
,
1001
0000
0001
0010
0001
0000
0010
1000
,
0010
0000
1000
0100
1000
0000
0100
0001
,
0100
0000
0001
0010
0001
0000
0010
0100
,
1000
0010
0100
0010
1000
0100
0010
0000
,
0002
0000
2003
0000
3100
0100
0001
0100
,
2000
0000
3002
0000
0013
0010
1000
0010
,
0002
0000
2003
0000
3010
0010
0001
0010
,
2000
0000
3002
0000
0103
0100
1000
0100
,
0002
0000
0203
0000
0301
0001
0100
0001
,
2000
0000
3200
0000
1300
1000
0001
0010
,
0002
0000
0023
0000
0031
0001
1000
0010
,
1000
1000
0001
0001
0010
0010
0100
0100
,
2000
0000
3100
0000
0100
1000
0001
0100
,
0020
0000
0000
0230
0000
0000
0302
0000
0000
0000
0010
0000
0013
0000
0000
0000
,
0020
0000
0130
0000
0010
0001
1000
0010
,
0200
0000
0000
0320
0000
0000
2030
0000
0000
0000
0100
0000
3100
0000
0000
0000
,
0200
0000
0310
0000
0010
0010
0100
1000
,
0010
0100
0010
1000
0001
1000
0100
1000
,
2000
0000
0000
3020
0000
0000
0130
0010
0100
0000
0001
0000
0100
0000
0000
0000
,
0020
0000
0000
2030
0000
0000
3010
1000
0010
0000
0100
0000
0010
0000
0000
0000
,
2000
0000
3002
0000
0103
0001
0100
0010
,
0200
0000
0000
0320
0000
0000
2030
0000
0000
0000
0010
0000
3010
0000
0000
0000
,
2000
0000
3200
0000
1300
0010
0100
1000
,
0200
0000
0000
0302
0000
0000
0023
0000
0000
0000
0100
0000
0130
0000
0000
0000
,
0020
0000
0032
0000
0013
0010
0001
0010
,
0100
0010
0001
0100
0010
1000
0100
1000
,
0200
0000
0000
2300
0000
0000
3002
0000
0000
0000
1000
0000
1003
0000
0000
0000
,
0001
1000
0001
0100
0001
0010
0001
1000
,
1100
0000
0000
0001
0101
0000
0000
1000
,
1100
0000
0000
0000
0000
0000
1000
0000
0200
0300
0200
0300
0001
0000
0010
0000
,
0011
0000
0000
1000
1010
0000
0000
0001
,
0011
0000
0000
0001
1000
0100
0001
0100
,
1100
0000
0000
1000
1010
0000
0000
1000
,
1100
0000
0000
0000
0000
0000
1000
0000
0020
0030
0020
0030
0001
0000
0100
0000
,
0101
0000
0000
0001
0011
0000
0000
0001
,
0101
0000
0000
0001
1000
0010
1000
0001
,
0020
0000
0230
0000
0310
0010
0001
0100
,
0020
0000
0230
0000
0310
0010
1000
0100
,
0200
0000
0320
0000
0130
0100
1000
0010
,
0200
0000
0320
0000
0130
0100
0001
0010
,
0002
0000
0023
0000
0031
1000
0100
1000
,
0002
0000
0203
0000
0301
0010
0001
1000
,
0020
0000
2030
0000
3001
0010
0001
1000
,
0100
0100
0010
0010
0001
0001
1000
1000
,
0020
0230
0302
2003
,
3200
0000
0000
0001
0000
0000
1300
0000
0000
0000
0000
0000
1100
0000
0000
0000
,
2000
0000
3002
0000
0023
0000
0130
1000
,
0020
0000
0000
0001
0000
0000
1030
0000
0000
0000
0000
0000
1010
0000
0000
0000
,
0120
0000
1030
0000
1000
0010
0010
0100
,
0001
0000
0001
1000
0001
0010
0100
1000
,
2000
0000
0000
3200
0000
0000
2300
0000
0000
0000
0001
0000
3001
0000
0000
0000
,
1001
0011
0110
0000
,
0020
0000
0032
0000
1003
0010
0100
0010
,
2000
0000
0000
3002
0000
0000
0023
0000
0000
0000
0100
0000
0130
0000
0000
0000
,
2000
0000
3002
0000
0103
0010
0100
0001
,
0200
0000
0000
0302
0000
0000
2003
0000
0000
0000
0001
0000
3001
0000
0000
0000
,
0002
0000
0023
0000
0130
0100
1000
0010
,
0100
0000
0010
1000
0010
0100
0001
0100
,
0020
0000
0000
2030
0000
0000
3020
0000
0000
0000
0100
0000
0130
0000
0000
0000
,
0100
0010
1000
0001
1000
0100
1000
0001
,
0011
0000
0000
1000
1010
0000
0000
0001
,
0011
0000
0000
0000
0000
0000
0001
0000
0020
0030
0020
0030
1000
0000
0100
0000
,
1100
0000
0000
0001
0101
0000
0000
1000
,
1100
0000
0000
1000
0001
0010
1000
0010
,
0011
0000
0000
0001
0101
0000
0000
0001
,
0011
0000
0000
0000
0000
0000
0001
0000
0200
0300
0200
0300
1000
0000
0010
0000
,
1010
0000
0000
1000
1100
0000
0000
1000
,
1010
0000
0000
1000
0001
0100
0001
1000
,
0200
0000
0300
0000
0200
0000
0300
0000
0200
0300
0200
0300
0010
0000
1000
0000
,
0020
0000
0030
0000
0020
0000
0030
0000
0020
0030
0020
0030
0100
0000
1000
0000
,
0020
0000
0030
0000
0020
0000
0030
0000
0020
0030
0020
0030
0001
0000
1000
0000
,
0200
0000
0300
0000
0200
0000
0300
0000
0200
0300
0200
0300
0001
0000
0010
0000
,
2000
0000
3020
0000
0031
0001
1000
0010
,
0002
0000
0023
0000
1030
1000
0001
0100
,
2000
0000
3200
0000
0301
0001
1000
0100
,
1000
0100
0010
0001
0010
0100
1000
0100
,
0120
0001
1000
0031
,
0001
0100
0010
0100
0002
0000
2003
0000
,
3020
1000
0001
1030
,
0010
1000
0010
0100
0002
0000
1003
0001
,
2001
0010
0100
3010
,
0010
1000
0100
1000
0020
0000
0230
0000
,
0302
0010
0100
0013
,
0001
0010
0100
0001
0100
1000
0010
1000
,
1001
0000
0000
0000
;

//---------------dance-double - ----------------
#NOTEDATA:;
#CHARTNAME:;
#STEPSTYPE:dance-double;
#DESCRIPTION:;
#CHARTSTYLE:;
#DIFFICULTY:Easy;
#METER:7;
#RADARVALUES:0.331458,0.489468,0.301944,0.143026,0.000000,292.000000,254.000000,38.000000,18.000000,0.000000,0.000000,0.000000,0.000000,0.000000,0.331458,0.489468,0.301944,0.143026,0.000000,292.000000,254.000000,38.000000,18.000000,0.000000,0.000000,0.000000,0.000000,0.000000;
#CREDIT:;
#NOTES:
// measure 0
00000000
00000000
00000000
00000000
,  // measure 1
00000000
00000000
00000000
00000000
,  // measure 2
00000000
00000000
00000000
00000000
,  // measure 3
00000000
00000000
00000000
00000000
,  // measure 4
00011000
00001000
00010000
00000000
,  // measure 5
00000010
00001000
00000010
00000000
,  // measure 6
00000100
00000001
00000010
00000000
,  // measure 7
00000010
00000001
00001000
00000000
,  // measure 8
00001001
00000001
00000001
00001000
,  // measure 9
00000100
00000100
00000100
00010000
,  // measure 10
00001000
00001000
00001000
01000000
,  // measure 11
00100000
00100000
00100000
10000000
,  // measure 12
01000000
01000000
01000000
10000000
,  // measure 13
00010000
00010000
00010000
01000000
,  // measure 14
00001000
00001000
00001000
00010000
,  // measure 15
00001000
00010000
01000000
10000000
,  // measure 16
10010000
10000000
00000000
00010000
,  // measure 17
00000000
10000000
00000000
00100000
,  // measure 18
01000000
00010000
00000000
00010000
,  // measure 19
00000000
00010000
00000000
00010000
,  // measure 20
00100000
00001000
00000000
00001000
,  // measure 21
00000000
00001000
00000000
00010000
,  // measure 22
00011000
00000000
00010100
00000000
,  // measure 23
00001100
00000110
00000011
00000000
,  // measure 24
00000010
00000100
00000000
00000100
,  // measure 25
00000000
00000100
00000000
00001000
,  // measure 26
00000001
00000100
00000000
00000100
,  // measure 27
00000000
00000100
00000000
00000010
,  // measure 28
00001000
00000001
00000000
00000001
,  // measure 29
00000000
00000001
00000000
00001000
,  // measure 30
00001001
00000000
00001100
00000000
,  // measure 31
00010100
00011000
00011000
00000000
,  // measure 32
00020000
00030000
02000000
03000000
,  // measure 33
20000000
30000000
00100000
10000000
,  // measure 34
20000000
30000000
00200000
00300000
,  // measure 35
00020000
00030000
00001000
00010000
,  // measure 36
00012000
00003000
00000020
00000030
,  // measure 37
00000002
00000003
00000100
00000001
,  // measure 38
00000002
00000003
00000020
00000030
,  // measure 39
00002000
00013000
00100000
10000000
,  // measure 40
10010000
00010000
00010000
10000000
,  // measure 41
00010000
00010000
00010000
01000000
,  // measure 42
00001000
00001000
00001000
00100000
,  // measure 43
00001000
00001000
00001000
00011000
,  // measure 44
00010000
00010000
00010000
00000010
,  // measure 45
00010000
00010000
00010000
00000100
,  // measure 46
00001000
00001000
00001000
00000001
,  // measure 47
00001000
00000010
00000100
00000001
,  // measure 48
00000010
00000110
00000000
00000010
,  // measure 49
00000000
00000010
00000000
00000100
,  // measure 50
00001000
00000001
00000000
00000001
,  // measure 51
00000000
00000001
00000000
00000001
,  // measure 52
00001001
00001000
00000000
00001000
,  // measure 53
00000000
00001000
00000000
00001000
,  // measure 54
00000010
00000000
00010000
00000000
,  // measure 55
00011000
00011000
01010000
00000000
,  // measure 56
10010000
10000000
00010000
10000000
,  // measure 57
00100000
00000000
00000000
10100000
00000000
00000000
00000000
00000000
,  // measure 58
00100000
01000000
00010000
01000000
,  // measure 59
00100000
00000000
00000000
01100000
00000000
00000000
00000000
00000000
,  // measure 60
01000000
00001000
00100000
00000000
,  // measure 61
00010000
01000000
00001000
00000000
,  // measure 62
00011000
00000000
10010000
00000000
,  // measure 63
11000000
00110000
00001100
00000011
,  // measure 64
00001001
00000000
00000001
00000000
,  // measure 65
00000100
00000000
00000010
00000010
,  // measure 66
00010000
00000000
00001000
00000000
,  // measure 67
00100000
00000000
01000000
01000000
,  // measure 68
10000000
00000000
00100000
00000000
,  // measure 69
00010000
00000000
00001000
00001000
,  // measure 70
00000100
00000000
00000001
00000000
,  // measure 71
00000001
00001000
00000010
00000100
,  // measure 72
00000101
00000001
00000100
00001000
,  // measure 73
00010000
00100000
01000000
00100000
,  // measure 74
10000000
00010000
10000000
01000000
,  // measure 75
10000000
00010000
10000000
10010000
,  // measure 76
10100000
10000000
00100000
00010000
,  // measure 77
00001000
00000100
00000010
00000100
,  // measure 78
00000001
00001000
00000001
00000010
,  // measure 79
00000001
00001000
00000001
00001001
,  // measure 80
00000012
00000000
00001003
00000000
,  // measure 81
00002000
00000000
00003010
00000000
,  // measure 82
00000020
00000000
00100030
00000000
,  // measure 83
00100000
00001000
00011000
00000000
,  // measure 84
00002000
00000000
00103000
00000000
,  // measure 85
00200000
00000000
01300000
00000000
,  // measure 86
20000000
00000000
30010000
00000000
,  // measure 87
10000000
01000000
00010000
00001000
,  // measure 88
00011000
00000000
00000000
00000000
;

//---------------dance-double - ----------------
#NOTEDATA:;
#CHARTNAME:;
#STEPSTYPE:dance-double;
#DESCRIPTION:;
#CHARTSTYLE:;
#DIFFICULTY:Medium;
#METER:11;
#RADARVALUES:0.441565,0.524430,0.301944,0.405241,0.039730,389.000000,351.000000,38.000000,51.000000,0.000000,0.000000,0.000000,0.000000,0.000000,0.441565,0.524430,0.301944,0.405241,0.039730,389.000000,351.000000,38.000000,51.000000,0.000000,0.000000,0.000000,0.000000,0.000000;
#CREDIT:;
#NOTES:
// measure 0
00000000
00000000
00000000
00000000
,  // measure 1
00000000
00000000
00000000
00000000
,  // measure 2
00000000
00000000
00000000
00000000
,  // measure 3
00000000
00000000
00000000
00000000
,  // measure 4
00010000
00011000
00000000
00110000
,  // measure 5
00000000
00011000
00000000
00001010
,  // measure 6
00000000
00011000
00000000
01001000
,  // measure 7
00000000
00000000
00011000
00000000
00010000
00000010
00001010
00000000
,  // measure 8
00000002
00000000
00002003
00000000
00003010
00000100
00000010
00000000
,  // measure 9
00000200
00000000
00000302
00000000
00000013
00000100
00000010
00000000
,  // measure 10
00000200
00000000
00002300
00000000
00003001
00000100
00000001
00000000
,  // measure 11
00000200
00000000
00002300
00000000
00013000
01000000
10000000
00000000
,  // measure 12
00200000
00000000
02300000
00000000
03010000
00100000
01000000
00000000
,  // measure 13
00200000
00000000
20300000
00000000
30100000
01000000
10000000
00000000
,  // measure 14
02000000
00000000
03200000
00000000
00310000
10000000
00100000
00000000
,  // measure 15
01000000
00001000
00010000
00000100
,  // measure 16
00001000
00000000
00000010
00000000
00000100
00000010
00001000
00000000
,  // measure 17
00001000
00000000
00000000
00000100
00000000
00000000
00002100
00000000
00000000
00000000
00000000
00000000
00003001
00000000
00000000
00000000
,  // measure 18
00001000
00000000
00000010
00000000
00000100
00000001
00000010
00000000
,  // measure 19
00000100
00000000
00000000
00010000
00000000
00000000
00010200
00000000
00000000
00000000
00000000
00000000
00001300
00000000
00000000
00000000
,  // measure 20
00000100
00000000
00010000
00000000
00001000
00010000
00001000
00000000
,  // measure 21
00010000
00000000
00100000
00000000
01000000
00100000
01000000
00000000
,  // measure 22
00100000
00000000
00000000
10000000
00000000
00000000
20010000
00000000
00000000
00000000
31000000
00000000
00000000
00000000
00000000
00000000
,  // measure 23
01000000
00000000
00000000
10000000
00000000
00000000
00100000
00000000
00000000
00000000
01000000
00000000
00010000
00000000
00000000
00000000
,  // measure 24
00100000
00000000
01000000
00000000
00100000
00010000
10000000
00000000
,  // measure 25
00100000
00000000
00000000
10000000
00000000
00000000
10200000
00000000
00000000
00000000
00000000
00000000
01300000
00000000
00000000
00000000
,  // measure 26
01000000
00000000
00010000
00000000
00100000
00001000
00010000
00000000
,  // measure 27
00001000
00000000
00000000
01000000
00000000
00000000
01002000
00000000
00000000
00000000
00000000
00000000
00013000
00000000
00000000
00000000
,  // measure 28
00010000
00000000
00000010
00000000
00001000
00000010
00000001
00000010
,  // measure 29
00001000
00000001
00001000
00000100
,  // measure 30
00000010
00000000
00000000
00000001
00000000
00000000
00000012
00000000
00000000
00000000
00000100
00000000
00000103
00000000
00000000
00000000
,  // measure 31
00000001
00000000
00001000
00000000
00000010
00000000
00000100
00000001
,  // measure 32
00000100
00000000
00000000
00001000
00010000
00000000
00000000
01000000
,  // measure 33
10000000
00000000
00000000
10000000
00100000
00000000
01000000
00000000
,  // measure 34
01100000
00000000
00000000
10000000
00100000
00000000
00000000
00010000
,  // measure 35
00001000
00000000
00000000
00000010
00000001
00000000
00000100
00000000
,  // measure 36
00001010
00000000
00000000
00000010
00010000
00000000
00000000
00001000
,  // measure 37
00100000
00000000
00000000
00000010
00010000
00000000
00001000
00000000
,  // measure 38
00011000
00000000
00000000
00001000
01000000
00000000
00000000
00000100
,  // measure 39
00010000
00000000
00000000
00001000
01000000
00000000
00100000
00000000
,  // measure 40
20000000
00000000
30020000
00000000
00130000
01000000
10000000
00000000
,  // measure 41
00020000
00000000
20030000
00000000
30100000
01000000
00010000
00000000
,  // measure 42
02000000
00000000
03200000
00000000
10300000
00010000
00100000
00000000
,  // measure 43
02000000
00000000
03020000
00000000
00031000
00000010
00000001
00000000
,  // measure 44
00000002
00000000
00000023
00000000
00000130
00001000
00000100
00000000
,  // measure 45
00002000
00000000
00003020
00000000
00000130
00000001
00000100
00000000
,  // measure 46
00000002
00000000
00000203
00000000
00000310
00001000
00000010
00000000
,  // measure 47
00000100
00000001
00000010
00000100
,  // measure 48
00000110
00000100
00000000
00000100
,  // measure 49
00000000
00000100
00000000
00000100
,  // measure 50
00010000
00001000
00000000
00001000
,  // measure 51
00000000
00001000
00000000
00001000
,  // measure 52
00011000
00010000
00000000
00010000
,  // measure 53
00000000
00010000
00000000
00010000
,  // measure 54
00011000
00000000
00110000
00000000
,  // measure 55
00110000
10100000
11000000
01010000
,  // measure 56
00010000
01000000
00100000
10000000
,  // measure 57
00010000
00000000
00000000
10000000
00000000
00000000
10020000
00000000
00000000
00000000
00000000
00000000
00130000
00000000
00000000
00000000
,  // measure 58
00100000
00001000
01000000
00001000
,  // measure 59
00010000
00000000
00000000
00000100
00000000
00000000
00010200
00000000
00000000
00000000
00000000
00000000
00001300
00000000
00000000
00000000
,  // measure 60
00000100
00000000
00001000
00000000
00000010
00000000
00000100
00000010
,  // measure 61
00000100
00000001
00000100
00000010
,  // measure 62
00000100
00000000
00000000
00000001
00000000
00000000
00000102
00000000
00000000
00000000
00000000
00000000
00001003
00000000
00000000
00000000
,  // measure 63
00001001
00000000
00011000
00000000
10010000
00000000
10100000
10000000
,  // measure 64
00100000
00000000
00000000
00010000
00001000
00000000
00000000
00000010
,  // measure 65
00000001
00000000
00000000
00000001
00000100
00000000
00000010
00000000
,  // measure 66
00000110
00000000
00000000
00000001
00000100
00000000
00000000
00001000
,  // measure 67
00010000
00000000
00000000
01000000
10000000
00000000
00100000
00000000
,  // measure 68
01010000
00000000
00000000
01000000
00001000
00000000
00000000
00010000
,  // measure 69
00000100
00000000
00000000
01000000
00001000
00000000
00010000
00000000
,  // measure 70
00011000
00000000
00000000
00010000
00000010
00000000
00000000
00100000
,  // measure 71
00001000
00000000
00000000
00010000
00000010
00000000
00000100
00000000
,  // measure 72
00000002
00000003
00000002
00000003
00000100
00000100
00000010
00000000
,  // measure 73
00002000
00003000
00002000
00003000
00000100
00000100
00000010
00000000
,  // measure 74
00002000
00003000
00002000
00003000
00010000
00010000
00001000
00000000
,  // measure 75
00020000
00030000
00020000
00030000
00100000
00100000
10000000
00000000
,  // measure 76
20000000
30000000
20000000
30000000
00100000
00100000
01000000
00000000
,  // measure 77
00020000
00030000
00020000
00030000
00100000
00100000
01000000
00000000
,  // measure 78
00200000
00300000
00200000
00300000
01000000
01000000
00010000
00000000
,  // measure 79
00001000
00001000
00010000
00010000
,  // measure 80
00011000
00001000
00000000
00001000
,  // measure 81
00000000
00001000
00000100
00000001
,  // measure 82
00001000
00000001
00000000
00000001
,  // measure 83
00000010
00000001
00000010
00000000
00001000
00000000
00010000
00000000
,  // measure 84
00011000
00010000
00000000
00010000
,  // measure 85
00000000
00010000
01000000
10000000
,  // measure 86
00010000
10000000
00000000
10000000
,  // measure 87
00100000
10000000
00100000
00000000
00010000
00000000
00001000
00000000
,  // measure 88
01001000
00000000
00000000
00000000
;

//---------------dance-double - ----------------
#NOTEDATA:;
#CHARTNAME:;
#STEPSTYPE:dance-double;
#DESCRIPTION:;
#CHARTSTYLE:;
#DIFFICULTY:Hard;
#METER:14;
#RADARVALUES:0.586862,0.594354,0.262215,0.953509,0.059594,517.000000,484.000000,33.000000,120.000000,0.000000,0.000000,0.000000,0.000000,0.000000,0.586862,0.594354,0.262215,0.953509,0.059594,517.000000,484.000000,33.000000,120.000000,0.000000,0.000000,0.000000,0.000000,0.000000;
#CREDIT:;
#NOTES:
// measure 0
00000000
00000000
00000000
00000000
,  // measure 1
00000000
00000000
00000000
00000000
,  // measure 2
00000000
00000000
00000000
00000000
,  // measure 3
00000000
00000000
00000000
00000000
,  // measure 4
00001100
00000000
00001000
00000100
00000001
00000000
00000001
00000010
,  // measure 5
00001000
00000000
00010000
01000000
10000000
00000000
10000000
00100000
,  // measure 6
00010000
00000000
10000000
00010000
10000000
00000000
00100000
01000000
,  // measure 7
00100000
10000000
00100000
00010000
00001000
00000100
00000001
00000000
,  // measure 8
00002000
00000000
00003002
00000000
00001003
00001000
00000010
00000001
,  // measure 9
00002000
00000000
00003002
00000000
00001003
00001000
00000100
00000001
,  // measure 10
00000002
00000000
00002003
00000000
00003001
00000001
00000010
00001000
,  // measure 11
00002000
00000000
00023000
00000000
00031000
00010000
01000000
10000000
,  // measure 12
00020000
00000000
20030000
00000000
30010000
00010000
01000000
10000000
,  // measure 13
00020000
00000000
20030000
00000000
30010000
00010000
00100000
10000000
,  // measure 14
20000000
00000000
30020000
00000000
10030000
10000000
00100000
00010000
,  // measure 15
00001000
00100000
00010000
01000000
00001000
00010000
00000100
00001000
,  // measure 16
00000002
00000000
00000013
00000000
00000010
00000001
00001000
00000010
,  // measure 17
00000200
00000000
00000000
00000320
00000000
00000000
00002030
00000000
00000000
00000000
00000100
00000000
00003100
00000000
00000000
00000000
,  // measure 18
00000200
00000000
00000310
00000000
00000010
00000001
00001000
00000010
,  // measure 19
00000200
00000000
00000000
00000320
00000000
00000000
00000230
00000000
00000000
00000000
00000001
00000000
00000301
00000000
00000000
00000000
,  // measure 20
00000200
00000000
00000310
00000000
00000100
00000100
00000001
00001000
,  // measure 21
00000100
00001000
00000001
00000100
00001000
00010000
01000000
10000000
,  // measure 22
20000000
00000000
00000000
30200000
00000000
00000000
01300000
00100000
01000000
00000000
00010000
00000000
01000000
00000000
00000000
00000000
,  // measure 23
00020000
00000000
00000000
00230000
00000000
00000000
00301000
00010000
00001000
00000000
01000000
00000000
00100000
00000000
00000000
00000000
,  // measure 24
20000000
00000000
30020000
00000000
01030000
00010000
01000000
00100000
,  // measure 25
02000000
00000000
00000000
03200000
00000000
00000000
20300000
00000000
00000000
00000000
00100000
00000000
30100000
00000000
00000000
00000000
,  // measure 26
20000000
00000000
30020000
00000000
00130000
00100000
01000000
10000000
,  // measure 27
02000000
00000000
00000000
03020000
00000000
00000000
00032000
00000000
00000000
00000000
00100000
00000000
00103000
00000000
00000000
00000000
,  // measure 28
00200000
00000000
00320000
00000000
00130000
00100000
01000000
00100000
,  // measure 29
00010000
10000000
10000000
00100000
00010000
00001000
00000010
00000001
,  // measure 30
00000020
00000000
00000000
00000032
00000000
00000000
00002003
00000000
00000000
00000000
00000001
00000000
00003001
00000000
00000000
00000000
,  // measure 31
00001000
00000010
00000100
00000010
00001000
00000001
00000010
00000001
,  // measure 32
00000011
00000000
00000000
00001000
00001010
00000000
00000000
00000001
,  // measure 33
00000011
00000000
00000000
00000000
00000000
00000000
00000001
00000000
00000020
00000030
00000020
00000030
00001000
00000000
00000100
00000000
,  // measure 34
00010100
00000000
00000000
01000000
01001000
00000000
00000000
00000100
,  // measure 35
00010100
00000000
00000000
00010000
00001000
01000000
00100000
10000000
,  // measure 36
10100000
00000000
00000000
00010000
00110000
00000000
00000000
10000000
,  // measure 37
10100000
00000000
00000000
00000000
00000000
00000000
10000000
00000000
00200000
00300000
00200000
00300000
00010000
00000000
01000000
00000000
,  // measure 38
01001000
00000000
00000000
00000100
00010100
00000000
00000000
00001000
,  // measure 39
01001000
00000000
00000000
01000000
00100000
10000000
00010000
00100000
,  // measure 40
00200000
00000000
00320000
00000000
01030000
00001000
00010000
01000000
,  // measure 41
00200000
00000000
00302000
00000000
00003010
00000100
00010000
00000010
,  // measure 42
00000200
00000000
00000320
00000000
00010030
00000100
00000010
00001000
,  // measure 43
00020000
00000000
02030000
00000000
03100000
00001000
01000000
00100000
,  // measure 44
00020000
00000000
00230000
00000000
10300000
00100000
00010000
10000000
,  // measure 45
00020000
00000000
00032000
00000000
00003001
00000100
00001000
00000001
,  // measure 46
00000200
00000000
00000302
00000000
00000013
00000001
00001000
00000010
,  // measure 47
00010000
00000100
00001000
00000010
00010000
00001000
00100000
00010000
,  // measure 48
20000000
32000000
03020000
20030000
,  // measure 49
30200000
00000000
00000000
00010000
00000000
00000000
01300000
00000000
00000000
00000000
00000000
00000000
01100000
00000000
00000000
00000000
,  // measure 50
20000000
00000000
30200000
00000000
00320000
00000000
10030000
01000000
,  // measure 51
00020000
00000000
00000000
00100000
00000000
00000000
10030000
00000000
00000000
00000000
00000000
00000000
10010000
00000000
00000000
00000000
,  // measure 52
00102000
00000000
00013000
00000000
00010000
00000100
00000100
00001000
,  // measure 53
00000001
00000000
00000100
00000010
00010000
00001000
00100000
01000000
,  // measure 54
00020000
00000000
00000000
00032000
00000000
00000000
00003200
00000000
00000000
00000000
00000010
00000000
00000310
00000000
00000000
00000000
,  // measure 55
00001001
00011000
10010000
00000000
,  // measure 56
20000000
00000000
30020000
00000000
10030000
00100000
01000000
00100000
,  // measure 57
20000000
00000000
00000000
30020000
00000000
00000000
00230000
00000000
00000000
00000000
00001000
00000000
00301000
00000000
00000000
00000000
,  // measure 58
00020000
00000000
00032000
00000000
00003010
00000100
00000010
00000001
,  // measure 59
00000020
00000000
00000000
00000032
00000000
00000000
00002003
00000000
00000000
00000000
00000001
00000000
00003001
00000000
00000000
00000000
,  // measure 60
00000002
00000000
00000203
00000000
00000310
00000100
00000010
00001000
,  // measure 61
00000010
00000000
00000100
00000001
00000010
00001000
00010000
00100000
,  // measure 62
20000000
00000000
00000000
30200000
00000000
00000000
02300000
00000000
00000000
00000000
00010000
00000000
03010000
00000000
00000000
00000000
,  // measure 63
01000000
00001000
10000000
00010000
00100000
01000000
00010000
00001000
,  // measure 64
00101000
00000000
00000000
00100000
00100100
00000000
00000000
00000100
,  // measure 65
00010100
00000000
00000000
00000000
00000000
00000000
00001000
00000000
00000020
00000030
00000020
00000030
00000001
00000000
00010000
00000000
,  // measure 66
00010010
00000000
00000000
00000010
01000010
00000000
00000000
01000000
,  // measure 67
01001000
00000000
00000000
00001000
10000000
00100000
00010000
00100000
,  // measure 68
10000000
00000000
00000000
00010000
10010000
00000000
00000000
00010000
,  // measure 69
00110000
00000000
00000000
00000000
00000000
00000000
00010000
00000000
02000000
03000000
02000000
03000000
10000000
00000000
00100000
00000000
,  // measure 70
01100000
00000000
00000000
00010000
01010000
00000000
00000000
01000000
,  // measure 71
01100000
00000000
00000000
10000000
00010000
01000000
00010000
10000000
,  // measure 72
02000000
00000000
03000000
00000000
02000000
00000000
03000000
00000000
02000000
03000000
02000000
03000000
00100000
00000000
00010000
00000000
,  // measure 73
00002000
00003000
00002000
00003000
00001000
00000100
00000001
00001000
,  // measure 74
00000200
00000000
00000300
00000000
00000200
00000000
00000300
00000000
00000200
00000300
00000200
00000300
00000001
00000000
00001000
00000000
,  // measure 75
02000000
00000000
03000000
00000000
02000000
00000000
03000000
00000000
02000000
03000000
02000000
03000000
00010000
00000000
00100000
00000000
,  // measure 76
20000000
00000000
30200000
00000000
00310000
00010000
10000000
00100000
,  // measure 77
00020000
00000000
00032000
00000000
00003100
00000100
00000001
00000010
,  // measure 78
00000200
00000000
02000300
00000000
03010000
00010000
10000000
01000000
,  // measure 79
10000000
01000000
00100000
00010000
00001000
00000100
00000010
00000001
,  // measure 80
00000021
00001000
00000100
00000031
,  // measure 81
00001000
00000010
00000100
00000010
00002000
00000000
00003002
00000000
,  // measure 82
00000203
00001000
00000010
00000301
,  // measure 83
00001000
00000010
00100000
00001000
00010000
00000000
00001000
01000000
,  // measure 84
02100000
10000000
00100000
03010000
,  // measure 85
00010000
10000000
01000000
00100000
20000000
00000000
30200000
00000000
,  // measure 86
02300000
00010000
00100000
13000000
,  // measure 87
10000000
00100000
01000000
00001000
00010000
00000100
00001000
00000010
,  // measure 88
00001010
00000000
00000000
00000000
;
