#VERSION:0.83;
#TITLE:Quakes;
#SUBTITLE:;
#ARTIST:dj Hellix;
#TITLETRANSLIT:;
#SUBTITLETRANSLIT:;
#ARTISTTRANSLIT:;
#GENRE:HARD BREAK BEATS;
#CREDIT:;
#MUSIC:Quakes.ogg;
#BANNER:Quakes.png;
#BACKGROUND:Quakes-bg.png;
#CDTITLE:./CDTitles/bm IIDX 24 SINOBUZ.png;
#SAMPLESTART:51.529;
#SAMPLELENGTH:15.000;
#SELECTABLE:YES;
#OFFSET:0.255;
#BPMS:0.000=190.000
,94.000=95.000
,96.000=190.000
,124.000=95.000
,126.000=190.000
,186.000=95.000
,188.000=190.000
,252.000=95.000
,266.000=190.000
;
#STOPS:64.000=0.632
,266.000=0.632
;
#TIMESIGNATURES:0.000=4=4,
64.000=2=4,
66.000=4=4,
94.000=2=4,
96.000=4=4,
124.000=2=4,
126.000=4=4,
186.000=2=4,
188.000=4=4
;
#BGCHANGES:3.800=Quakes.mp4=1.000=0=0=0=StretchNoLoop====,
99999.000=-nosongbg-=1.000=0=0=0=StretchNoLoop====
;
#FGCHANGES:;

//--------------- dance-single - forcednature ----------------
#NOTEDATA:;
#STEPSTYPE:dance-single;
#DESCRIPTION:forcednature;
#CREDIT:forcednature;
#DIFFICULTY:Beginner;
#METER:2;
#RADARVALUES:0,0,0,0,0;
#NOTES:
0000
0000
0000
0000
,
0000
0000
0000
0000
,
0000
0000
0000
0000
,
0000
0000
0000
0000
,
0000
0000
0000
0000
,
0000
0000
0000
0000
,
0000
0000
0000
0000
,
0000
0000
0000
0000
,
0000
0000
0000
0000
,
0001
0000
0000
0000
,
0000
0000
0000
0000
,
0100
0000
0000
0000
,
0000
0000
0000
0000
,
0010
0000
0000
0000
,
0000
0000
0000
0000
,
1000
0000
0000
0000
,
0000
0000
0001
0000
,
0000
0000
0000
0000
,
0001
0000
0010
0000
,
0000
0000
0000
0000
,
0010
0000
0100
0000
,
0000
0000
0000
0000
,
0100
0000
1000
0000
,
0000
0000
0010
0000
,
1001
0000
0000
0000
,
0000
0000
0000
0000
,
0110
0000
0000
0000
,
0000
0000
0000
0000
,
1001
0000
0000
0000
,
0000
0000
0000
0000
,
0110
0000
0000
0000
,
0000
0000
1000
0000
,
0000
0000
1000
0000
,
0000
0000
0100
0000
,
0000
0000
0010
0000
,
0000
0000
0001
0000
,
0000
0000
0001
0000
,
0000
0000
0100
0000
,
0000
0000
0010
0000
,
0000
0000
1000
0000
,
0000
0000
0100
0000
,
0000
0000
1000
0000
,
1000
0000
1000
0000
,
0000
0000
0001
0000
,
0000
0000
0100
0000
,
0000
0000
0001
0000
,
0001
0000
0001
0000
,
0010
0000
0000
0000
,
0000
0000
0000
0000
,
0100
0000
0000
0000
,
0000
0000
0000
0000
,
1000
0000
0000
0000
,
0000
0000
0000
0000
,
0001
0000
0000
0000
,
0100
0000
0000
0000
,
1001
0000
0000
0000
,
0000
0000
0000
0000
,
0001
0000
0000
0000
,
0010
0000
0000
0000
,
0001
0000
0000
0000
,
0000
0000
0000
0000
,
1000
0000
1000
0000
,
1000
0000
1000
0000
,
0010
0000
0000
0000
,
0000
0000
0000
0000
,
0000
0000
0000
0000
,
0000
0000
0000
0000
,
0100
0000
0000
0000
,
0001
0000
1000
0000
,
0001
0000
0000
0000
,
0010
0000
0001
0000
,
0010
0000
0000
0000
,
0100
0000
0010
0000
,
0100
0000
0000
0000
,
1000
0000
1000
0000
,
0010
0000
0000
0000
,
0100
0000
0001
0000
,
1000
0000
0001
0000
,
0010
0000
0100
0000
,
1000
0000
0000
0000
,
0010
0000
0100
0000
,
0001
0000
0001
0000
,
0010
0000
0000
0000
,
1001
0000
0000
0000
;

//--------------- dance-single - forcednature ----------------
#NOTEDATA:;
#STEPSTYPE:dance-single;
#DESCRIPTION:forcednature;
#CREDIT:forcednature;
#DIFFICULTY:Easy;
#METER:7;
#RADARVALUES:0,0,0,0,0;
#NOTES:
0000
0000
0000
0000
,
0000
0000
0000
0000
,
0000
0000
0000
0000
,
0000
0000
0000
0000
,
0000
0000
0000
0000
,
0000
0000
0000
0000
,
0000
0000
0000
0000
,
0000
0000
0000
0000
,
0000
0000
0000
0000
,
0001
0000
0001
0000
,
0001
0000
0000
0000
,
1000
0000
1000
0000
,
1000
0000
0000
0000
,
0010
0000
0010
0000
,
0010
0000
0000
0000
,
0100
0000
0100
0000
,
0000
0000
0001
0000
,
1001
0000
0000
0000
,
1000
0000
0010
0000
,
0110
0000
0000
0000
,
1000
0000
0001
0000
,
1001
0000
0000
0000
,
0001
0000
0010
0000
,
0110
0000
0000
0000
,
1000
0001
1000
0000
,
0001
0100
0001
0000
,
0001
1000
0001
0000
,
1000
0100
1000
0000
,
1000
0010
1000
0000
,
1000
0100
1000
0000
,
0001
0010
0001
0000
,
0200
0300
1001
0000
,
0001
0000
0010
0000
,
0001
0100
0001
0000
,
1000
0000
0100
0000
,
1000
0010
1000
0000
,
0001
0000
0010
0000
,
0100
1000
0100
0000
,
0010
0000
0001
0001
,
0001
0000
0100
0000
,
0010
0000
1000
0000
,
0010
0000
0100
0001
,
0100
0001
1000
0010
,
1000
0000
0100
0000
,
1000
0000
0001
0000
,
0010
0000
0100
1000
,
0100
0010
0002
0003
,
1001
0000
0000
0000
,
0001
0000
0000
0000
,
0100
0000
0000
0000
,
0010
0000
0000
0000
,
1000
0000
1000
0000
,
0100
0000
0100
0000
,
0010
0000
0010
0000
,
0001
0000
1000
0000
,
1001
0000
0000
0000
,
0001
0000
0100
0000
,
0010
0000
1000
0000
,
0001
0010
0000
0010
,
0100
0000
1000
0001
,
1000
0000
1000
0010
,
0100
0100
0001
0001
,
1000
0100
1000
0001
,
0020
0000
0000
0000
,
0030
0000
0000
0000
,
0000
0000
0000
0000
,
0000
0000
0000
0000
,
0001
0100
0010
1000
,
0010
0100
0001
0000
,
1000
0100
0010
0001
,
0010
0100
1000
0000
,
0010
0100
0001
1000
,
0010
0100
0001
0000
,
0010
0100
1000
0001
,
0100
0100
0010
0010
,
1000
0100
1000
0001
,
0100
0100
0100
0100
,
0001
1000
0001
0100
,
0010
0010
0010
0010
,
1000
0001
1000
0100
,
0010
0010
0010
0010
,
0001
0100
0010
1000
,
0200
0300
0020
0030
,
1001
0000
0000
0000
;

//--------------- dance-single - forcednature ----------------
#NOTEDATA:;
#STEPSTYPE:dance-single;
#DESCRIPTION:forcednature;
#CREDIT:forcednature;
#DIFFICULTY:Medium;
#METER:11;
#RADARVALUES:0,0,0,0,0;
#NOTES:
0000
0000
0000
0000
,
0000
0000
0000
0000
,
0000
0000
0000
0000
,
0000
0000
0000
0000
,
0000
0000
0000
0000
,
0000
0000
0000
0000
,
0000
0000
0000
0000
,
0000
0000
0000
0000
,
0000
0000
0000
0000
,
0001
0100
0001
0100
,
0010
1000
0010
1000
,
0001
0010
0001
0010
,
0100
1000
0100
1000
,
0010
0010
0100
0100
,
0001
0001
1000
1000
,
0001
0100
0001
0000
1000
0100
1000
0000
,
0010
0000
0110
0100
,
1001
0000
0001
0010
,
0100
1000
1001
0010
,
0110
0000
1000
0010
,
0100
0001
1001
0100
,
0110
0000
1000
0001
,
0100
0001
0110
0010
,
1001
0000
2000
3002
,
0203
0001
0010
0301
,
0100
0000
0010
1000
0010
1000
0010
0000
,
2000
0100
0001
3100
,
1000
0000
0001
0000
0010
0001
0010
0000
,
0002
0100
1000
0103
,
0001
0000
1000
0001
0010
0000
0110
0000
,
0200
1000
0010
1300
,
0002
0000
0203
0000
0310
0000
1000
0010
,
0000
0000
1010
0000
0001
0000
0010
0001
,
0000
0000
0011
0000
0100
0000
0001
0100
,
0000
0000
0101
0000
1000
0000
0100
1000
,
0000
0100
0010
0000
0001
0000
0100
0001
,
0000
0000
0011
0000
1000
0000
0100
1000
,
0000
0000
1010
0000
0100
0000
0010
0100
,
0000
0000
1001
0000
0001
0010
0001
0000
,
1000
0010
1000
0000
0100
0000
0010
0001
,
0000
0100
0001
0000
0100
0000
0010
1000
,
0000
0100
1000
0000
0001
0100
0001
0000
,
1000
0100
1000
0000
0010
0100
0001
0100
,
0010
0100
0001
0000
0010
0000
0100
1000
,
0000
0100
0010
0000
0001
0000
0100
0010
,
0000
0100
0001
0000
1000
0100
1000
0000
,
0001
0100
0001
0000
0020
0000
0200
0330
,
1001
0000
0000
0000
,
0000
0000
1000
0000
0000
0100
0000
0000
,
0000
0010
0000
0000
0000
0001
0000
0000
,
0100
0000
0000
0010
0000
0000
1000
0000
,
0002
0000
0000
0003
0020
0000
0000
0030
,
0200
0000
0000
0300
2000
0000
0010
3000
,
0020
0000
0000
0030
0200
0000
0000
0300
,
1001
0000
0001
0000
0010
0100
1000
0000
,
1100
0000
0001
0010
0000
0001
0100
0000
,
0010
0000
1000
0100
0000
1000
0001
0000
,
0100
0000
0010
1000
0000
0001
0010
0000
,
0100
1000
0001
1000
0000
0010
0100
0000
,
0110
0000
0010
1000
0001
0000
0010
0000
,
0110
0000
0010
0001
1000
0000
0010
0000
,
0100
0001
1000
0000
0100
1000
0001
0000
,
0010
0001
1000
0000
0010
1000
0001
0000
,
0110
0000
0200
0000
,
0300
0000
0200
0000
,
0300
0000
0200
0000
,
0300
0000
0000
0000
,
0001
0000
0001
0100
0010
0000
0010
1000
,
0001
0000
0001
0010
0100
0000
0110
0000
,
0010
0000
0010
0001
1000
0000
1000
0001
,
0100
0000
0100
0010
1000
0001
1000
0100
,
0010
0000
0010
0100
1000
0000
1000
0001
,
0100
0000
0100
0010
1000
0000
0110
0000
,
0001
0000
0001
0010
0100
0000
0100
0000
,
1000
0010
1000
0100
0010
0001
0100
0000
,
1020
0100
1000
0130
,
0010
0100
0001
0010
0001
0100
0001
0000
,
0021
0000
0100
0000
0001
0000
0130
0100
,
0100
0000
0110
0000
0010
0001
1000
1000
,
2000
0000
0010
0000
0100
0000
3010
1000
,
0100
0000
0010
0001
0100
0001
1000
0000
,
0100
1000
0010
0010
0100
0001
0010
0010
,
0200
0000
0020
0330
,
1001
0000
0000
0000
;

//--------------- dance-single - forcednature ----------------
#NOTEDATA:;
#STEPSTYPE:dance-single;
#DESCRIPTION:forcednature;
#CREDIT:forcednature;
#DIFFICULTY:Hard;
#METER:15;
#RADARVALUES:0,0,0,0,0;
#NOTES:
0000
0000
0000
0000
,
0000
0000
0000
0000
,
0000
0000
0000
0000
,
0000
0000
0000
0000
,
0000
0000
0000
0000
,
0000
0000
0000
0000
,
0000
0000
0000
0000
,
0000
0000
0000
0000
,
0000
0000
0000
0000
,
0001
0000
0100
0001
0000
0010
0001
0000
,
1000
0000
0100
1000
0000
0010
1000
0000
,
0100
0000
0010
0001
0000
1000
0001
0000
,
0100
0000
0010
1000
0000
0001
1000
0000
,
0100
0010
0001
0010
0100
1000
0001
0000
,
0100
0010
1000
0010
0100
0001
1000
0000
,
0100
0100
1000
1000
0001
0001
0100
0100
,
0010
0000
0000
0000
1000
0100
0010
0001
,
0011
0000
0001
0100
1000
0000
1000
0100
,
0001
0000
0110
0000
0001
0100
0010
1000
,
1010
0000
1000
0100
0001
0000
0001
0100
,
1000
0000
0110
0000
1000
0010
0100
0001
,
0101
0000
0001
0010
1000
0000
1000
0010
,
0001
0000
0110
0000
0001
0010
0100
1000
,
1100
0000
0000
0000
1000
0000
0010
0000
0200
0000
0000
0000
0001
0001
0301
0000
,
0120
0000
1000
0000
0130
0010
1000
0001
,
0010
0000
0100
0100
0100
0100
1000
0000
,
0021
0000
0100
0000
0031
1000
0010
0100
,
0001
0000
0010
1000
0010
0001
0100
0000
,
0201
0000
0010
0000
1300
0000
0100
0001
,
0010
0100
0010
0001
1000
0000
1001
0000
,
1200
0000
0010
0000
1300
0001
0100
0000
,
0020
0000
0100
0100
0230
0000
0001
0000
0301
0000
0000
0000
0001
0000
0010
0000
,
0000
0100
0110
0000
1000
0000
1000
0010
,
0000
0100
0110
0000
0001
0000
0001
0100
,
0000
1000
1100
0000
0100
0000
0100
0001
,
0010
0100
1000
0010
0100
0000
0100
0001
,
0010
0100
0110
0000
0100
0000
0100
1000
,
0010
0100
0110
0000
0010
0000
0010
1000
,
0001
0010
0110
0000
0100
1000
0001
1000
,
0010
0000
1000
0001
1000
0000
0000
0000
0001
0000
0000
0001
0100
0000
0000
0100
,
0010
0000
0000
0010
1000
0000
0000
0000
0100
0000
0000
0100
0010
0000
0000
0010
,
0001
0000
0000
0001
1000
0000
0000
0000
0010
0000
0100
0000
0001
0000
0100
0000
,
0010
1000
0001
1000
0100
0100
0010
0010
,
0001
0000
1000
0001
0100
0000
0000
0000
0001
0000
0200
0000
0000
0320
0000
0000
,
2030
0000
0000
3002
0000
0000
0023
0000
0000
0230
0000
0000
2300
0000
0000
3002
,
0000
0000
0203
0000
0000
0320
0000
0000
1030
0000
0001
0000
1000
0100
1000
0000
,
0001
0000
1000
0000
0001
0100
0001
0000
0020
0000
0100
0100
0200
0000
0330
0000
,
1001
0000
0000
0000
,
0000
0000
0001
0000
0000
0010
0000
0000
,
0000
0100
0000
0000
0000
1000
0000
0000
,
0001
0001
0001
0100
0000
0010
1000
0000
,
0002
0000
0013
0100
2000
0000
3010
0000
,
2000
0000
3010
0100
0002
0000
0013
0010
,
0020
0000
0130
1000
0000
0001
0100
0000
,
0210
0000
0010
0000
0301
1000
0100
0010
,
1001
0000
0001
0100
0000
0010
1000
0000
,
0110
0000
0001
0010
0000
0100
0010
0000
,
0011
0000
1000
0100
1000
0001
0100
0000
,
0010
1000
0001
0010
0000
0100
1000
0000
,
2001
0000
3001
0100
0020
0000
1030
0010
,
2000
0000
3100
0010
0002
0000
1003
1000
,
1000
0001
0100
0001
1000
0100
1000
0001
,
0010
0000
0100
0000
0001
0000
0100
0000
0010
0000
0001
0000
1000
0001
1000
0001
,
0100
0000
0020
0000
,
0130
0000
0020
0000
,
0130
0000
0020
0000
,
0130
0000
0000
0000
,
0001
0000
0000
0001
0100
0000
0000
0100
0010
0000
0000
0010
1000
0000
0000
1000
,
0001
0000
0000
0001
0010
0000
0000
0010
0100
0000
1000
0000
0010
0000
0100
0000
,
0001
0000
0000
0001
0010
0000
0000
0010
0100
0000
0000
0100
1000
0000
0000
1000
,
0001
0000
0000
0001
0100
0000
0000
0100
0010
0000
0001
0000
0010
0000
1000
0000
,
0100
0000
0000
0100
0010
0000
0000
0010
0001
0000
0000
0001
1000
0000
0000
1000
,
0010
0000
0000
0010
0100
0000
0000
0100
0001
0000
0010
0000
0100
0000
1000
0000
,
0010
0000
0000
0010
0100
0000
0000
0100
0001
0000
0000
0001
0010
0000
0000
0000
,
0100
0000
1000
0100
1000
0000
0100
0000
0010
0000
0001
0010
0002
0000
0000
0000
,
1003
0010
1010
1000
0001
0010
0011
0001
,
1000
0010
0200
0001
0010
0001
0310
0000
,
0100
0000
0001
0000
0011
0000
0010
0000
0100
0000
1000
0000
0001
0100
0001
0100
,
0010
0000
1000
0000
0001
0000
0010
0000
0100
0000
0010
0000
0001
1000
0001
1000
,
0010
0100
0101
0001
0010
0100
1100
1000
,
0020
0000
0031
0010
2000
0000
3100
0000
,
0010
0100
0010
0100
1000
0000
0001
0000
0100
0010
0100
0010
1000
0000
0001
0000
,
0010
0010
0100
0000
0021
0000
1030
0000
,
0110
0000
0000
0000
;

//--------------- dance-single - forcednature ----------------
#NOTEDATA:;
#STEPSTYPE:dance-single;
#DESCRIPTION:forcednature;
#CREDIT:forcednature;
#DIFFICULTY:Challenge;
#METER:17;
#RADARVALUES:0,0,0,0,0;
#NOTES:
0000
0000
0000
0000
,
0000
0000
0000
0000
,
0000
0000
0000
0000
,
0000
0000
0000
0000
,
0000
0000
0000
0000
,
0000
0000
0000
0000
,
0000
0000
0000
0000
,
0000
0000
0000
0000
,
0000
0000
0000
0000
,
1000
0000
1000
0100
0010
0100
1000
0000
,
0001
0000
0001
0100
0010
0100
0001
0000
,
1000
0000
1000
0010
0100
0001
0010
0000
,
0001
0000
0001
0010
0100
1000
0010
0000
,
0100
0001
0010
0001
0100
0010
1000
0001
,
0010
0100
1000
0100
0010
0001
1000
0010
,
0100
0001
0100
0001
1000
0100
1000
0100
0010
0001
0010
0001
1000
0010
1000
0010
,
0000
0000
0000
0000
0000
0000
0000
0000
0001
0100
0000
0100
0001
0000
0010
0000
,
0011
0000
0001
1000
0100
0000
1000
0010
,
1010
0000
0000
0000
0001
0010
0000
0000
0100
0010
0000
0010
0100
0000
1000
0000
,
1100
0000
0000
0000
1000
0000
0010
0000
0100
0000
0000
0100
0001
0000
0010
0000
,
0011
0000
0000
0000
1000
0010
0000
0000
1000
0100
0000
0100
0010
0000
0001
0000
,
0101
0000
0000
0000
1000
0000
0001
0000
0010
0000
0000
0010
0100
0000
1000
0000
,
1100
0000
0000
0000
0010
1000
0000
0000
0100
0010
0000
0010
0001
0000
0100
0000
,
0110
0000
0000
0000
0001
0000
1000
0000
0200
0000
0000
0000
0310
0000
0001
1000
,
2001
0000
0010
0000
3100
1000
0001
0010
,
0011
0000
0110
0100
0110
0100
1001
0000
,
0201
0000
1000
0000
0301
0100
0010
1000
,
1010
0000
0000
0000
1100
0000
0100
0000
0010
0000
0001
0000
0100
0010
0100
0010
,
2000
0000
0100
0000
3001
1000
0100
0010
,
0011
0000
1000
0010
0110
0000
0101
0000
,
0021
0000
1000
0000
0130
0010
0001
0001
,
0200
0000
0000
0010
0000
0000
0010
0000
0302
0000
0000
0000
2003
0000
0000
0000
3100
0000
0000
0000
0010
0000
0100
0000
0010
0000
0000
0000
0001
0000
0000
0000
,
0100
0000
0010
0100
0010
0000
1000
0000
0001
0000
0010
0001
0010
0000
0100
0000
,
1000
0000
0001
0000
0100
0000
0000
0000
0010
0000
1000
0010
1000
0000
0100
0000
,
0010
0000
0001
0010
0001
0000
0100
0000
0001
0000
1000
0001
1000
0000
0010
0000
,
0100
0000
1000
0000
0100
0000
0001
0000
1000
0000
0010
0100
0010
0000
1000
0000
,
0001
0000
0010
0100
0010
0000
0001
0000
0100
0000
0001
1000
0001
0000
0010
0000
,
0100
0000
1000
0000
0010
0000
0000
0000
0100
0000
1000
0100
1000
0000
0100
0000
,
0001
0000
0010
0001
0010
0000
0000
0000
0100
1000
0001
1000
0100
1000
0001
1000
,
0010
0100
0001
0100
0010
0000
0000
0000
1000
0000
0000
1000
0100
0000
0010
0100
,
0010
0000
0001
0010
0001
0000
1000
0100
0010
0000
0100
0010
0001
0000
0010
0001
,
1000
0000
0001
1000
0010
0000
0000
0000
0100
0000
0001
0000
0010
0000
0001
0000
,
1000
0000
0010
0000
1000
0000
0100
0000
0010
0001
0010
0001
1000
0100
1000
0100
,
0010
0001
1000
0100
0010
0000
0000
0000
0001
0000
0100
0010
0000
0010
1000
0000
,
0100
0010
0000
0010
0001
0000
1000
0010
0000
1000
0100
0000
0010
0001
0000
0100
,
0001
0000
0010
0100
0000
1000
0001
0000
0100
0001
0100
0001
1000
0010
1000
0001
,
0010
0100
1000
0100
0010
0001
1000
0001
0200
0000
0300
0000
0020
0000
0130
0000
,
1001
0000
0001
0000
0000
0001
1000
0000
,
0100
0000
0010
0000
0001
0010
0000
0010
,
0100
0000
1000
0000
0010
0100
0001
0000
,
1000
1000
0100
0010
0000
0001
0100
0000
,
0020
0000
1030
0001
0020
0000
0130
1000
,
0002
0000
0103
0010
2000
0000
3100
0100
,
0010
0000
0010
0001
0000
0001
0100
0000
,
0210
0010
0302
2003
,
3100
0000
0010
0001
0010
0000
0100
0000
0010
0001
0010
0000
0100
0000
0000
0000
,
1000
0000
0001
0000
0100
0010
0100
0000
0001
0000
0010
0100
0010
0000
0000
0000
,
0100
0000
1000
0010
1000
0000
0100
0000
0010
0000
0001
0100
0001
0000
0000
0000
,
1000
0010
0100
2000
0000
3001
0020
0000
,
2030
0000
0000
0000
3100
0000
0010
0000
0012
0000
0000
0000
0103
0000
0100
0010
,
2000
0000
0000
0000
3001
0000
0010
0000
0210
0000
0000
0000
0310
0001
0100
0001
,
1000
0000
0100
1000
0001
0000
0100
0001
1000
0000
0010
1000
0001
0000
0010
0001
,
1000
0010
1000
0010
0100
0001
0100
0001
1000
0100
0010
0001
0010
0100
1000
0001
,
0100
0000
0020
0000
,
0130
0000
0020
0000
,
0130
0000
0020
0000
,
0130
0000
0000
0000
,
1000
0000
0100
1000
0100
0000
0010
0100
0010
0000
0001
0010
0001
0000
1000
0010
,
1000
0000
0100
1000
0001
0000
0100
0001
1000
0000
0010
0100
0002
0000
0000
0000
,
0013
0000
0100
1000
0100
0000
1000
0010
1000
0000
0001
0010
0001
0000
0100
0001
,
0100
0000
0010
1000
0001
0000
0010
0000
0002
0000
0203
0000
0320
0000
2030
0000
,
3100
0000
0010
0001
0010
0000
0100
1000
0100
0000
1000
0010
1000
0000
0001
0100
,
0001
0000
0010
0100
1000
0000
0010
0100
0001
0000
0010
0001
2000
0000
0000
0000
,
3010
0000
1000
0100
1000
0000
0001
0100
0001
0000
0010
0100
0010
0000
0001
0000
,
1000
0010
0100
0010
1000
0001
0100
0001
1000
0100
0010
0001
1000
0001
0010
0100
,
1000
0000
1000
0010
0100
0000
0100
0001
1000
0000
1000
0100
0001
0000
0001
0100
,
0010
0000
0011
0001
0101
0001
0021
0000
,
0130
0000
1000
0001
0100
0000
0010
1000
0001
0000
0100
0000
0010
1000
0100
1000
,
0010
0000
1000
0001
0010
0000
0010
0000
0100
1000
0001
1000
0010
0100
0010
0100
,
0001
0000
0001
1000
0100
0000
0100
0010
0001
0000
0001
0100
1000
0000
1000
0100
,
0001
0000
0010
0000
0110
0000
0100
1000
0010
0000
0100
0000
0120
0000
0000
0000
,
1030
0001
0100
0001
1000
0100
0010
0100
1000
0001
0010
0001
1000
0010
0100
0010
,
1000
0000
1000
0000
1000
0100
0010
0001
0200
0000
0000
0000
0310
0000
0000
0000
,
1001
0000
0000
0000
;

//--------------- dance-double - forcednature ----------------
#NOTEDATA:;
#STEPSTYPE:dance-double;
#DESCRIPTION:forcednature;
#CREDIT:forcednature;
#DIFFICULTY:Easy;
#METER:7;
#RADARVALUES:0,0,0,0,0;
#NOTES:
00000000
00000000
00000000
00000000
,
00000000
00000000
00000000
00000000
,
00000000
00000000
00000000
00000000
,
00000000
00000000
00000000
00000000
,
00000000
00000000
00000000
00000000
,
00000000
00000000
00000000
00000000
,
00000000
00000000
00000000
00000000
,
00000000
00000000
00000000
00000000
,
00000000
00000000
00000000
00000000
,
00010000
00000000
00010000
00000000
,
00010000
00000000
00000000
00000000
,
00001000
00000000
00001000
00000000
,
00001000
00000000
00000000
00000000
,
01000000
00000000
01000000
00000000
,
01000000
00000000
00000000
00000000
,
00010000
00000000
00010000
00000000
,
00000000
00000000
10000000
00000000
,
10010000
00000000
00000000
00000000
,
00010000
00000000
01000000
00000000
,
01100000
00000000
00000000
00000000
,
00001000
00000000
00010000
00000000
,
00011000
00000000
00000000
00000000
,
00001000
00000000
00000100
00000000
,
00000110
00000000
00000000
00000000
,
00000001
00001000
00000001
00000000
,
00001000
00000100
00001000
00000000
,
00000010
00010000
00000010
00000000
,
00010000
00001000
00010000
00000000
,
00001000
00100000
00001000
00000000
,
00100000
00010000
00100000
00000000
,
00010000
10000000
00010000
00000000
,
02000000
03000000
10010000
00000000
,
00010000
00000000
00100000
00000000
,
00001000
00010000
00001000
00000000
,
00010000
00000000
00000100
00000000
,
00001000
00000001
00001000
00000000
,
00000010
00000000
00010000
00000000
,
00001000
00010000
00001000
00000000
,
01000000
00000000
00010000
00010000
,
00010000
00000000
10000000
00000000
,
01000000
00000000
00100000
00000000
,
01000000
00000000
00100000
00010000
,
00100000
00010000
10000000
01000000
,
10000000
00000000
00010000
00000000
,
01000000
00000000
00001000
00000000
,
00010000
00000000
00000010
00001000
,
00000010
00001000
00000002
00000003
,
00001001
00000000
00000000
00000000
,
00001000
00000000
00000000
00000000
,
00000100
00000000
00000000
00000000
,
00010000
00000000
00000000
00000000
,
00001000
00000000
01000000
00000000
,
00010000
00000000
01000000
00000000
,
00100000
00000000
01000000
00000000
,
00010000
00000000
10000000
00000000
,
10010000
00000000
00000000
00000000
,
00001000
00000000
00010000
00000000
,
00000100
00000000
00010000
00000000
,
00010000
00000010
00000000
00000010
,
00001000
00000000
00000100
00000000
,
00000010
00000000
00000100
00000000
,
00001000
00001000
00000001
00000001
,
00001000
00000001
00001000
00000000
,
00000020
00000000
00000000
00000000
,
00000030
00000000
00000000
00000000
,
00000000
00000000
00000000
00000000
,
00000000
00000000
00000000
00000000
,
00001000
00000100
00001000
00000100
,
00010000
00000000
00001000
00000000
,
01000000
00010000
01000000
00010000
,
10000000
00000000
01000000
00000000
,
00100000
00010000
00100000
00010000
,
01000000
00000000
00001000
00000000
,
00010000
00000010
00010000
00000010
,
00001000
00001000
00001000
00000000
,
00000001
00000010
00000100
00000010
,
00000001
00000001
00000001
00000000
,
00001000
00000010
00000100
00000010
,
00001000
00001000
00001000
00000000
,
00000100
00010000
00001000
01000000
,
00010000
00010000
00010000
00000000
,
10000000
01000000
00100000
00010000
,
02000000
03000000
00200000
00300000
,
10010000
00000000
00000000
00000000
;

//--------------- dance-double - forcednature ----------------
#NOTEDATA:;
#STEPSTYPE:dance-double;
#DESCRIPTION:forcednature;
#CREDIT:forcednature;
#DIFFICULTY:Medium;
#METER:11;
#RADARVALUES:0,0,0,0,0;
#NOTES:
00000000
00000000
00000000
00000000
,
00000000
00000000
00000000
00000000
,
00000000
00000000
00000000
00000000
,
00000000
00000000
00000000
00000000
,
00000000
00000000
00000000
00000000
,
00000000
00000000
00000000
00000000
,
00000000
00000000
00000000
00000000
,
00000000
00000000
00000000
00000000
,
00000000
00000000
00000000
00000000
,
00001000
00010000
00001000
00010000
,
00000100
00000100
00000100
00000100
,
00010000
00001000
00010000
00001000
,
01000000
01000000
01000000
01000000
,
00010000
00100000
00001000
00010000
,
00000010
00001000
00000001
00000010
,
00000100
00010000
00001000
00000000
01000000
00001000
00010000
00000000
,
00000000
00000000
00011000
00010000
,
00101000
00000000
00001000
00010000
,
00000010
00001000
00011000
00001000
,
00010010
00000000
00010000
00001000
,
00100000
00010000
00011000
00010000
,
01001000
00000000
00001000
00010000
,
00000100
00001000
00011000
00001000
,
00010100
00000000
00000002
00002003
,
00003200
00010000
00001000
00010300
,
00000100
00000000
00001000
00000010
00001000
00000010
00001000
00000000
,
00000002
00000100
00001000
00000103
,
00000001
00000000
00000010
00000000
00000100
00000010
00000100
00000000
,
00002000
00000100
00000001
00003100
,
00001000
00000000
00000010
00010000
00001000
00000000
00100000
00000000
,
00020000
01000000
10000000
01030000
,
20000000
00000000
30020000
00000000
00130000
00000000
01000000
00100000
,
00000000
00000000
01100000
00000000
01000000
00000000
10000000
01000000
,
00000000
00000000
11000000
00000000
00010000
00000000
01000000
00010000
,
00000000
00000000
01010000
00000000
00001000
00000000
00010000
00000100
,
00000000
00001000
00000100
00000000
00000010
00000000
00000001
00000010
,
00000000
00000000
00000011
00000000
00001000
00000000
00000100
00001000
,
00000000
00000000
00001100
00000000
00010000
00000000
00001000
00010000
,
00000000
00000000
00011000
00000000
00010000
00000100
00001000
00000000
,
00010000
01000000
00001000
00000000
00010000
00000000
00000010
00001000
,
00000000
00000010
00000100
00000000
00000001
00000000
00000010
00000100
,
00000000
00001000
00000100
00000000
00010000
00001000
00010000
00000000
,
00001000
01000000
00001000
00000000
01000000
00010000
01000000
00100000
,
01000000
00010000
00100000
00000000
01000000
00000000
10000000
01000000
,
00000000
00100000
01000000
00000000
00100000
00000000
00001000
00010000
,
00000000
00000010
00001000
00000000
00000001
00000010
00000100
00000000
,
00000010
00000100
00010000
00000000
00002000
00000000
00020000
00033000
,
00011000
00000000
00000000
00000000
,
00000000
00000000
01000000
00000000
00000000
00010000
00000000
00000000
,
00000000
00100000
00000000
00000000
00000000
01000000
00000000
00000000
,
10000000
00000000
00000000
00010000
00000000
00000000
01000000
00000000
,
00002000
00000000
00000000
00003000
00020000
00000000
00000000
00030000
,
00000200
00000000
00000000
00000300
00002000
00000000
00000001
00003000
,
00000002
00000000
00000000
00000003
00000200
00000000
00000000
00000300
,
00000110
00000000
00000010
00000000
00010000
00001000
00010000
00000000
,
00011000
00000000
00001000
00100000
00000000
00001000
00010000
00000000
,
00100000
00000000
01000000
00010000
00000000
00100000
00010000
00000000
,
10000000
00000000
00100000
10000000
00000000
01000000
10000000
00000000
,
01000000
00100000
00010000
00100000
00000000
00001000
00010000
00000000
,
00011000
00000000
00001000
00010000
00000010
00000000
00010000
00000000
,
00011000
00000000
00010000
00001000
00100000
00000000
00001000
00000000
,
00010000
00000100
00010000
00000000
00001000
01000000
00001000
00000000
,
00010000
00000010
00010000
00000000
00001000
00100000
00001000
00000000
,
00011000
00000000
02000000
00000000
,
03000000
00000000
02000000
00000000
,
03000000
00000000
02000000
00000000
,
03000000
00000000
00000000
00000000
,
00010000
00000000
00010000
01000000
00001000
00000000
00001000
00010000
,
00000100
00000000
00000100
00000010
00000001
00000000
00001001
00000000
,
00001000
00000000
00001000
00000010
00010000
00000000
00010000
00001000
,
00100000
00000000
00100000
01000000
10000000
00100000
10000000
01000000
,
00100000
00000000
00100000
00001000
00010000
00000000
00010000
00000010
,
00001000
00000000
00001000
00000100
00000010
00000000
00000110
00000000
,
00000100
00000000
00000100
00001000
00000001
00000000
00000001
00000000
,
00000100
00000010
00001000
00000010
00000100
00000001
00000100
00000000
,
00001020
00010000
00001000
00010030
,
00000010
00001000
00000100
00010000
00000100
00001000
00000010
00000000
,
00021000
00000000
00000100
00000000
00001000
00000000
00030100
00000100
,
00000100
00000000
00011000
00000000
01000000
00010000
10000000
10000000
,
20000000
00000000
01000000
00000000
00010000
00000000
31000000
10000000
,
00100000
00000000
01000000
00010000
00100000
00010000
00100000
00000000
,
00001000
00010000
00000010
00000000
00010000
00001000
00100000
00000000
,
02000000
00000000
00200000
03300000
,
10010000
00000000
00000000
00000000
;

//--------------- dance-double - forcednature ----------------
#NOTEDATA:;
#STEPSTYPE:dance-double;
#DESCRIPTION:forcednature;
#CREDIT:forcednature;
#DIFFICULTY:Hard;
#METER:15;
#RADARVALUES:0,0,0,0,0;
#NOTES:
00000000
00000000
00000000
00000000
,
00000000
00000000
00000000
00000000
,
00000000
00000000
00000000
00000000
,
00000000
00000000
00000000
00000000
,
00000000
00000000
00000000
00000000
,
00000000
00000000
00000000
00000000
,
00000000
00000000
00000000
00000000
,
00000000
00000000
00000000
00000000
,
00000000
00000000
00000000
00000000
,
00001000
00000000
01000000
00001000
00000000
00100000
00001000
00000000
,
00010000
00000000
00000100
00010000
00000000
00000010
00010000
00000000
,
00001000
00000000
00100000
01000000
00000000
00100000
00001000
00000000
,
00010000
00000000
00000010
00000100
00000000
00000010
00010000
00000000
,
00001000
01000000
00010000
01000000
00001000
00010000
00001000
00000000
,
00010000
00000100
00001000
00000100
00010000
00001000
00010000
00000000
,
00000010
00000010
00001000
00001000
00010000
00010000
01000000
01000000
,
00100000
00000000
00000000
00000000
10000000
01000000
00010000
00000000
,
00011000
00000000
00001000
00000100
00000001
00000000
00000001
00000100
,
00001000
00000000
00000110
00000000
00000001
00000010
00001000
00000000
,
00011000
00000000
10000000
00100000
00010000
00000000
00010000
00100000
,
10000000
00000000
01100000
00000000
10000000
01000000
00010000
00000000
,
00011000
00000000
00001000
00000100
00000001
00000000
00001000
00000100
,
00000001
00000000
00000110
00000000
00000001
00000010
00001000
00000000
,
00011000
00000000
00000000
00000000
00010000
00000000
00100000
00000000
20000000
00000000
00000000
00000000
00010000
00010000
30010000
00000000
,
12000000
00000000
00100000
00000000
13000000
01000000
00010000
00001000
,
00010000
00000000
00000010
00000010
00000010
00000010
00001000
00000000
,
00000201
00000000
00000010
00000000
00000301
00000010
00000100
00010000
,
00001000
00000000
00100000
01000000
00100000
00001000
01000000
00000000
,
10200000
00000000
01000000
00000000
10300000
00000000
00100000
00010000
,
00001000
00000000
00000010
00001000
00010000
00001000
00000010
00000000
,
00000201
00000000
00000010
00000000
00000301
00000100
00001000
00000000
,
00020000
00000000
00001000
00001000
00032000
00000000
01000000
00000000
01003000
00000000
00000000
00000000
01000000
00000000
00010000
00000000
,
00000000
00100000
00101000
00000000
00000100
00000000
00000100
00001000
,
00000000
00000010
00010000
00000000
00001000
00000000
00001000
00100000
,
00000000
01000000
01100000
00000000
00010000
00000000
00010000
00000010
,
00001000
00000100
00000010
00000001
00000100
00000000
00000100
00001000
,
00010000
01000000
01100000
00000000
01000000
00000000
01000000
00010000
,
00001000
00000100
00000010
00000000
00001000
00000000
00001000
00000100
,
00000010
00001000
00011000
00000000
00010000
00100000
01000000
00100000
,
10000000
00000000
01000000
00000000
00100000
00000000
01000000
00000000
00010000
00000000
00000000
00010000
00001000
00000000
00000000
00001000
,
00000010
00000000
00000000
00000010
00000100
00000000
00000000
00000000
00001000
00000000
00000000
00001000
00000001
00000000
00000000
00000001
,
00000100
00000000
00000000
00000100
00001000
00000000
00000000
00000000
00010000
00000000
00100000
00000000
10000000
00000000
00100000
00000000
,
10000000
01000000
00010000
01000000
00100000
00001000
00010000
00001000
,
00000100
00000000
00000001
00000000
00000010
00000000
00000000
00000000
00000000
00000000
00000200
00000000
00000000
00020300
00000000
00000000
,
00032000
00000000
00000000
00203000
00000000
00000000
02300000
00000000
00000000
03020000
00000000
00000000
00032000
00000000
00000000
00003020
,
00000000
00000000
00000032
00000000
00000000
00000203
00000000
00000000
00001300
00000000
00010000
00000000
00100000
00000000
01000000
00000000
,
00001000
00000000
00010000
00000000
01000000
00000000
00100000
00000000
00020000
00000000
10000000
10000000
20000000
00000000
30030000
00000000
,
01100000
00000000
00000000
00000000
,
00000000
00000000
00001000
00000000
00000000
00010000
00000000
00000000
,
00000000
00000100
00000000
00000000
00000000
00001000
00000000
00000000
,
00000001
00000001
00000001
00000100
00000000
00001000
00010000
00000000
,
00200000
00000000
10300000
01000000
00020000
00000000
00031000
00000000
,
00000020
00000000
00000031
00000100
00002000
00000000
00013000
00010000
,
00020000
00000000
00130000
10000000
00000000
01000000
10000000
00000000
,
10200000
00000000
01000000
00000000
10300000
00100000
01000000
00010000
,
00100000
00000000
01000000
00010000
00000000
00001000
00010000
00000000
,
00011000
00000000
00001000
00000010
00000000
00000001
00000010
00000000
,
00000110
00000000
00000100
00010000
00001000
00010000
00100000
00000000
,
01000000
00010000
10000000
00100000
00000000
10000000
01000000
00000000
,
01200000
00000000
00301000
00010000
00000200
00000000
00001300
00000010
,
00020000
00000000
00031000
00000010
00000002
00000000
00000103
00000100
,
00000100
00001000
00010000
00001000
01000000
00010000
00100000
00010000
,
00001000
00000000
00000100
00000000
00001000
00000000
00000010
00000000
00010000
00000000
00001000
00000000
00010000
00001000
00010000
00000000
,
00000010
00000000
00000200
00000000
,
00000310
00000000
00000200
00000000
,
00000310
00000000
00000200
00000000
,
00000310
00000000
00000000
00000000
,
00001000
00000000
00000000
00001000
00000001
00000000
00000000
00000001
00000010
00000000
00000000
00000010
00000100
00000000
00000000
00000100
,
00010000
00000000
00000000
00010000
00001000
00000000
00000000
00001000
01000000
00000000
00010000
00000000
00100000
00000000
01000000
00000000
,
10000000
00000000
00000000
10000000
00100000
00000000
00000000
00100000
01000000
00000000
00000000
01000000
00001000
00000000
00000000
00001000
,
00010000
00000000
00000000
00010000
00000100
00000000
00000000
00000100
00001000
00000000
00000010
00000000
00000001
00000000
00000010
00000000
,
00000100
00000000
00000000
00000100
00000001
00000000
00000000
00000001
00000010
00000000
00000000
00000010
00000100
00000000
00000000
00000100
,
00010000
00000000
00000000
00010000
00001000
00000000
00000000
00001000
01000000
00000000
00010000
00000000
00100000
00000000
01000000
00000000
,
10000000
00000000
00000000
10000000
00100000
00000000
00000000
00100000
00010000
00000000
00000000
00010000
00001000
00000000
00000000
00000000
,
00100000
01000000
00100000
00010000
00001000
00000100
00000020
00000000
,
00000031
00000100
00001000
00010000
01000000
00010000
00001000
00000100
,
00000002
00000000
00000013
00001000
00010000
00001000
00000010
00000000
,
00000100
00000000
00010000
00000000
00001000
00000000
00000010
00000000
00000001
00000000
00000010
00000000
00001000
00010000
00001000
00000000
,
00010000
00000000
00100000
01000000
10000000
01000000
00010000
00010000
,
10000000
01000000
00010000
00001000
00000100
00001000
00010000
01000000
,
20000000
00000000
30100000
00010000
00001000
00010000
00100000
00000000
,
10000000
01000000
10000000
00000000
01000000
00000000
00100000
00000000
00001000
00010000
00001000
00000000
00010000
00000000
00000010
00000000
,
00001000
00001000
00000100
00000000
00000020
00000000
00000031
00000000
,
00001001
00000000
00000000
00000000
;

//--------------- dance-double - forcednature ----------------
#NOTEDATA:;
#STEPSTYPE:dance-double;
#DESCRIPTION:forcednature;
#CREDIT:forcednature;
#DIFFICULTY:Challenge;
#METER:17;
#RADARVALUES:0,0,0,0,0;
#NOTES:
00000000
00000000
00000000
00000000
,
00000000
00000000
00000000
00000000
,
00000000
00000000
00000000
00000000
,
00000000
00000000
00000000
00000000
,
00000000
00000000
00000000
00000000
,
00000000
00000000
00000000
00000000
,
00000000
00000000
00000000
00000000
,
00000000
00000000
00000000
00000000
,
00000000
00000000
00000000
00000000
,
00001000
00000000
00001000
01000000
00010000
01000000
00001000
00000000
,
00010000
00000000
00010000
00000100
00001000
00000100
00010000
00000000
,
00001000
00000000
00001000
00100000
01000000
00100000
00001000
00000000
,
00010000
00000000
00010000
00000010
00000100
00000010
00010000
00000000
,
00001000
00100000
01000000
10000000
00100000
01000000
00001000
00010000
,
00000100
00000010
00000001
00000100
00000010
00010000
00001000
00100000
,
01000000
10000000
01000000
00000000
00100000
01000000
00100000
00000000
00010000
00100000
00010000
00000000
00100000
00001000
00010000
00001000
,
00000000
00000000
00000000
00000000
00000000
00000000
00000000
00000000
00010000
00000010
00000000
00000000
00001000
00000000
00000001
00000000
,
00000011
00000000
00000010
00000100
00010000
00000000
00001000
00100000
,
01100000
00000000
00000000
00000000
01000000
10000000
00000000
00000000
00010000
00100000
00000000
00000000
00001000
00000000
00010000
00000000
,
00010010
00000000
00000010
00000100
00000001
00000000
00000010
00000100
,
00010100
00000000
00000000
00000000
00010000
00001000
00000000
00000000
01000000
00010000
00000000
00000000
00100000
00000000
01000000
00000000
,
11000000
00000000
00010000
01000000
00001000
00000000
00010000
00000100
,
00001100
00000000
00000000
00000000
00001000
00000010
00000000
00000000
00000100
00000001
00000000
00000000
00000010
00000000
00000100
00000000
,
00001100
00000000
00000000
00000000
00010000
00000000
00001000
00000000
02000000
00000000
00000000
00000000
03100000
00000000
00100000
10000000
,
02000000
00000000
00010000
00000000
13000000
01000000
00010000
00001000
,
00100000
00000000
00101000
00001000
00011000
00001000
01001000
00000000
,
00000200
00000000
00000010
00000000
00001300
00000100
00010000
00001000
,
00000100
00000000
00000000
00000000
00000010
00000000
00001000
00000000
00000010
00000000
00010000
00000000
00001000
01000000
00010000
01000000
,
00200000
00000000
00010000
00000000
10300000
00100000
01000000
00100000
,
00110000
00000000
00010000
00001000
00010000
00000100
00000010
00000000
,
00000021
00000000
00001000
00000000
00000130
00000010
00000001
00000001
,
00000200
00000000
00000000
00000010
00000000
00000000
00000010
00000000
00000302
00000000
00000000
00000000
00002003
00000000
00000000
00000000
00003100
00000000
00000000
00000000
00001000
00000000
00000100
00000000
00001000
00000000
00000000
00000000
00000010
00000000
00000000
00000000
,
00010000
00000000
00001000
00010000
00001000
00000000
01000000
00000000
00010000
00000000
00100000
00010000
00100000
00000000
01000000
00000000
,
10000000
00000000
00010000
00000000
01000000
00000000
00000000
00000000
00001000
00000000
00010000
00001000
00010000
00000000
00000010
00000000
,
00001000
00000000
00000100
00001000
00000100
00000000
00000010
00000000
00000001
00000000
00001000
00000001
00001000
00000000
00000010
00000000
,
00000100
00000000
00001000
00000000
00010000
00000000
00100000
00000000
01000000
00000000
00010000
01000000
00010000
00000000
10000000
00000000
,
01000000
00000000
00100000
01000000
00100000
00000000
00001000
00000000
00010000
00000000
00000100
00010000
00000100
00000000
00001000
00000000
,
00000010
00000000
00000100
00000000
00000001
00000000
00000000
00000000
00000010
00000000
00000100
00000010
00000100
00000000
00010000
00000000
,
00001000
00000000
00100000
00001000
00100000
00000000
00000000
00000000
01000000
10000000
01000000
10000000
00010000
00100000
00010000
00100000
,
00001000
00010000
00001000
00010000
00000010
00000000
00000000
00000000
00000100
00000000
00000000
00000100
00000001
00000000
00000010
00000001
,
00000010
00000000
00000100
00000010
00000100
00000000
00001000
00000100
00010000
00000000
00001000
00100000
00010000
00000000
00100000
00010000
,
10000000
00000000
00100000
10000000
01000000
00000000
00000000
00000000
00100000
00000000
00010000
00000000
00001000
00000000
00000100
00000000
,
00010000
00000000
00001000
00000000
00000100
00000000
00000010
00000000
00001000
00000100
00010000
00000100
00001000
00000010
00010000
00000010
,
00001000
00000100
00000010
00000001
00001000
00000000
00000000
00000000
00000010
00000000
00000100
00001000
00000000
00010000
00001000
00000000
,
01000000
00001000
00000000
00010000
00001000
00000000
00100000
00010000
00000000
00100000
01000000
00000000
10000000
00100000
00000000
01000000
,
00100000
00000000
00010000
00001000
00000000
00010000
00000100
00000000
00001000
00000010
00001000
00000010
00010000
00001000
00100000
00001000
,
00010000
00000100
00010000
00001000
01000000
00010000
10000000
00010000
00200000
00000000
00300000
00000000
02000000
00000000
03100000
00000000
,
10010000
00000000
00010000
00000000
00000000
00010000
01000000
00000000
,
00001000
00000000
00010000
00000000
00000100
00001000
00000000
00001000
,
00000010
00000000
00000100
00000000
00000001
00001000
00000100
00000000
,
00010000
00010000
00001000
01000000
00000000
00010000
10000000
00000000
,
02000000
00000000
03010000
00001000
00000200
00000000
00001300
00010000
,
00200000
00000000
00310000
00001000
00000020
00000000
00000130
00000100
,
00001000
00000000
00000001
00000100
00000000
00000100
00001000
00000000
,
00021000
00001000
00230000
20300000
,
31000000
00100000
00001000
00010000
00100000
10000000
01000000
00010000
,
00001000
00000100
00000001
00000010
00000100
00010000
00000010
00000100
,
00001000
00010000
01000000
00100000
00010000
00001000
00000100
00010000
,
00001000
01000000
00100000
00010000
00001000
00000010
00000100
00010000
,
00002000
00000000
00000000
00000000
00100000
00000000
00000000
00000000
02000000
00000000
03000000
00000000
01003000
00000000
01000000
00001000
,
00020000
00000000
00000000
00000000
00000010
00000000
00000000
00000000
00000200
00000000
00000300
00000000
00030100
00010000
00001000
00010000
,
00000010
00000000
00001000
00000010
00010000
00000000
00001000
00100000
00010000
00000000
00100000
00001000
00010000
00000000
00000010
00010000
,
00001000
01000000
00010000
01000000
00001000
00100000
00010000
00100000
00001000
00010000
00000010
00001000
00000010
00010000
00001000
00010000
,
00000100
00000000
00020000
00000000
,
00130000
00000000
00020000
00000000
,
00030100
00000000
00020000
00000000
,
00130000
00000000
00000000
00000000
,
00010000
00000000
00001000
00010000
00001000
00000000
01000000
00010000
01000000
00000000
00001000
00010000
00001000
00000000
00100000
00010000
,
00100000
00000000
01000000
10000000
00010000
00000000
01000000
00001000
00010000
00000000
00000010
00001000
00000002
00000000
00000000
00000000
,
00000013
00000000
00000100
00001000
00000100
00000000
00010000
00001000
00010000
00000000
00000100
00001000
00000100
00000000
00000010
00000001
,
00000010
00000000
00000100
00010000
00001000
00000000
01000000
00000000
00002000
00000000
00023000
00000000
00230000
00000000
02300000
00000000
,
03010000
00000000
10000000
00100000
10000000
00000000
01000000
10000000
01000000
00000000
00010000
01000000
00010000
00000000
00001000
00010000
,
00001000
00000000
00100000
00001000
00010000
00000000
00000010
00010000
00001000
00000000
00010000
00000100
00002000
00000000
00000000
00000000
,
00003010
00000000
00000100
00000001
00000100
00000000
00000001
00000010
00000001
00000000
00000010
00001000
00000010
00000000
00001000
00000000
,
00010000
00000100
00001000
00000100
00010000
00001000
01000000
00001000
00100000
00010000
00100000
01000000
10000000
01000000
00100000
00010000
,
01000000
00000000
01000000
00001000
00010000
00000000
00010000
00000100
00001000
00000000
00001000
00000010
00010000
00000000
00010000
00001000
,
00100000
00000000
01100000
01000000
11000000
01000000
01200000
00000000
,
00301000
00000000
00010000
00000010
00001000
00000000
00000100
00001000
00000001
00000000
00000100
00000000
00000010
00010000
00001000
00010000
,
00000010
00000000
00001000
00000100
00010000
00000000
00010000
00000000
00001000
01000000
00010000
01000000
00100000
10000000
00100000
10000000
,
00010000
00000000
00010000
01000000
00001000
00000000
00001000
00010000
00000100
00000000
00000100
00000010
00000001
00000000
00000001
00000100
,
00001000
00000000
00010000
00000000
00100000
00000000
00010000
00001000
00100000
00000000
00001000
00000000
00021000
00000000
00000000
00000000
,
00030100
00001000
00000100
00010000
00001000
01000000
00010000
01000000
00001000
00010000
00000010
00010000
00001000
00100000
00010000
00100000
,
01000000
00000000
00000000
00000000
01000000
10000000
01000000
10000000
00200000
00000000
00000000
00000000
00310000
00000000
00000000
00000000
,
00011000
00000000
00000000
00000000
;
