#VERSION:0.83;
#TITLE:Propane Nightmares;
#SUBTITLE:;
#ARTIST:Pendulum;
#TITLETRANSLIT:;
#SUBTITLETRANSLIT:;
#ARTISTTRANSLIT:;
#GENRE:;
#CREDIT:;
#MUSIC:Propane Nightmares.ogg;
#BANNER:Propane Nightmares-BN.png;
#BACKGROUND:Propane Nightmares-BG.png;
#CDTITLE:;
#SAMPLESTART:33.619;
#SAMPLELENGTH:22.069;
#SELECTABLE:YES;
#OFFSET:-0.171;
#BPMS:0.000=174.000;
#STOPS:;
#SPEEDS:0.000=0.700=0.000=0,
59.000=1.000=5.000=0
;
#SCROLLS:0.000=1.000;
#TICKCOUNTS:0.000=4;
#TIMESIGNATURES:0.000=4=4;
#LABELS:0.000=Song Start;
#COMBOS:0.000=1;
#ORIGIN:;
#PREVIEWVID:;
#JACKET:;
#CDIMAGE:;
#DISCIMAGE:;
#BGCHANGES:;
#FGCHANGES:;

//--------------- dance-single - omgukk ----------------
#NOTEDATA:;
#STEPSTYPE:dance-single;
#DESCRIPTION:omgukk;
#DIFFICULTY:Challenge;
#METER:13;
#RADARVALUES:0,0,0,0,0,0,0,0,0,0,0,0,0,0,0,0,0,0,0,0,0,0,0,0,0,0,0,0;
#CHARTNAME:I sell dnb and dnb accessories;
#CHARTSTYLE:;
#CREDIT:;
#NOTES:
0000
0000
0000
0000
,
0000
0000
0000
0000
,
0000
0000
0000
0000
,
0000
0000
0000
0000
,
0000
0000
0000
0000
,
0000
0000
0000
0000
,
0000
0000
0000
0000
,
0000
0000
0000
0000
0000
0000
0000
2000
,
0000
0000
0000
0000
0000
0000
0000
3020
,
0000
0000
0000
2030
0000
3200
0000
0320
,
0000
0000
0000
0000
0000
0000
0031
0200
,
0000
0000
0000
0000
0000
0000
0000
0302
,
0000
0000
0000
0000
0000
0000
0000
0023
,
0000
0000
0000
0000
0000
0031
0100
0010
,
0000
1000
0010
1000
0000
0M01
0010
0001
,
0000
1000
0100
1000
0000
0001
0000
10M0
,
1000
0010
0100
0100
0001
1000
1000
0100
,
0100
0010
0001
0001
1000
0010
0010
1000
,
1000
0010
0100
0100
0001
0010
0010
0100
,
0100
1000
0010
0010
0100
0010
0010
0100
,
0100
0001
0010
0010
0100
1000
1000
0001
,
0100
0100
0010
0010
1000
0100
0100
0010
,
0100
0100
1000
0001
0100
0001
0100
0010
,
1000
0000
0001
0000
1000
0100
1000
0100
1000
0001
0100
0010
1000
0000
1000
0000
,
0001
0001
0020
0000
0230
0000
2300
0000
,
3001
0200
0000
0320
0000
0100
4030
0000
,
0000
3002
0203
0320
,
0000
1030
0000
0200
0000
0010
4300
0000
,
3001
2000
3020
0230
,
0000
0302
0000
2003
0000
0100
3004
0000
,
0000
0000
1003
0010
1000
0100
1000
0010
,
1000
0002
0000
0203
0000
0301
1000
0001
,
1000
0200
0320
0032
,
1003
0020
0000
0230
0000
0010
0304
0000
,
0000
2003
3020
0230
,
0000
0301
0000
0020
0000
0100
0034
0000
,
1003
0002
0203
0320
,
0000
2030
0000
3002
0000
0010
4003
0000
,
0000
0000
3001
0100
0001
0010
0001
0100
,
0001
2000
0000
3020
0000
1030
0001
1000
,
0001
1000
1001
0000
1001
0000
1000
0000
,
0100
0000
0010
0000
0100
0000
1000
0010
,
0100
0010
1000
0000
0001
0100
0001
1000
,
0100
0000
1000
0100
0010
0000
0001
0100
,
0100
0001
1000
0000
0100
0000
1000
0000
,
0100
0000
0010
0000
0001
0000
1000
0001
,
0100
0001
0100
0000
0010
0100
0010
0100
,
0010
2000
0000
3002
0000
0013
0100
1000
,
1000
0010
0110
0000
1001
0000
0001
0000
,
0100
0000
0010
0000
0100
0000
0001
1000
,
0100
1000
0100
0000
1000
0000
0001
0000
,
0010
0000
0100
0000
1000
0000
0010
1000
,
1000
0001
1000
0000
0100
0000
0010
0000
,
0001
0000
1000
0000
0010
0000
0100
0001
,
1000
0001
1000
0000
0100
0000
0010
0000
,
0001
0000
1000
0100
1000
0001
0100
0010
,
1000
0000
1001
0000
0001
1000
0010
1000
,
0001
0000
1000
0100
0000
0010
0000
0010
,
0001
0000
1000
0001
0100
0000
0010
1000
,
0001
0000
0100
0000
0010
0000
1000
0100
,
0010
0000
1001
0000
0001
0010
0100
0010
,
0001
0000
1000
0010
0000
0100
0000
0100
,
0001
0000
1000
0001
1000
0000
0100
0010
,
0001
0000
0100
0000
0010
0000
1000
0100
,
0010
0000
1001
0000
0001
0100
0010
0100
,
0001
0000
1000
0100
0000
0010
0000
0010
,
0001
0000
1000
0001
1000
0000
0010
1000
,
0001
0000
1000
0000
1000
0000
0001
0010
,
0100
0000
1001
0000
1000
0010
0100
0010
,
1000
0000
0001
0000
0010
0000
0100
1000
,
0100
0000
1000
0000
0001
0000
0100
0001
,
0100
0000
0001
1000
0001
1000
0010
0100
,
0001
0010
0200
0000
0320
0000
0032
0000
,
1003
0020
0000
0230
0000
0010
0304
0000
,
0000
2003
3020
0230
,
0000
0301
0000
2000
0000
0100
3004
0000
,
1003
0002
0203
0320
,
0000
2030
0000
3002
0000
0010
4003
0000
,
0000
0000
3001
0100
0001
0010
0001
0100
,
0001
2000
0000
3020
0000
0130
0001
0100
,
0001
0200
0320
2030
,
0000
3001
0000
0020
0000
0100
0034
0000
,
0000
2003
3020
0230
,
0000
0301
0000
2000
0000
0100
3040
0000
,
1030
1000
0002
0000
0203
0000
0320
0000
,
0000
2030
0000
3002
0000
0010
4003
0000
,
0000
3020
0230
0320
,
1030
0200
0000
0320
0000
0031
0100
0000
,
0010
0220
0000
0000
,
0000
0330
0000
0000
0000
0000
0000
0000
;
