#VERSION:0.83;
#TITLE:Prohibited Props;
#SUBTITLE:;
#ARTIST:ZAQUVA;
#TITLETRANSLIT:;
#SUBTITLETRANSLIT:;
#ARTISTTRANSLIT:;
#GENRE:Variable Future Bass;
#ORIGIN:;
#CREDIT:;
#BANNER:Prohibited Props.png;
#BACKGROUND:Prohibited Props-bg.png;
#PREVIEWVID:;
#JACKET:Prohibited Props-jacket.png;
#CDIMAGE:;
#DISCIMAGE:;
#LYRICSPATH:;
#CDTITLE:cdtitle.png;
#MUSIC:Prohibited Props.ogg;
#OFFSET:-1.852930;
#SAMPLESTART:88.194427;
#SAMPLELENGTH:11.687321;
#SELECTABLE:YES;
#DISPLAYBPM:82.000000:164.000000;
#BPMS:0.000=82.000,
16.000=164.000,
51.000=328.000,
52.000=82.000,
67.500=328.000,
68.000=164.000,
96.000=328.000,
98.500=164.000,
98.750=82.000,
102.500=328.000,
103.000=164.000,
103.250=82.000,
107.000=328.000,
107.500=164.000,
107.750=82.000,
111.500=328.000,
112.000=164.000,
112.250=82.000,
116.000=164.000,
146.000=82.000,
147.000=164.000,
162.000=328.000,
163.000=164.000,
179.000=41.000,
180.000=82.000,
182.000=164.000,
214.000=82.000,
222.000=164.000;
#STOPS:51.000=0.183,
67.500=0.274,
96.000=0.915,
97.000=0.091,
97.500=0.092,
162.000=0.183;
#DELAYS:;
#WARPS:;
#TIMESIGNATURES:0.000=4=4;
#TICKCOUNTS:0.000=4;
#COMBOS:0.000=1;
#SPEEDS:0.000=1.000=0.000=0;
#SCROLLS:0.000=1.000;
#FAKES:;
#LABELS:0.000=Song Start;
#BGCHANGES:-2.500=Prohibited Props.mp4=1.000=1=0=1===CrossFade==,
99999=-nosongbg-=1.000=0=0=0 // don't automatically add -songbackground-
;
#KEYSOUNDS:;
#ATTACKS:
;

//---------------dance-single - ----------------
#NOTEDATA:;
#CHARTNAME:;
#STEPSTYPE:dance-single;
#DESCRIPTION:;
#CHARTSTYLE:;
#DIFFICULTY:Challenge;
#METER:17;
#RADARVALUES:0.903559,0.999555,0.470379,0.671970,1.285142,753.000000,697.000000,56.000000,80.000000,18.000000,0.000000,12.000000,0.000000,0.000000,0.903559,0.999555,0.470379,0.671970,1.285142,753.000000,697.000000,56.000000,80.000000,18.000000,0.000000,12.000000,0.000000,0.000000;
#CREDIT:;
#OFFSET:-1.852930;
#BPMS:0.000000=82.000000
,16.000000=164.000000
,51.000000=328.000000
,52.000000=82.000000
,67.500000=328.000000
,68.000000=164.000000
,96.000000=328.000000
,98.500000=164.000000
,98.750000=82.000000
,102.500000=328.000000
,103.000000=164.000000
,103.250000=82.000000
,107.000000=328.000000
,107.500000=164.000000
,107.750000=82.000000
,111.500000=328.000000
,112.000000=164.000000
,112.250000=82.000000
,116.000000=164.000000
,146.000000=82.000000
,147.000000=164.000000
,162.000000=328.000000
,163.000000=164.000000
,179.000000=41.000000
,180.000000=82.000000
,182.000000=164.000000
,214.000000=82.000000
,222.000000=164.000000
;
#STOPS:51.000000=0.182926
,67.500000=0.274391
,96.000000=0.914635
,97.000000=0.091465
,97.500000=0.091461
,162.000000=0.182930
;
#DELAYS:;
#WARPS:;
#TIMESIGNATURES:0.000000=4=4
;
#TICKCOUNTS:0.000000=4
;
#COMBOS:0.000000=1
;
#SPEEDS:0.000000=1.000000=0.000000=0
;
#SCROLLS:0.000000=1.000000
;
#FAKES:;
#LABELS:0.000000=Song Start
;
#DISPLAYBPM:82.000000:164.000000;
#NOTES:
// measure 0
0000
0000
0000
0000
,  // measure 1
0000
0000
0000
0000
,  // measure 2
0000
0000
1000
0001
0010
0000
0022
0033
0000
0000
0001
1000
0010
0000
2020
3030
,  // measure 3
0001
0000
0000
0000
0010
0000
0000
0000
0100
0000
0010
0000
0100
0000
0000
0000
1000
0000
0000
0010
0000
0000
0100
0000
0010
0000
0000
0000
0220
0000
0330
0000
,  // measure 4
0001
0000
0100
0001
0010
0000
0001
0000
0022
0000
0033
0000
2200
0000
3300
0000
,  // measure 5
1000
0000
0010
1000
0010
0000
1000
0100
1000
0000
0001
0100
0001
0000
0010
0001
,  // measure 6
0010
0000
0100
1000
0010
0000
1000
0000
2020
0000
3030
0010
0100
0000
0001
0000
,  // measure 7
1000
0000
0100
0010
0001
0000
0100
0010
2000
0000
0000
3100
0010
0000
0001
1000
,  // measure 8
0001
0000
0100
0000
0010
0000
0100
0000
2200
0000
3300
0000
0102
0000
1003
0001
,  // measure 9
1000
0100
0010
0100
0001
0100
0010
0100
,  // measure 10
1000
0001
0100
0000
0001
1000
0100
0000
0010
0001
1000
0000
0010
1000
0001
0000
,  // measure 11
1000
0100
1000
0100
0010
0001
0010
0001
1000
0010
0100
0001
1000
0100
1000
0100
,  // measure 12
0020
0000
0000
0000
0100
0000
0000
0000
0100
0000
0000
0000
0031
0000
1000
0000
0001
0000
0100
0000
0010
0000
0000
0000
0220
0330
0000
0000
0000
0000
0000
0000
,  // measure 13
1000
0000
0001
0000
0010
0000
0M00
0000
0010
1000
0010
0000
1000
0000
2001
0000
0000
0000
0100
0000
3100
0000
0000
0000
0010
0100
0010
0000
0001
1000
0001
0000
,  // measure 14
1000
0000
0001
0000
0100
0000
00M0
0000
0100
1000
0100
0000
1000
0000
2001
0000
0000
0000
0010
0000
3010
0000
0000
0000
0010
0100
0001
0000
1000
0100
0010
0000
,  // measure 15
0001
0000
1000
0000
0010
0000
0M00
0000
0010
0001
0010
0000
0001
0000
1002
0000
0000
0000
0100
0000
0103
0000
0000
0000
0010
0100
0010
0000
1000
0001
1000
0000
,  // measure 16
0001
0000
1000
0000
0100
0000
00M0
0000
0100
0001
0100
0000
0001
0000
1002
0000
0000
0000
0010
0000
0013
0000
0000
0000
0100
1000
0001
1000
0020
0030
0000
0000
,  // measure 17
1000
0000
0010
0000
2020
0000
3M30
0000
0011
0000
0010
0001
0100
0000
0202
0000
,  // measure 18
03M3
0000
0100
0000
1100
0000
0000
0000
0001
0000
0100
0010
1000
0000
1001
0000
,  // measure 19
0001
0000
0010
0000
0022
0000
0M33
0000
1010
0000
0010
1000
0100
0000
2200
0000
,  // measure 20
33M0
0000
0100
0000
0101
0000
0000
0000
1001
0000
0001
0100
0010
0000
0100
0010
,  // measure 21
1000
0000
0100
0010
0000
0110
0000
0010
0001
0000
0100
0010
0000
0110
0000
0010
,  // measure 22
1000
0000
0100
0010
0000
0011
0000
1000
0001
0000
0100
0010
0000
1010
0000
0001
,  // measure 23
1000
0100
0010
0001
0010
0100
1000
0001
1000
0010
0100
0001
0010
0100
1000
0001
,  // measure 24
0200
0000
0000
0000
0000
0000
0000
0000
0320
0030
0000
0000
2000
3000
0000
0000
2002
0000
0000
0000
3003
0000
0000
0000
1000
0100
0000
0010
0100
0001
0000
0100
,  // measure 25
0001
0000
0400
0000
0310
0000
0100
0000
1000
0001
0000
0100
0010
1000
0000
0100
0010
0000
0001
0000
2002
0000
0000
0000
3003
0000
0000
0000
0001
0100
0000
0010
,  // measure 26
0100
1000
0000
0100
1000
0000
0400
0000
0310
0000
0100
0000
0001
0010
0000
0100
1000
0010
0000
0100
0001
0000
1000
0000
2002
0000
0000
0000
3003
0000
0000
0000
,  // measure 27
0001
0010
0000
0100
0010
1000
0000
0010
1000
0000
0040
0000
0130
0000
1000
0000
0001
0100
0000
0010
1000
0001
0000
0010
0100
0000
1000
0000
2002
0000
0000
0000
,  // measure 28
3003
0000
0000
0000
1000
0010
0000
0100
0010
0001
0000
0010
0001
0000
0040
0000
2030
0000
3200
0000
0302
0000
0203
0000
0000
0000
2300
0000
0000
0000
0000
0000
,  // measure 29
3020
0000
1030
0010
0100
0010
1000
0010
0100
0010
1000
0010
0100
0000
4000
3400
,  // measure 30
0310
0000
1000
0000
0001
0010
0001
0010
0100
1000
0010
0000
0100
0010
1000
0100
,  // measure 31
0020
0000
0031
0010
0100
0010
0001
0010
0100
0010
0001
0010
0100
0000
0004
0403
,  // measure 32
0310
0000
0001
0000
1000
0010
1000
0010
0100
0010
0001
0000
0010
0100
0001
1000
,  // measure 33
0200
0000
1300
0001
0010
0001
1000
0001
0100
0001
1000
0001
0010
0000
4000
3040
,  // measure 34
0130
0000
1000
0000
0001
0100
0001
0100
0010
1000
0100
0000
0010
0001
1000
0010
,  // measure 35
0200
0000
0301
1000
0010
1000
0001
1000
0100
1000
0001
1000
0010
0000
0004
0043
,  // measure 36
0130
0000
0000
0000
0000
0000
0010
0000
0000
1000
0000
0000
0010
0000
0000
1000
0000
0000
0100
0000
0000
0010
0000
0000
0001
0000
0010
0000
0010
0000
1000
0000
0100
0000
0100
0000
0001
0000
0000
0000
0000
0000
0010
0000
0000
0000
0000
0000
,  // measure 37
0021
0000
0130
0010
1000
1020
0000
0001
,  // measure 38
0032
0000
0000
0000
0013
0000
0001
1000
0001
0000
0100
0000
0100
0000
0010
0000
,  // measure 39
1020
0000
0130
0010
0001
0021
0000
1000
,  // measure 40
2030
0000
0000
0000
0000
0000
0000
0000
3010
0000
1000
0000
0100
0000
0010
0000
0200
0300
0000
0000
0000
0000
0000
0000
0110
0000
0000
0000
0001
0000
0010
0000
,  // measure 41
0001
1000
0010
1000
0001
0000
0010
0000
0100
0000
1000
0010
0100
0010
0100
0001
,  // measure 42
0000
1000
0000
0001
0010
0100
0010
0100
1000
0001
0100
0010
1000
0000
1010
0000
,  // measure 43
0001
0000
0011
0000
1000
0000
1100
0000
0001
0000
0101
0000
1000
0010
0100
0010
,  // measure 44
0100
0001
0010
0100
0010
0100
1000
0001
0100
0010
0100
0001
0020
0000
0000
0000
,  // measure 45
0130
0000
0000
0000
1001
0000
0001
0100
0010
1000
0100
0010
0001
0010
0100
1000
0001
0000
1000
0000
0010
0000
0M00
0000
0010
0000
0001
0000
1000
0000
0001
0000
,  // measure 46
0000
0001
0100
0000
0001
0100
0010
1000
0001
1000
0100
00M0
0100
0001
1000
0001
,  // measure 47
0000
0010
0100
0000
0010
0001
0100
0010
1000
0001
0010
0M00
0010
1000
0001
1000
,  // measure 48
0000
1000
0100
0000
1000
0100
0010
0001
1000
0001
0100
00M0
0100
1000
0001
0100
,  // measure 49
0000
0010
0001
0000
0010
0100
0010
1000
0001
0010
0100
M000
0100
0010
1000
0010
,  // measure 50
0000
1000
0001
0000
0010
0100
0010
0001
1000
0010
0100
000M
0100
0010
0001
0010
,  // measure 51
0000
0001
1000
0000
0001
0100
0010
1000
0001
0010
0001
1000
0010
1000
0001
0100
,  // measure 52
0001
1000
0100
1000
0001
0000
0101
0000
1010
0000
0001
0010
0000
1000
0010
0100
,  // measure 53
0010
0000
0000
0001
0000
0000
1000
0000
0000
0001
0000
0000
0100
0000
0000
0000
0100
0000
0000
0000
0100
0000
0000
0000
0001
0000
0100
0000
0010
0000
0002
0000
0000
0000
0003
0000
0011
0000
0000
0000
0110
0000
0000
0000
1010
0000
0000
0000
,  // measure 54
2002
0000
0000
3003
0000
0000
0202
0000
0000
0303
0000
0000
2002
0000
0000
3003
0000
0000
2200
0000
0000
3300
0000
0000
1000
0000
0100
0000
0010
0000
2000
0000
0000
0000
3000
0000
1010
0000
0000
0000
0110
0000
0000
0000
0011
0000
0000
0000
,  // measure 55
2002
0000
3003
0000
0202
0000
0303
0000
2020
0000
3030
0001
0010
0000
0001
0100
0010
0000
0100
0000
1000
0000
000M
0000
1000
0000
0010
0000
1000
0000
0010
0000
,  // measure 56
0M00
0010
0001
0000
1000
0010
0100
0001
0010
0100
0001
M000
0001
0010
0001
0010
,  // measure 57
0M00
0010
1000
0000
0001
0010
0100
1000
0001
0100
0100
1000
0100
0100
0001
0010
,  // measure 58
0010
1000
0010
0010
0001
0100
0010
1000
0002
0000
0013
2000
0000
3001
0200
0000
,  // measure 59
1300
0020
0000
0000
0031
0010
1000
0100
0001
0000
0000
0000
0000
0000
0000
0000
;

//---------------dance-single - ----------------
#NOTEDATA:;
#CHARTNAME:;
#STEPSTYPE:dance-single;
#DESCRIPTION:;
#CHARTSTYLE:;
#DIFFICULTY:Hard;
#METER:15;
#RADARVALUES:0.721167,0.749666,0.327585,0.604773,0.743366,601.000000,562.000000,39.000000,72.000000,0.000000,0.000000,4.000000,0.000000,0.000000,0.721167,0.749666,0.327585,0.604773,0.743366,601.000000,562.000000,39.000000,72.000000,0.000000,0.000000,4.000000,0.000000,0.000000;
#CREDIT:;
#OFFSET:-1.852930;
#BPMS:0.000000=82.000000
,16.000000=164.000000
,51.000000=328.000000
,52.000000=82.000000
,67.500000=328.000000
,68.000000=164.000000
,96.000000=328.000000
,98.500000=164.000000
,98.750000=82.000000
,102.500000=328.000000
,103.000000=164.000000
,103.250000=82.000000
,107.000000=328.000000
,107.500000=164.000000
,107.750000=82.000000
,111.500000=328.000000
,112.000000=164.000000
,112.250000=82.000000
,116.000000=164.000000
,146.000000=82.000000
,147.000000=164.000000
,162.000000=328.000000
,163.000000=164.000000
,179.000000=41.000000
,180.000000=82.000000
,182.000000=164.000000
,214.000000=82.000000
,222.000000=164.000000
;
#STOPS:51.000000=0.182926
,67.500000=0.274391
,96.000000=0.914635
,97.000000=0.091465
,97.500000=0.091461
,162.000000=0.182930
;
#DELAYS:;
#WARPS:;
#TIMESIGNATURES:0.000000=4=4
;
#TICKCOUNTS:0.000000=4
;
#COMBOS:0.000000=1
;
#SPEEDS:0.000000=1.000000=0.000000=0
;
#SCROLLS:0.000000=1.000000
;
#FAKES:;
#LABELS:0.000000=Song Start
;
#DISPLAYBPM:82.000000:164.000000;
#NOTES:
// measure 0
0000
0000
0000
0000
,  // measure 1
0000
0000
0000
0000
,  // measure 2
0000
0000
1000
0001
0010
0000
0022
0033
0000
0000
0001
1000
0010
0000
2020
3030
,  // measure 3
0001
0000
0000
0000
0010
0000
0000
0000
0100
0000
0010
0000
0100
0000
0000
0000
1000
0000
0000
0010
0000
0000
0100
0000
0010
0000
0000
0000
0220
0000
0330
0000
,  // measure 4
0001
0000
0100
0001
0100
0000
0001
0000
0022
0000
0033
0000
0202
0000
0303
0000
,  // measure 5
1000
0010
1000
0001
0010
0001
1000
0010
,  // measure 6
1000
0000
0100
1000
0100
0000
1000
0000
2020
0000
3030
0000
2200
0000
3300
0000
,  // measure 7
0001
0000
0010
0000
0001
0000
0100
0000
0020
0000
0000
0000
0130
0000
0010
1000
,  // measure 8
0001
0000
0010
0000
0001
0000
0010
0000
0220
0000
0330
0000
1002
0000
0013
0001
,  // measure 9
1000
0010
1000
0010
0100
0001
1000
0100
,  // measure 10
0010
0100
0010
0000
0001
0000
0100
0000
0010
0100
0010
0000
1000
0000
0100
0000
,  // measure 11
0010
0001
1000
0000
0001
1000
0010
0000
0200
0000
0000
0000
0301
1000
0001
1000
,  // measure 12
0200
0000
0000
0000
0000
0000
0000
0000
0000
0000
0000
0000
0000
0000
0000
0000
0310
0000
0000
0000
0100
0000
0000
0000
2002
3003
0000
0000
0000
0000
0000
0000
,  // measure 13
1000
0010
0100
0000
0010
0001
0010
0200
0000
0001
0001
0000
0310
0100
0010
1000
,  // measure 14
0001
0010
0100
0000
0010
1000
0010
0200
0000
1000
1000
0000
0310
0001
1000
0010
,  // measure 15
0100
0010
0001
0000
1000
0100
0010
0200
0000
0001
0001
0000
0310
1000
0001
1000
,  // measure 16
0100
0000
0010
0000
1000
0000
0000
0000
0001
0000
0100
0000
0010
0000
0200
0000
0000
0000
1000
0000
1000
0000
0000
0000
0310
0000
0001
0000
0200
0300
0000
0000
,  // measure 17
0010
0000
1000
0000
2010
0000
0000
0000
3010
0000
0010
1000
0100
0000
2100
0000
,  // measure 18
0000
0000
3010
0000
1010
0000
0000
0000
0001
0000
0100
0010
1000
0000
0100
0000
,  // measure 19
0010
0000
0001
0000
0012
0000
0000
0000
0013
0000
0010
0001
0100
0000
0102
0000
,  // measure 20
0000
0000
0013
0000
0011
0000
0000
0000
1000
0000
0001
0100
0001
0000
1000
0100
,  // measure 21
1000
0000
0010
0100
0000
0100
0000
0001
1000
0000
0010
0100
0000
0100
0000
0001
,  // measure 22
1000
0000
0100
0010
0000
0010
0000
0001
1000
0000
0100
0010
0000
0010
0000
0001
,  // measure 23
1000
0010
1000
0000
0001
0010
0001
0000
1000
0010
0100
0000
0001
0010
0100
1000
,  // measure 24
0002
0000
0000
0000
0000
0000
0000
0000
0203
0300
0000
0000
0020
0030
0000
0000
0220
0000
0000
0000
0330
0000
0000
0000
1000
0010
0000
1000
0010
0000
0000
0000
,  // measure 25
0100
0000
4000
0000
3100
0000
0000
0000
0010
1000
0000
0001
1000
0000
0100
0000
0010
0000
0000
0000
0220
0000
0000
0000
0330
0000
0000
0000
0001
0010
0000
0001
,  // measure 26
0010
0000
0000
0000
0100
0000
0004
0000
0103
0000
0000
0000
0010
0001
0000
1000
0010
0000
0100
0000
0001
0000
0000
0000
2002
0000
0000
0000
3003
0000
0000
0000
,  // measure 27
1000
0100
0000
1000
0100
0000
0000
0000
0010
0000
4000
0000
3010
0000
0000
0000
0100
1000
0000
0001
0100
0000
0010
0000
1000
0000
0000
0000
2002
0000
0000
0000
,  // measure 28
3003
0000
0000
0000
0001
0100
0000
0001
0100
0000
0000
0000
0010
0000
0004
0000
0023
0000
0230
0000
0320
0000
2030
0000
0000
0000
3002
0000
0000
0000
0000
0000
,  // measure 29
1003
0000
0100
0000
0010
0001
0000
0010
0001
0000
1000
0000
0010
0000
1000
0010
,  // measure 30
0100
0000
1000
0000
0100
0010
0000
0100
0002
0000
2003
0000
3200
0000
0320
0000
,  // measure 31
0031
0000
0100
0000
0010
1000
0000
0010
1000
0000
0001
0000
0010
0000
0001
0010
,  // measure 32
0100
0000
0001
0000
0100
0010
0000
0100
2000
0000
3020
0000
0032
0000
0023
0000
,  // measure 33
1030
0000
0001
0000
0010
0100
0000
0010
1000
0000
0010
0000
1000
0000
0010
0100
,  // measure 34
1000
0000
0001
0000
1000
0010
0000
0100
0002
0000
0023
0000
0230
0000
2300
0000
,  // measure 35
3001
0000
1000
0000
0010
0100
0000
0010
0001
0000
0010
0000
0001
0000
0010
0100
,  // measure 36
0001
0000
1000
0000
0001
0010
0100
1000
0001
0000
1001
0000
0001
0000
0100
0000
,  // measure 37
0010
0000
0100
0010
0001
0002
0000
0013
,  // measure 38
0200
0000
0000
0000
0310
0000
1000
0001
1000
0000
0001
0000
1000
0000
0100
0000
,  // measure 39
0010
0000
0100
0010
1000
2000
0000
3010
,  // measure 40
0200
0000
0000
0000
0000
0000
0000
0000
0310
0000
0001
0000
0010
0000
0000
0000
2002
3003
0000
0000
0000
0000
0000
0000
0001
0000
0000
0000
0100
0000
0010
0000
,  // measure 41
1000
0000
0010
0000
1000
0000
0100
0010
0001
0000
0010
0000
0001
0000
1000
0010
,  // measure 42
0100
0000
0010
0000
0100
0000
0001
0000
1000
0100
0010
0001
1000
0000
0010
0000
,  // measure 43
0001
0000
0010
0000
1000
0000
0100
0000
0001
0000
0100
0000
1000
0100
1000
0000
,  // measure 44
0001
1000
0001
0000
1000
0010
1000
0000
0010
0100
0001
1000
0200
0000
0000
0000
,  // measure 45
0310
0000
0000
0000
0110
0000
0001
1000
0001
0000
0100
0000
1010
0000
0000
0000
1000
0000
0010
0000
1000
0000
0000
0000
0001
0000
0000
0000
1000
0000
0100
0000
,  // measure 46
0000
1000
0100
0000
0010
0100
0010
0000
0001
0010
0001
0000
1000
0000
0001
0100
,  // measure 47
0000
0001
0100
0000
0010
1000
0001
0000
1000
0100
1000
0000
0001
0000
1000
0010
,  // measure 48
0000
1000
0010
0000
0100
0010
0100
0000
0001
0100
0001
0000
1000
0000
0001
0010
,  // measure 49
0000
0100
1000
0000
0010
0100
0001
0000
1000
0100
0010
0000
0100
0000
0001
0100
,  // measure 50
0000
0010
0100
0000
1000
0001
1000
0000
0001
0100
0010
0000
0100
0000
1000
0100
,  // measure 51
0000
0010
0100
0000
0001
1000
0100
0010
0001
0000
0000
1100
0000
0000
1010
0000
,  // measure 52
0000
0101
0000
0000
1001
0000
0001
0000
0011
0000
1000
0010
0000
1000
0001
0010
,  // measure 53
0001
0000
0000
1000
0000
0000
0001
0000
1000
0000
0001
0000
0100
0010
0100
0020
0000
0000
0001
0000
0100
0000
1000
0000
,  // measure 54
1030
0000
0000
1010
0000
0000
1001
0000
0000
1100
0000
0000
0100
0010
0100
0020
0000
0000
1000
0000
0100
0000
0001
0000
,  // measure 55
0031
0000
0000
0000
0011
0000
0000
0000
1100
0000
0000
1000
0001
0000
1000
0000
0001
0000
0100
0000
0010
0000
0000
0000
0001
0000
0000
0000
0010
0000
0100
0000
,  // measure 56
0000
0010
0100
0000
1000
0100
0010
0000
1000
0100
0010
0000
1000
0000
0010
0100
,  // measure 57
0000
0010
0100
0000
0001
0100
0010
0100
1000
0000
0000
0011
0000
0000
0101
0000
,  // measure 58
0000
1010
0000
0000
1001
0000
0010
0000
2001
0000
3100
0020
0000
0031
0200
0000
,  // measure 59
0310
2000
0000
0000
3010
1000
0001
1000
0100
0000
0000
0000
0000
0000
0000
0000
;

//---------------dance-single - ----------------
#NOTEDATA:;
#CHARTNAME:;
#STEPSTYPE:dance-single;
#DESCRIPTION:;
#CHARTSTYLE:;
#DIFFICULTY:Medium;
#METER:11;
#RADARVALUES:0.483578,0.599733,0.293987,0.361184,0.155393,403.000000,368.000000,35.000000,43.000000,0.000000,0.000000,0.000000,0.000000,0.000000,0.483578,0.599733,0.293987,0.361184,0.155393,403.000000,368.000000,35.000000,43.000000,0.000000,0.000000,0.000000,0.000000,0.000000;
#CREDIT:;
#OFFSET:-1.852930;
#BPMS:0.000000=82.000000
,16.000000=164.000000
,51.000000=328.000000
,52.000000=82.000000
,67.500000=328.000000
,68.000000=164.000000
,96.000000=328.000000
,98.500000=164.000000
,98.750000=82.000000
,102.500000=328.000000
,103.000000=164.000000
,103.250000=82.000000
,107.000000=328.000000
,107.500000=164.000000
,107.750000=82.000000
,111.500000=328.000000
,112.000000=164.000000
,112.250000=82.000000
,116.000000=164.000000
,146.000000=82.000000
,147.000000=164.000000
,162.000000=328.000000
,163.000000=164.000000
,179.000000=41.000000
,180.000000=82.000000
,182.000000=164.000000
,214.000000=82.000000
,222.000000=164.000000
;
#STOPS:51.000000=0.182926
,67.500000=0.274391
,96.000000=0.914635
,97.000000=0.091465
,97.500000=0.091461
,162.000000=0.182930
;
#DELAYS:;
#WARPS:;
#TIMESIGNATURES:0.000000=4=4
;
#TICKCOUNTS:0.000000=4
;
#COMBOS:0.000000=1
;
#SPEEDS:0.000000=1.000000=0.000000=0
;
#SCROLLS:0.000000=1.000000
;
#FAKES:;
#LABELS:0.000000=Song Start
;
#DISPLAYBPM:82.000000:164.000000;
#NOTES:
// measure 0
0000
0000
0000
0000
,  // measure 1
0000
0000
0000
0000
,  // measure 2
0000
0001
0100
0120
0030
1000
0100
0120
,  // measure 3
0031
0001
1000
1000
0001
0100
0010
2001
,  // measure 4
3100
0000
0010
0002
0100
0000
0013
0000
,  // measure 5
0011
1100
1010
0101
,  // measure 6
1000
0000
0010
2000
0100
0000
3010
0000
,  // measure 7
1000
0001
1000
0001
0020
0000
0130
1000
,  // measure 8
0001
0000
0100
0010
1000
0000
1001
0000
,  // measure 9
1000
0100
1000
0000
0001
0100
0001
0000
,  // measure 10
1002
0013
2001
3010
,  // measure 11
1000
0100
0010
0001
2000
0000
3001
0100
,  // measure 12
0020
0000
0000
0000
0000
0000
0000
0000
0000
0000
0000
0000
0000
0000
0000
0000
0000
0000
0000
0000
0000
0000
0000
0000
0230
0300
0000
0000
0000
0000
0000
0000
,  // measure 13
0010
0000
2010
0000
3001
0000
1000
0100
0000
1000
0100
0000
0110
0000
0000
0000
,  // measure 14
0010
0000
0012
0000
1003
0000
0001
0100
0000
0001
0100
0000
0110
0000
0000
0000
,  // measure 15
1000
0000
2010
0000
3100
0000
0010
0100
0000
0010
0100
0000
1100
0000
0000
0000
,  // measure 16
0001
0000
0000
0000
0012
0000
0000
0000
0103
0000
0000
0000
0010
0000
0100
0000
0000
0000
0010
0000
0100
0000
0000
0000
0001
0000
1000
0000
0002
0003
0000
0000
,  // measure 17
0021
0000
1000
0000
0130
0010
0100
0010
,  // measure 18
0000
0001
1000
0000
0001
0100
0010
0000
,  // measure 19
1020
0000
0001
0000
0130
0010
0100
0010
,  // measure 20
0000
1000
0001
0000
1000
0100
0010
0001
,  // measure 21
0100
1010
0100
1010
,  // measure 22
0100
0011
0100
0011
,  // measure 23
1000
0010
1000
0001
0010
0001
1000
0010
,  // measure 24
0200
0000
0000
0000
0000
0000
0000
0000
0020
0030
0000
0000
0300
0000
0000
0000
2001
0000
0000
0000
0000
0000
0000
0000
0100
0000
0000
0000
0100
0000
0000
0000
,  // measure 25
3100
1000
0010
2000
0010
0000
3010
1000
0100
0000
1002
0000
0000
0000
0100
0000
,  // measure 26
0100
0000
0103
0001
0010
0002
0010
0000
0013
0001
0100
0000
2001
0000
0000
0000
,  // measure 27
0100
0000
0001
0000
3010
1000
0100
2000
0010
0000
3100
0010
0100
0000
1002
0000
,  // measure 28
0000
0000
0100
0000
1000
0000
0013
0001
0200
0000
0000
0302
0000
0023
0000
0000
,  // measure 29
0031
0010
0001
0000
0010
0100
0010
0000
,  // measure 30
0100
1000
0100
0000
1000
0100
0010
0001
,  // measure 31
1000
0010
1000
0000
0010
0100
0010
0000
,  // measure 32
0100
0001
0100
0000
0001
0010
0001
0100
,  // measure 33
0010
1000
0001
0000
1000
0001
0010
0000
,  // measure 34
0001
0010
0100
0000
1000
0010
1000
0001
,  // measure 35
0010
0001
1000
0000
0001
1000
0010
0000
,  // measure 36
1000
0010
0001
0010
2000
0010
3001
0000
,  // measure 37
0010
0000
0100
1000
0001
1000
0000
0001
,  // measure 38
0100
0000
0010
0100
0010
0000
1000
0000
,  // measure 39
0010
0000
0100
0001
1000
0001
0000
1000
,  // measure 40
0100
0000
0000
0000
0000
0000
0000
0000
0010
0000
0000
0000
0001
0000
0000
0000
2000
3000
0000
0000
0000
0000
0000
0000
0001
0000
0000
0000
0100
0000
0000
0000
,  // measure 41
0001
0100
0010
1000
0100
0000
1000
0100
,  // measure 42
1000
0100
0010
0001
1000
0000
0001
0100
,  // measure 43
1000
0000
1000
0100
0001
0000
1000
0100
,  // measure 44
0010
0100
0010
0001
0100
0010
2000
0000
,  // measure 45
3010
0000
1001
0000
1000
0100
0010
0000
0001
0000
0010
0000
0100
0000
0000
1000
,  // measure 46
0000
0000
0001
0000
0001
0000
0000
0000
1000
0000
0010
0000
0100
0000
0000
0001
,  // measure 47
0000
0000
1000
0000
1000
0000
0000
0000
0001
0000
0010
0000
0100
0000
0000
1000
,  // measure 48
0000
0000
0010
0000
0010
0000
0000
0000
1000
0000
0010
0000
0100
0000
0000
0001
,  // measure 49
0000
0000
0010
0000
0100
0000
0010
0000
0001
0000
1000
0000
0001
0000
0000
0100
,  // measure 50
0000
0000
0010
0000
0010
0000
0000
0000
1000
0000
0001
0000
1000
0000
0000
0100
,  // measure 51
0000
0000
0010
0000
0010
0000
0000
0000
0012
0000
0000
0010
0000
0000
1000
0000
,  // measure 52
0000
1003
0000
0000
0010
0000
1000
0000
2010
0000
0000
0010
0000
0000
0001
0000
,  // measure 53
3001
1000
0100
0000
0220
0030
0002
0003
,  // measure 54
0310
0100
1000
0010
0220
0030
2000
3000
,  // measure 55
0310
0000
0100
0000
0001
0000
1001
0000
1000
0000
0100
0000
0001
0000
0000
0100
,  // measure 56
0000
0000
1000
0000
1000
0000
0000
0000
0001
0000
0100
0000
1000
0000
0000
0100
,  // measure 57
0000
0000
0001
0000
0001
0000
0000
0000
0102
0000
0000
1000
0000
0000
0010
0000
,  // measure 58
0000
0013
0000
0000
0100
0000
1000
0000
2100
0000
0000
0001
0000
0000
0010
0000
,  // measure 59
0000
3010
0000
0000
0100
0000
0001
0000
0100
0000
0000
0000
0000
0000
0000
0000
;

//---------------dance-single - ----------------
#NOTEDATA:;
#CHARTNAME:;
#STEPSTYPE:dance-single;
#DESCRIPTION:;
#CHARTSTYLE:;
#DIFFICULTY:Easy;
#METER:8;
#RADARVALUES:0.351584,0.449800,0.243589,0.478778,0.012599,293.000000,264.000000,29.000000,57.000000,0.000000,0.000000,0.000000,0.000000,0.000000,0.351584,0.449800,0.243589,0.478778,0.012599,293.000000,264.000000,29.000000,57.000000,0.000000,0.000000,0.000000,0.000000,0.000000;
#CREDIT:;
#OFFSET:-1.852930;
#BPMS:0.000000=82.000000
,16.000000=164.000000
,51.000000=328.000000
,52.000000=82.000000
,67.500000=328.000000
,68.000000=164.000000
,96.000000=328.000000
,98.500000=164.000000
,98.750000=82.000000
,102.500000=328.000000
,103.000000=164.000000
,103.250000=82.000000
,107.000000=328.000000
,107.500000=164.000000
,107.750000=82.000000
,111.500000=328.000000
,112.000000=164.000000
,112.250000=82.000000
,116.000000=164.000000
,146.000000=82.000000
,147.000000=164.000000
,162.000000=328.000000
,163.000000=164.000000
,179.000000=41.000000
,180.000000=82.000000
,182.000000=164.000000
,214.000000=82.000000
,222.000000=164.000000
;
#STOPS:51.000000=0.182926
,67.500000=0.274391
,96.000000=0.914635
,97.000000=0.091465
,97.500000=0.091461
,162.000000=0.182930
;
#DELAYS:;
#WARPS:;
#TIMESIGNATURES:0.000000=4=4
;
#TICKCOUNTS:0.000000=4
;
#COMBOS:0.000000=1
;
#SPEEDS:0.000000=1.000000=0.000000=0
;
#SCROLLS:0.000000=1.000000
;
#FAKES:;
#LABELS:0.000000=Song Start
;
#DISPLAYBPM:82.000000:164.000000;
#NOTES:
// measure 0
0000
0000
0000
0000
,  // measure 1
0000
0000
0000
0000
,  // measure 2
0002
0010
0013
0000
2000
0010
3010
0000
,  // measure 3
0001
1000
0100
0000
0020
0100
0130
0000
,  // measure 4
0012
1000
1000
0103
,  // measure 5
0001
0100
0001
0100
,  // measure 6
2010
0001
0001
3100
,  // measure 7
1000
0100
0010
0001
,  // measure 8
2001
0010
0010
3010
,  // measure 9
1002
0010
0010
0013
,  // measure 10
0002
0100
2003
0100
,  // measure 11
3001
0100
0010
0100
,  // measure 12
0200
0000
0000
0000
0000
0000
0000
0000
0000
0000
0000
0000
0000
0000
0000
0000
0000
0000
0000
0000
0000
0000
0000
0000
0320
0030
0000
0000
0000
0000
0000
0000
,  // measure 13
2010
0001
3001
0000
1000
0100
0010
0000
,  // measure 14
0012
1000
1003
0000
0001
0100
0010
0000
,  // measure 15
0120
0100
1030
0000
0010
1000
0100
0000
,  // measure 16
0120
0000
0000
0000
0100
0000
0000
0000
0031
0000
0000
0000
0000
0000
0000
0000
0010
0000
0000
0000
0001
0000
0000
0000
0100
0000
0000
0000
0020
0030
0000
0000
,  // measure 17
1000
0010
1000
1000
,  // measure 18
0010
0100
0010
1000
,  // measure 19
0001
0010
0001
0001
,  // measure 20
0010
0100
0010
0001
,  // measure 21
1000
0010
0001
0010
,  // measure 22
1000
0001
1000
1000
,  // measure 23
0002
0023
2030
3020
,  // measure 24
0032
0000
0000
0000
0000
0000
0000
0000
2000
3000
0000
0000
0003
0000
0000
0000
2002
0000
0000
0000
3003
0000
0000
0000
0000
0000
0000
0000
1010
0000
0000
0000
,  // measure 25
0000
0001
0001
1010
0001
2002
3003
0000
,  // measure 26
0011
0000
1000
1000
0011
1000
2002
3003
,  // measure 27
0000
0101
0000
1000
1000
0101
1000
2002
,  // measure 28
3003
0000
0000
0000
1100
0000
0000
0000
0002
0000
0000
0023
0000
0230
0000
0000
,  // measure 29
1300
0010
0100
0010
,  // measure 30
1000
0000
0010
0000
0100
0010
0100
0000
,  // measure 31
0001
0010
0100
0010
,  // measure 32
0001
0000
0010
0000
0100
0010
0100
0000
,  // measure 33
1000
0001
0100
0010
,  // measure 34
1000
0000
0001
0000
0010
0100
0010
0000
,  // measure 35
0001
1000
0010
0100
,  // measure 36
0001
1000
0001
0000
2000
0001
3001
0000
,  // measure 37
0010
0000
0100
0000
0000
0010
0000
0000
,  // measure 38
0100
1000
0001
1000
,  // measure 39
0010
0000
0100
0000
0000
0010
0000
0000
,  // measure 40
0100
0000
0000
0000
0000
0000
0000
0000
0001
0000
0000
0000
0000
0000
0000
0000
2002
3003
0000
0000
0000
0000
0000
0000
0001
0000
0000
0000
0000
0000
0000
0000
,  // measure 41
0010
1000
0010
0001
,  // measure 42
0100
1000
0100
0002
,  // measure 43
0010
2003
0010
3001
,  // measure 44
0010
0000
0100
1000
0001
0000
2002
3003
,  // measure 45
1000
0000
1001
0000
1000
0001
1000
0000
0001
0000
0100
0000
0010
0000
0000
0000
,  // measure 46
0100
0000
0100
0000
0010
0100
0001
0000
,  // measure 47
1000
0000
0001
0000
1000
0100
0010
0000
,  // measure 48
0100
0000
0100
0000
0010
0100
1000
0000
,  // measure 49
0001
0000
0100
0000
0010
1000
0100
0000
,  // measure 50
0010
0000
0100
0000
0010
0001
0100
0000
,  // measure 51
0010
0000
0000
0000
1000
0000
0000
0000
2020
0000
0000
0030
0000
0000
0002
0000
,  // measure 52
0000
0003
0000
0000
3100
0000
0000
0000
0022
0000
0000
0033
0000
0000
1000
0000
,  // measure 53
0010
0000
0100
0000
0202
0300
1000
0000
,  // measure 54
0013
0100
0010
0100
2200
0300
0002
0003
,  // measure 55
3010
0100
0001
0001
1000
0100
0010
0000
,  // measure 56
0001
0000
0100
0000
0010
1000
0100
0000
,  // measure 57
0010
0000
0000
0000
0001
0000
0000
0000
0022
0000
0000
0030
0000
0000
2000
0000
,  // measure 58
0000
3000
0000
0000
0103
0000
0000
0000
0220
0000
0000
0330
0000
0000
2002
0000
,  // measure 59
0000
3003
0000
0000
0001
0000
1000
0000
0100
0000
0000
0000
0000
0000
0000
0000
;

//---------------dance-single - ----------------
#NOTEDATA:;
#CHARTNAME:;
#STEPSTYPE:dance-single;
#DESCRIPTION:;
#CHARTSTYLE:;
#DIFFICULTY:Beginner;
#METER:4;
#RADARVALUES:0.187192,0.220490,0.083996,0.159593,0.000000,156.000000,146.000000,10.000000,19.000000,0.000000,0.000000,0.000000,0.000000,0.000000,0.187192,0.220490,0.083996,0.159593,0.000000,156.000000,146.000000,10.000000,19.000000,0.000000,0.000000,0.000000,0.000000,0.000000;
#CREDIT:;
#OFFSET:-1.852930;
#BPMS:0.000000=82.000000
,0.000000=164.000000
;
#STOPS:;
#DELAYS:;
#WARPS:;
#TIMESIGNATURES:0.000000=4=4
;
#TICKCOUNTS:0.000000=4
;
#COMBOS:0.000000=1
;
#SPEEDS:0.000000=1.000000=0.000000=0
;
#SCROLLS:0.000000=1.000000
;
#FAKES:;
#LABELS:0.000000=Song Start
;
#DISPLAYBPM:82.000000:164.000000;
#NOTES:
// measure 0
0000
0000
0000
0000
,  // measure 1
0000
0000
0000
0000
,  // measure 2
0000
0000
0000
0000
,  // measure 3
0000
0000
0000
0000
,  // measure 4
0002
0000
0003
0000
,  // measure 5
2000
0000
3000
0000
,  // measure 6
0001
0000
1000
0000
,  // measure 7
0200
0000
0300
0000
,  // measure 8
0100
0000
0010
0000
,  // measure 9
0001
0001
0001
0000
,  // measure 10
0100
0000
0010
0000
,  // measure 11
1000
1000
1000
0000
,  // measure 12
0001
0000
0001
0000
,  // measure 13
1000
0000
1000
0000
,  // measure 14
0100
0000
0010
0000
,  // measure 15
0100
0100
0100
0000
,  // measure 16
2002
0000
0000
3003
,  // measure 17
1001
0000
0000
0000
,  // measure 18
1000
0000
0000
0000
,  // measure 19
1001
0000
0000
0000
,  // measure 20
0100
0000
0000
0000
,  // measure 21
1001
0000
0000
0000
,  // measure 22
0010
0000
0000
0000
,  // measure 23
1001
0000
0000
0000
,  // measure 24
0001
0000
0000
0000
,  // measure 25
0001
0001
0001
0000
,  // measure 26
0010
0000
0100
0000
,  // measure 27
1000
1000
1000
0000
,  // measure 28
0010
0000
0100
0000
,  // measure 29
0001
0000
0001
0000
,  // measure 30
1000
0000
1000
0000
,  // measure 31
0020
0000
0000
0000
,  // measure 32
0030
0000
0000
0000
,  // measure 33
2002
0000
0000
0000
0000
0000
0000
3003
0000
0000
0000
0000
0000
0000
0000
0000
0100
0000
0000
0000
0000
0000
0000
0000
0000
0000
0000
0000
0000
0000
0000
0000
,  // measure 34
0000
0000
0100
0000
,  // measure 35
2002
3003
0010
0000
,  // measure 36
0000
0000
0010
0000
,  // measure 37
2002
3003
0100
0000
,  // measure 38
0000
0000
0010
0000
,  // measure 39
2002
3003
0010
0000
,  // measure 40
1001
0000
0000
0000
,  // measure 41
1000
1000
1000
0000
,  // measure 42
0100
0100
0100
0000
,  // measure 43
0010
0010
0010
0000
,  // measure 44
0001
1000
0001
0000
,  // measure 45
0001
0001
0001
0000
,  // measure 46
0100
0100
0100
0000
,  // measure 47
0010
0010
0010
0000
,  // measure 48
1000
0001
1000
0000
,  // measure 49
1000
0000
0100
0000
,  // measure 50
0010
0010
0010
0000
,  // measure 51
0100
0000
0010
0000
,  // measure 52
0001
0001
0001
0000
,  // measure 53
0100
0100
0100
0000
,  // measure 54
0010
0010
0010
0000
,  // measure 55
1000
0000
0001
0000
,  // measure 56
0010
0100
0010
0000
,  // measure 57
0200
0000
0000
0000
,  // measure 58
0000
0000
0000
0300
,  // measure 59
1000
1000
1000
0000
,  // measure 60
1000
0010
1000
0000
,  // measure 61
0001
0001
0001
0000
,  // measure 62
0001
0010
0001
0000
,  // measure 63
1000
0001
1000
0000
,  // measure 64
0001
1000
0001
0000
,  // measure 65
0200
0000
0300
0100
,  // measure 66
0020
0000
0030
0010
,  // measure 67
0010
0000
1000
0000
,  // measure 68
0100
0000
0000
0000
,  // measure 69
0010
0000
0001
0000
,  // measure 70
0100
0000
0010
0000
,  // measure 71
1000
0010
1000
0000
,  // measure 72
0001
0010
0001
0000
,  // measure 73
2000
0000
3000
1000
,  // measure 74
0002
0000
0003
0100
,  // measure 75
0010
0000
0000
0000
;
