#VERSION:0.83;
#TITLE:Programmed Genom;
#SUBTITLE:;
#ARTIST:kors k;
#TITLETRANSLIT:;
#SUBTITLETRANSLIT:;
#ARTISTTRANSLIT:;
#GENRE:;
#ORIGIN:;
#CREDIT:;
#BANNER:Programmed Genom.png;
#BACKGROUND:Programmed Genom-bg.png;
#PREVIEWVID:;
#JACKET:Programmed Genom-jacket.png;
#CDIMAGE:;
#DISCIMAGE:;
#LYRICSPATH:;
#CDTITLE:;
#MUSIC:Programmed Genom.ogg;
#OFFSET:-0.015000;
#SAMPLESTART:89.600456;
#SAMPLELENGTH:12.000000;
#SELECTABLE:YES;
#BPMS:0.000=150.000;
#STOPS:;
#DELAYS:;
#WARPS:;
#TIMESIGNATURES:0.000=4=4;
#TICKCOUNTS:0.000=4;
#COMBOS:0.000=1;
#SPEEDS:0.000=1.000=0.000=0,
16.000=4.000=8.000=0,
24.000=1.000=7.000=0;
#SCROLLS:0.000=0.700,
31.000=1.000;
#FAKES:;
#LABELS:0.000=Song Start;
#BGCHANGES:0.000=Programmed Genom.mp4=1.000=0=0=0=StretchNoLoop====,
99999=-nosongbg-=1.000=0=0=0 // don't automatically add -songbackground-
;
#KEYSOUNDS:;
#ATTACKS:
;

//---------------dance-single - ----------------
#NOTEDATA:;
#CHARTNAME:;
#STEPSTYPE:dance-single;
#DESCRIPTION:;
#CHARTSTYLE:;
#DIFFICULTY:Hard;
#METER:13;
#RADARVALUES:0.593174,0.760822,0.116729,0.358525,0.504436,498.000000,484.000000,14.000000,43.000000,0.000000,0.000000,0.000000,0.000000,0.000000,0.593174,0.760822,0.116729,0.358525,0.504436,498.000000,484.000000,14.000000,43.000000,0.000000,0.000000,0.000000,0.000000,0.000000;
#CREDIT:Ben Speirs;
#NOTES:
// measure 0
0000
0000
0000
0000
,  // measure 1
0000
0000
0000
0000
,  // measure 2
0000
0000
0000
0000
,  // measure 3
0000
0000
0000
0000
,  // measure 4
2002
0000
0000
0000
,  // measure 5
0000
0000
0000
0300
,  // measure 6
0000
0000
0000
0000
0000
0300
0000
0000
0000
0000
0000
0000
,  // measure 7
0000
0300
0000
0000
0000
0000
0000
0000
0000
3003
0000
0000
,  // measure 8
0001
1000
0100
0000
1000
0000
1100
0000
,  // measure 9
0100
0010
0001
0000
0100
0000
0102
0000
,  // measure 10
1003
0010
0100
0000
0001
0010
0100
0000
,  // measure 11
1000
0010
0001
0010
1000
0200
0020
0300
,  // measure 12
0031
0000
1000
0000
0010
0000
0000
0010
0100
0000
0001
0000
1000
0001
0000
0000
,  // measure 13
1300
0000
0001
0000
0010
0000
0000
0010
0100
0000
1000
0000
0020
0000
0000
0000
,  // measure 14
0130
0000
0001
0000
1000
0100
0000
1000
0100
0000
0010
0000
0001
0000
0100
0010
,  // measure 15
0200
0000
0000
0000
3301
0010
0000
0010
0100
0000
1000
0000
1002
0000
0000
0000
,  // measure 16
0103
0000
0020
0000
0000
0000
1330
0100
0000
0010
0001
0000
1000
0000
0010
0000
,  // measure 17
0100
0000
0002
0000
0000
0000
0013
0100
0000
0100
1000
0000
0001
0000
0100
0000
,  // measure 18
0010
0000
0200
0000
0000
0000
0331
0010
0000
0100
1000
0000
0001
0000
0100
0000
,  // measure 19
0020
0000
1030
0001
0010
0100
1100
0000
,  // measure 20
0001
1000
0001
1000
0010
0000
1000
0100
0000
0100
0010
0000
0001
0000
1000
0000
,  // measure 21
0001
0000
0200
0000
0000
0000
0310
1000
0000
1000
0001
0000
0010
0000
0100
0000
,  // measure 22
1000
0000
0000
1100
0000
0000
0001
0000
0000
0101
0000
0000
1000
0000
0010
0100
,  // measure 23
0020
0001
1000
0130
,  // measure 24
0001
0000
0010
0000
0100
1000
0000
0001
1000
0000
0010
0000
0100
0000
0001
0000
,  // measure 25
1000
0000
0100
0000
0010
0001
0000
1000
0001
0000
0100
0000
0020
0000
0000
0000
,  // measure 26
1030
0000
1000
0000
0001
0100
0000
0001
0010
0000
0100
0000
1000
0000
1000
0000
,  // measure 27
0001
0000
0001
0000
1000
0010
0000
1000
0100
0000
0010
0000
0002
0000
0000
0000
,  // measure 28
0103
0000
0010
0000
1000
0100
0000
1000
0000
0001
1000
0000
0010
0000
1000
0000
,  // measure 29
0001
0000
0100
0000
0001
0010
0000
0100
1000
0000
0000
0000
1100
0000
0000
0000
,  // measure 30
1002
0000
0103
0010
2010
0000
3100
0010
,  // measure 31
0001
0100
1000
0100
0001
1000
0200
0000
,  // measure 32
0310
0000
0001
0000
1000
0000
0010
0100
,  // measure 33
0001
0000
0000
0000
1000
0000
0000
0000
0100
0000
0000
1000
0001
1000
0000
0000
,  // measure 34
0001
0000
0100
0000
0010
0000
1000
0100
,  // measure 35
0010
0000
0010
0000
0001
0000
0000
0000
1000
0000
0000
0001
1000
0001
0000
0000
,  // measure 36
0001
0000
0100
0000
0000
0100
0000
0000
0010
0000
0000
0010
0000
0000
1000
0000
,  // measure 37
0100
3000
0010
0000
0000
0010
0000
0000
0001
0000
0000
1000
0001
1000
0000
0000
,  // measure 38
0220
0003
0000
0000
0000
0000
0000
0000
,  // measure 39
0000
0000
0000
0000
0330
0000
0001
1000
,  // measure 40
0001
0000
0010
0100
0000
0010
0100
0000
1000
0000
0001
0000
0200
0000
0000
0000
,  // measure 41
0310
0000
1000
0100
0000
1000
0100
0000
0001
0000
0100
0000
2000
0000
0000
0000
,  // measure 42
3010
0000
0100
0001
0000
0100
0001
0000
2000
0000
3200
0000
0320
0000
0000
0000
,  // measure 43
0031
0000
1000
0010
0000
1000
0010
0000
0200
0000
0000
0000
0301
1000
0001
0000
,  // measure 44
1000
0000
0001
0010
0000
0010
0100
0000
2000
0000
3002
0000
0203
0000
0000
0000
,  // measure 45
0310
0000
1000
0100
0000
0100
0010
0000
0001
0000
1000
0000
0020
0000
0000
0000
,  // measure 46
0133
0000
0001
1000
0000
1000
0100
0000
0020
0000
0032
0000
0203
0000
0000
0000
,  // measure 47
0310
0000
1000
0001
0000
0001
0010
0000
0100
0000
1300
0000
3010
0100
0010
0000
,  // measure 48
2002
0000
0000
3003
,  // measure 49
3001
0000
0000
0100
0000
0000
0010
0000
1000
0000
0000
0100
0000
0000
0010
0000
,  // measure 50
0002
0100
0000
1003
,  // measure 51
0001
0000
0000
0010
0000
0000
0100
0000
0100
0000
0000
1000
0000
0000
0001
0000
,  // measure 52
2000
0010
0100
3001
,  // measure 53
0002
0100
0010
1003
,  // measure 54
0001
0100
1000
0001
0010
1000
0100
0010
,  // measure 55
0002
0000
0000
0000
2000
0000
0000
0000
3003
0000
0000
3003
1000
0000
0001
0000
,  // measure 56
1000
0000
0001
0100
0000
0001
1000
0000
0001
0000
0010
0000
0100
0000
1000
0000
,  // measure 57
0001
0000
1000
0010
0000
1000
0001
0000
1000
0000
0100
0000
0010
0000
0001
0000
,  // measure 58
1000
0000
0001
0100
0000
0010
0100
0000
0001
0000
0010
0000
0100
0000
1000
0000
,  // measure 59
0001
0000
1000
0010
0000
0100
0010
0000
0100
0000
0001
0000
1000
0001
1000
0000
,  // measure 60
0001
0000
1000
0010
0000
1000
0001
0000
1000
0000
0100
0000
0010
0000
0001
0000
,  // measure 61
1000
0000
0001
0100
0000
0001
1000
0000
0001
0000
0010
0000
0100
0000
1000
0000
,  // measure 62
0001
0000
1000
0010
0000
0100
0010
0000
1000
0000
0100
0000
0010
0000
0001
0000
,  // measure 63
0100
0000
0010
0000
0110
0000
0000
0000
1000
0001
1000
0001
0100
0010
0100
0000
,  // measure 64
0001
0000
1000
0100
0000
0001
0100
0000
1000
0010
1000
0010
0100
0000
0001
0000
,  // measure 65
1000
0000
0001
0100
0000
1000
0100
0000
0001
0010
0001
0010
0100
0000
1000
0000
,  // measure 66
0001
0000
1000
0010
0000
0100
0001
0000
1000
0001
1000
0001
0100
0000
0100
0000
,  // measure 67
0010
0000
0100
0010
0000
1000
0010
0000
0100
0000
0001
0000
1000
0001
1000
0000
,  // measure 68
0001
0000
0010
0100
0000
0100
1000
0000
0001
0100
0001
0100
0010
0000
1000
0000
,  // measure 69
0001
0000
1000
0010
0000
0010
0100
0000
0001
0010
0001
0010
0100
0000
1000
0000
,  // measure 70
0001
1000
0000
0010
0000
0100
0010
0000
1000
0000
0001
1003
0001
0000
0010
0000
,  // measure 71
0100
0010
0100
0000
1000
0001
1000
0000
0001
0100
0001
0100
0010
1000
0001
0000
,  // measure 72
2002
0000
0000
0000
,  // measure 73
3003
0000
0000
0000
;

//---------------dance-single - ----------------
#NOTEDATA:;
#CHARTNAME:;
#STEPSTYPE:dance-single;
#DESCRIPTION:;
#CHARTSTYLE:;
#DIFFICULTY:Challenge;
#METER:16;
#RADARVALUES:0.756356,0.912987,0.125067,0.650347,0.958845,635.000000,620.000000,15.000000,78.000000,0.000000,0.000000,0.000000,0.000000,0.000000,0.756356,0.912987,0.125067,0.650347,0.958845,635.000000,620.000000,15.000000,78.000000,0.000000,0.000000,0.000000,0.000000,0.000000;
#CREDIT:Ben Speirs;
#NOTES:
0000
0000
0000
0000
,
0000
0000
0000
0000
,
0000
0000
0000
0000
,
0000
0000
0000
0000
,
2002
0000
0000
0000
,
0000
0000
0000
0000
,
0000
0000
0000
0000
,
0000
0000
0000
3003
,
1000
0000
0001
0000
0100
0000
0000
0100
1000
0000
0001
0000
0010
0000
0000
0010
,
1000
0000
0100
0000
0010
0100
0000
0001
0100
0000
1000
0000
0020
0000
0233
0000
,
0301
0000
1000
0000
0010
0000
0000
0010
0001
0000
1000
0000
0100
0000
0000
0100
,
0001
0000
0010
0000
0100
0010
0000
1000
0010
0000
0001
0000
0201
0000
3000
0000
,
0310
0000
1000
0000
0001
0010
0000
0001
0010
0000
0100
0000
1000
0010
0000
1000
,
0010
0000
0100
0000
0001
0010
0000
0100
1000
0000
0001
0000
0200
0000
0320
0000
,
1030
0000
0000
0000
0000
0000
0001
0000
0000
0000
0000
0000
1000
0000
0000
0100
0000
0000
0000
0000
0000
1000
0000
0000
0100
0000
0000
0000
0000
0000
0010
0000
0000
0000
0000
0000
0001
0000
0000
0000
0000
0000
1000
0000
0001
0000
1000
0000
,
0002
0000
0000
0000
0133
0010
0000
1000
0001
0000
0010
0000
2001
0000
0000
0000
,
3001
0000
0023
0000
1030
0000
0010
0100
0000
0010
0001
0000
0200
0000
0320
0000
,
1030
0000
0200
0000
0301
0000
0100
0010
0000
0100
1000
0000
0002
0000
0203
0000
,
0310
0000
0002
0000
0013
0000
1000
0100
0000
0010
0001
0000
0200
0000
0320
0000
,
1030
0000
0001
0000
0010
0010
1002
0000
,
1003
0010
0100
0001
1000
0000
0100
0010
0000
0100
1000
0000
0020
0000
0230
0000
,
0301
0000
0020
0000
1030
0000
0010
0100
0000
0010
0001
0000
0101
0000
0000
0000
,
2000
0000
0000
3100
0000
0000
0010
0000
0000
0002
0000
0000
0103
0000
0000
0010
0000
0000
2000
0000
0000
3100
0000
0000
0010
0000
0000
0002
0000
0000
0103
0000
0000
0010
0000
0000
2000
0000
0000
3000
0000
0000
3301
0000
1000
0000
0001
0000
,
2000
0000
0100
0000
3001
0000
1000
0001
,
1001
0000
0001
0000
0010
0100
0000
0100
0000
1000
0010
1000
0020
0000
0230
0000
,
0301
0000
1000
0000
0100
0010
0000
0010
0000
0001
0100
0001
2000
0000
0000
0000
,
3331
0000
0100
0000
0001
0010
0000
1000
0000
0010
0100
0010
0200
0000
2300
0000
,
3301
0000
0001
0000
1000
0010
0000
0001
0000
0010
0100
0010
0200
0000
0332
0000
,
1003
0000
0100
0000
0010
0001
0000
1000
0010
0100
0001
1000
0002
0000
0203
0000
,
0331
0000
0010
0000
0100
1000
0001
1000
0010
0000
0000
0000
0110
0000
0000
0000
,
2001
0000
0000
0000
3010
0100
0001
0000
0102
0000
0000
0000
0013
0100
1000
0000
,
0001
0100
0010
1000
0100
0010
0001
1000
0010
0100
0010
0100
0002
0000
0000
0000
,
2003
0000
0100
0000
0000
0100
0000
0000
0001
0000
0000
3001
0000
1000
0100
0010
,
0002
0000
0100
0000
0000
0100
0000
0000
1000
0000
0000
1003
0000
0001
0010
0100
,
1000
0000
0001
0000
1000
0010
0000
0100
0001
0000
1000
0100
0000
0010
0001
0000
,
1000
0000
1000
0000
0001
0100
0000
0010
1000
0000
0001
0010
0000
0100
1000
0000
,
0001
0000
0100
0000
0001
0010
0000
0010
1000
0000
1000
0010
0000
0010
0001
0000
,
1000
0000
0001
0000
1000
0010
0000
0010
0001
0000
0001
0010
0000
0010
1000
0001
,
0020
0200
0000
0000
,
0000
0000
0000
0000
0000
0000
0000
0000
0330
0000
0000
0000
0001
0330
1000
0000
,
1001
0000
0001
0010
0000
1000
0010
0000
0001
0000
0100
0000
0020
0000
0000
0000
,
1030
0000
0001
0010
0000
1000
0010
0000
0001
0000
0100
0000
0020
0000
0000
0000
,
1030
0000
0001
0010
0000
0100
1000
0000
0020
0000
0230
0000
0302
0000
2003
0000
,
3001
0000
0000
0000
0000
0000
1000
0000
0000
0100
0000
0000
0000
0000
0000
0010
0000
0000
0001
0000
0000
0000
0000
0000
0200
0000
0000
0000
0000
0000
0000
0000
0000
0000
0000
0000
0310
0000
1000
0000
0010
0000
1000
0000
0000
0001
0000
0000
,
1000
0000
0001
0010
0000
0010
0100
0000
2000
0000
3020
0000
0032
0000
0023
0000
,
1030
0000
0100
0010
0000
0100
0010
0000
0001
0000
1000
0000
0020
0000
0000
0000
,
0130
0000
0001
0010
0000
0100
1000
0000
0002
0000
3203
0000
2300
0000
3200
0000
,
0331
0000
0000
0000
0000
0000
0010
0000
0000
0100
0000
0000
0000
0000
0000
0100
0000
0000
1000
0000
0000
0000
0000
0000
0020
0000
0000
0000
0000
0000
0000
0000
0000
0000
0000
0000
0130
0000
0001
0000
0100
0000
0001
0000
0000
1000
0000
0000
,
0100
0000
0000
0010
0000
0000
0001
0000
0100
0000
0000
0100
0000
0000
0010
0000
,
1000
0000
0000
0001
0000
0000
0010
0000
0100
0000
0000
0100
0000
0000
1000
0000
,
0010
0000
0000
0102
0000
0000
1003
0000
0100
0000
0000
0010
0000
0000
0001
0000
,
0100
0000
0000
2010
0000
0000
3001
0000
0010
0000
0000
0100
0000
0000
1000
0000
,
0001
0100
0001
0100
0000
0010
1000
0000
0001
0000
1000
0103
0000
0010
0031
0000
,
1000
0010
1000
0010
0000
0100
0001
0000
1000
0000
0001
3010
0000
0100
1300
0000
,
0001
0100
0010
1000
0100
0010
0001
1000
0010
0100
0001
0010
0100
1000
0001
1000
,
0020
0000
0200
0000
0330
0000
1000
0001
,
1001
0000
1000
0100
0000
1000
0001
0000
1000
0010
1000
0010
0100
0000
0001
0000
,
1000
0000
0001
0010
0000
0001
1000
0000
0001
0100
0001
0100
0010
0000
1000
0000
,
0001
0000
0010
0100
0000
0010
0100
0000
1000
0100
0010
0001
1000
0000
0001
0000
,
1000
0000
0000
0000
0000
0000
0010
0000
0000
0100
0000
0000
0000
0000
0000
0010
0000
0000
0100
0000
0000
0000
0000
0000
0001
0000
0000
0010
0000
0000
0100
0000
0000
1000
0000
0000
0001
0000
0100
0000
0001
0000
0100
0000
0000
0000
0000
0000
,
0010
0000
1000
0100
0000
0001
0100
1000
0010
0100
0010
0100
0001
0000
1000
0000
,
0010
0000
1000
0100
0000
0100
0010
0001
1000
0010
0100
0001
0020
0000
0230
0000
,
1300
0000
0001
0010
0000
1000
0010
0001
0100
0010
0100
0010
1000
0000
0001
0000
,
0100
0000
0000
0000
0000
0000
0100
0000
0000
0000
0000
0000
1001
0000
0000
0000
0000
0000
0000
0000
0000
0000
0000
0000
1000
0000
0000
0100
0000
0000
0010
0000
0000
0001
0000
0000
0100
0000
0010
0000
0100
0000
0010
0000
0000
1000
0000
0000
,
0001
0000
1000
0010
0000
1000
0100
1000
0001
1000
0010
1000
0002
0000
0203
0000
,
0310
0000
1000
0100
0000
0010
0001
0010
0100
0010
1000
0010
0002
0000
2003
0000
,
3010
0000
1000
0001
0000
0100
0001
0100
0010
0100
1000
0100
0002
0000
0023
0000
,
0130
0000
0000
0000
0000
0000
1000
0000
0000
0001
0000
0000
0000
0000
0000
0001
0000
0000
1000
0000
0000
0000
0000
0000
0001
0000
0000
0100
0000
0000
0010
0000
0000
1000
0000
0000
0001
0000
0010
0000
0001
0000
0010
0000
0000
0100
0000
0000
,
1000
0000
0001
0100
0000
0001
0010
0001
1000
0001
0100
0001
2000
0000
3020
0000
,
0130
0000
0000
0000
0000
0000
0001
0000
0000
0010
0000
0000
0000
0000
0000
0100
0000
0000
1000
0000
0000
0100
0000
0000
0010
0000
0000
0100
0000
0000
0001
0000
0000
0100
0000
0000
2000
0000
0000
0000
0000
0000
3010
0000
0100
0000
0010
0000
,
0100
0000
0000
0001
0000
0000
0000
0000
0000
1000
0000
0000
0000
0000
0000
0100
0000
0000
0010
0000
0000
0000
0000
0000
0001
0000
0000
0000
0000
0000
1000
0000
0010
0000
1000
0000
0010
0000
0000
0000
0000
0000
0100
0000
0000
0000
0000
0000
,
0001
0000
0000
0010
0000
0000
0100
0000
0000
1000
0000
0000
0010
0000
0000
0100
0000
0000
0001
0000
0000
1000
0000
0000
0100
0000
0000
0010
0000
0000
0100
0000
0000
0010
0000
0000
0001
0000
1000
0000
0001
0000
1000
0000
0000
0000
0000
0000
,
2002
0000
0000
0000
,
3003
0000
0000
0000
;

//---------------dance-single - ----------------
#NOTEDATA:;
#CHARTNAME:;
#STEPSTYPE:dance-single;
#DESCRIPTION:;
#CHARTSTYLE:;
#DIFFICULTY:Medium;
#METER:9;
#RADARVALUES:0.396640,0.486926,0.250133,0.375200,0.058364,333.000000,303.000000,30.000000,45.000000,0.000000,0.000000,0.000000,0.000000,0.000000,0.396640,0.486926,0.250133,0.375200,0.058364,333.000000,303.000000,30.000000,45.000000,0.000000,0.000000,0.000000,0.000000,0.000000;
#CREDIT:Ben Speirs;
#NOTES:
0000
0000
0000
0000
,
0000
0000
0000
0000
,
0000
0000
0000
0000
,
0000
0000
0000
0000
,
2002
0000
0000
0000
,
0000
0000
0000
0000
,
0000
0000
0000
0000
,
0000
0000
0000
0000
0000
0000
0000
0000
0000
0000
0000
3003
0000
0000
0000
0000
,
1000
0001
0100
0000
0001
0000
1000
0000
,
0001
1000
0100
0000
1000
0000
0001
0000
,
1000
0010
1000
0000
0001
0010
0001
0000
,
1000
0010
0100
2001
,
3001
0100
0020
0000
1030
0000
0001
0000
,
1000
0100
0020
0000
0031
0000
1000
0000
,
0001
0010
0100
0000
1000
0010
0100
0000
,
2001
0000
3010
0100
0001
0000
1002
0000
,
0013
0100
0000
1100
0000
1000
0010
0100
,
0000
0001
0000
0101
0000
0100
0001
1000
,
0000
0010
0000
1010
0000
1000
0001
1000
,
0200
0000
0310
0110
,
0001
1000
1001
0000
1000
0010
0100
0000
,
0001
0010
0100
0000
1000
0010
0100
0000
,
0001
0000
0000
0001
0000
0000
1000
0000
0000
1000
0000
0000
0200
0000
0000
0000
,
0310
0000
0000
0000
0000
0000
0001
1000
,
0010
0100
0002
0000
1003
0000
1010
0000
,
0001
0010
0100
0000
1000
0010
0100
0100
,
0001
1000
0200
0000
0310
0000
0011
0000
,
1000
0001
0100
0100
0010
1000
0002
0000
,
1003
0100
0010
0000
0001
1000
0010
0010
,
0100
0001
1000
0000
1001
0000
0110
0000
,
2001
3100
1002
0103
,
0001
0100
0010
0000
1000
0100
0010
0000
,
0002
0010
1000
0100
,
1000
0010
1000
0100
,
2003
0010
0001
0100
,
0001
0010
0001
3100
,
1000
0100
0010
0011
,
0001
0100
0010
1010
,
1000
2002
0000
0000
,
0000
0000
0000
3003
,
0002
0000
0000
0000
0103
0010
1000
0000
,
2000
0000
0000
0000
3100
0010
0001
0000
,
0002
0000
0000
0000
0013
0100
1000
0000
,
2000
0000
0000
0000
3010
0100
0010
0000
,
1002
0000
0000
0000
0010
0010
1003
0000
,
2001
0000
0000
0000
0010
0010
3001
0000
,
1002
0000
0000
0000
0100
0100
1003
0000
,
2001
0000
0000
0000
0100
0100
3001
0000
,
1000
0100
0010
0001
,
1000
0010
0100
0001
,
2000
3010
0000
1010
,
0002
0013
0000
0011
,
0002
0103
0020
1030
,
2000
3100
0020
0031
,
1000
0001
0100
0010
1000
0100
0010
0000
,
2002
0000
0000
3003
,
0001
0000
0000
0001
0000
0000
0001
0000
0200
0000
0000
0000
0310
0000
0000
0000
,
1000
0000
0000
1000
0000
0000
1000
0000
0200
0000
0000
0000
0310
0000
0000
0000
,
0001
0000
0000
1000
0000
0000
0001
0000
0020
0000
0000
0000
0130
0000
0000
0000
,
1000
0000
0000
0001
0000
0000
1000
0000
0020
0000
0000
0000
0130
0000
0000
0000
,
0001
0000
0000
0100
0000
0000
0010
0000
0020
0000
0000
0000
1030
0000
0000
0000
,
1000
0000
0000
0100
0000
0000
0010
0000
0020
0000
0000
0000
0031
0000
0000
0000
,
1000
1010
0001
0101
,
1000
0100
0010
0001
0100
0010
1000
0000
,
0001
0000
0000
0001
0000
0000
0010
0000
0100
0000
0010
0000
0100
0000
0000
0000
,
1000
0000
0000
1000
0000
0000
0010
0000
0100
0000
0010
0000
0100
0000
0000
0000
,
0001
0101
1000
1100
,
0001
0010
0100
0000
1000
0010
0100
0000
,
0010
0000
0000
0010
0000
0000
0010
0000
1000
0000
0100
0000
0010
0000
0001
0000
,
0100
0000
0000
0100
0000
0000
0100
0000
0001
0000
0010
0000
0100
0000
1000
0000
,
0020
0230
0302
1003
,
0001
0000
0000
1000
0000
0000
0001
0000
0010
0000
0100
0000
1000
0000
0000
0000
,
2002
0000
0000
0000
,
3003
0000
0000
0000
;

//---------------dance-single - ----------------
#NOTEDATA:;
#CHARTNAME:;
#STEPSTYPE:dance-single;
#DESCRIPTION:;
#CHARTSTYLE:;
#DIFFICULTY:Easy;
#METER:5;
#RADARVALUES:0.241796,0.365195,0.116729,0.233458,0.000000,203.000000,189.000000,14.000000,28.000000,0.000000,0.000000,0.000000,0.000000,0.000000,0.241796,0.365195,0.116729,0.233458,0.000000,203.000000,189.000000,14.000000,28.000000,0.000000,0.000000,0.000000,0.000000,0.000000;
#CREDIT:Ben Speirs;
#NOTES:
0000
0000
0000
0000
,
0000
0000
0000
0000
,
0000
0000
0000
0000
,
0000
0000
0000
0000
,
2002
0000
0000
0000
,
0000
0000
0000
0000
,
0000
0000
0000
0000
,
0000
0000
0000
3003
,
1000
0001
0100
0000
,
0001
1000
0100
0000
,
1000
1000
0100
0000
,
0010
0010
0001
0000
,
1000
0010
0100
0000
,
0001
0010
0100
0000
,
0010
0010
0100
0100
,
2002
3003
0000
0000
,
0000
0001
0000
1000
0000
0010
0000
0010
,
0000
1000
0000
0001
0000
0010
0000
0010
,
0000
0001
0000
1000
0000
0100
0000
0000
,
2002
3003
0000
0000
,
0010
1001
0001
0000
,
1000
0001
0010
0000
,
0100
0000
0000
0110
0000
0000
0010
0000
,
2002
0000
0000
3003
,
1000
0001
0100
0010
,
1000
1000
0100
0000
,
1000
0100
0010
0010
,
0001
1000
0001
0000
,
1000
0010
0100
0100
,
0001
0010
1001
1001
,
1001
0000
0110
0000
,
2002
0000
0000
3003
,
0001
0000
1000
0000
,
0010
0000
0010
0000
,
0100
0000
0100
0000
,
0001
0000
1000
0000
,
0001
0010
0000
0010
,
0100
1000
0000
1000
,
0010
0220
0000
0000
,
0000
0000
0000
0330
,
2000
3000
1000
1000
,
0002
0003
0001
0001
,
0020
0030
0010
0010
,
0200
0300
0100
0100
,
2000
3000
0001
1000
,
0020
0030
1000
0001
,
0020
0030
0001
0001
,
0200
0300
0010
0000
,
2000
0000
3000
0000
,
0002
0000
0003
0000
,
0020
0000
0030
0000
,
0200
0000
0300
0000
,
1000
1000
0001
0001
,
1000
1000
0001
0001
,
1000
0100
0010
0001
,
0100
2002
0000
3003
,
0001
1000
0010
0100
,
0010
0010
0100
0100
,
0001
0010
0100
1000
,
0010
0100
0001
0000
,
1000
0001
0010
0010
,
0100
0100
0010
0010
,
0001
1000
0010
0100
,
0001
1000
0001
0000
,
1000
1000
0100
0010
,
0001
0001
1000
0010
,
0100
0100
0010
1000
,
0001
0001
0010
0000
,
0001
0001
1000
0001
,
0100
0100
0001
0100
,
0010
0010
1000
1000
,
0001
0010
0100
0000
,
2002
0000
0000
0000
,
3003
0000
0000
0000
;

//---------------dance-single - ----------------
#NOTEDATA:;
#CHARTNAME:;
#STEPSTYPE:dance-single;
#DESCRIPTION:;
#CHARTSTYLE:;
#DIFFICULTY:Beginner;
#METER:2;
#RADARVALUES:0.115538,0.180096,0.025013,0.000000,0.000000,97.000000,94.000000,3.000000,0.000000,0.000000,0.000000,0.000000,0.000000,0.000000,0.115538,0.180096,0.025013,0.000000,0.000000,97.000000,94.000000,3.000000,0.000000,0.000000,0.000000,0.000000,0.000000,0.000000;
#CREDIT:Ben Speirs;
#NOTES:
0000
0000
0000
0000
,
0000
0000
0000
0000
,
0000
0000
0000
0000
,
0000
0000
0000
0000
,
1001
0000
0000
0000
,
0000
0000
0000
0000
,
0000
0000
0000
0000
,
0000
0000
0000
0000
,
1000
0000
0000
0000
,
0001
0000
0000
0000
,
0100
0000
0000
0000
,
0100
0000
0000
0000
,
0010
0010
0000
0000
,
0010
0000
0000
0000
,
1000
1000
0000
0000
,
1000
0000
0000
0000
,
0001
0000
0001
0000
,
0001
0000
0000
0000
,
1000
0000
1000
0000
,
1000
0000
0000
0000
,
0100
0000
0100
0000
,
0100
0000
0000
0000
,
0010
0000
0000
0000
,
0010
0000
0000
0000
,
0001
0001
0000
0000
,
0001
0000
0000
0000
,
1000
1000
0000
0000
,
1000
0000
0000
0000
,
0010
0010
0000
0000
,
0010
0000
0100
0100
,
0100
0000
0100
0000
,
0100
0000
0000
0000
,
0001
0000
0000
0000
,
1000
0000
0000
0000
,
0100
0000
0000
0000
,
0010
0000
0000
0000
,
0001
0000
0000
0000
,
1000
0000
0000
0000
,
0010
0000
0000
0000
,
0000
0000
0000
0000
,
1000
0000
1000
0000
,
1000
0000
0000
0000
,
0001
0000
0001
0000
,
0001
0000
0000
0000
,
0100
0000
0100
0000
,
0100
0000
0000
0000
,
0100
0000
0100
0000
,
0100
0000
0000
0000
,
1001
0000
0000
0000
,
1000
0000
0000
0000
,
0010
0000
0000
0000
,
0010
0000
0000
0000
,
1000
0000
0000
0000
,
0001
0000
0000
0000
,
0010
0000
0010
0000
,
0010
0000
0000
0000
,
0001
0001
0000
0000
,
1000
1000
0000
0000
,
0010
0010
0000
0000
,
0010
0000
0000
0000
,
1000
1000
0000
0000
,
0001
0001
0000
0000
,
0010
0010
0000
0000
,
0010
0000
0000
0000
,
0001
0000
0001
0000
,
0001
0001
0000
0000
,
1000
0000
1000
0000
,
1000
1000
0000
0000
,
0010
0000
0010
0000
,
0010
0010
0000
0000
,
0100
0000
0100
0000
,
0100
0000
0000
0000
,
1001
0000
0000
0000
;

//---------------dance-double - ----------------
#NOTEDATA:;
#CHARTNAME:;
#STEPSTYPE:dance-double;
#DESCRIPTION:;
#CHARTSTYLE:;
#DIFFICULTY:Challenge;
#METER:16;
#RADARVALUES:0.749209,0.912987,0.100053,0.750400,0.963014,629.000000,617.000000,12.000000,90.000000,0.000000,0.000000,0.000000,0.000000,0.000000,0.749209,0.912987,0.100053,0.750400,0.963014,629.000000,617.000000,12.000000,90.000000,0.000000,0.000000,0.000000,0.000000,0.000000;
#CREDIT:Ben Speirs;
#NOTES:
00000000
00000000
00000000
00000000
,
00000000
00000000
00000000
00000000
,
00000000
00000000
00000000
00000000
,
00000000
00000000
00000000
00000000
,
00022000
00000000
00000000
00000000
,
00000000
00000000
00000000
00000000
,
00000000
00000000
00000000
00000000
,
00000000
00000000
00000000
00033000
,
00010000
00000000
00001000
00000000
00000100
00000000
00000000
00000100
00000010
00000000
00001000
00000000
00000001
00000000
00000000
00000001
,
00000010
00000000
00000100
00000000
00010000
00000010
00000000
00000010
00000100
00000000
00001000
00000000
00020000
00000000
00000000
00000000
,
03331000
00000000
00010000
00000000
01000000
00000000
00000000
01000000
00100000
00000000
00010000
00000000
10000000
00000000
00000000
10000000
,
00100000
00000000
01000000
00000000
00001000
00100000
00000000
00100000
01000000
00000000
00010000
00000000
00012000
00000000
00000000
00000000
,
00013000
00000000
00001000
00000000
00100000
00010000
00000000
00100000
00001000
00000000
00010000
00000000
00000010
00001000
00000000
00000010
,
00010000
00000000
00001000
00000000
01000000
00010000
00000000
01000000
00001000
00000000
00010000
00000000
00000200
00000000
00000000
00000000
,
00000310
00000000
00000000
00000000
00000000
00000000
00000001
00000000
00000000
00000000
00000000
00000000
00000100
00000000
00000000
00000010
00000000
00000000
00000000
00000000
00000000
00000100
00000000
00000000
00000010
00000000
00000000
00000000
00000000
00000000
00001000
00000000
00000000
00000000
00000000
00000000
00000100
00000000
00000000
00000000
00000000
00000000
00010000
00000000
00000100
00000000
00010000
00000000
,
00000200
00000000
00000000
00000000
00000000
00000000
00000000
00000000
00000000
00000000
00000000
00000000
00010300
00000000
00000000
00001000
00000300
00000000
00000000
00000000
00000000
00001000
00000000
00000000
01000000
00000000
00000000
00000000
00000000
00000000
00100000
00000000
00000000
00000000
00000000
00000000
10020000
00000000
00000000
00000000
00000000
00000000
00000000
00000000
00000000
00000000
00000000
00000000
,
10030000
00000000
02000000
00000000
03010000
00000000
01000000
00100000
00000000
00010000
00100000
00000000
00002000
00000000
00023000
00000000
,
00030010
00000000
00000200
00000000
00001300
00000000
00000100
00000001
00000000
00001000
00000100
00000000
00000020
00000000
00000032
00000000
,
00001003
00000000
00000020
00000000
00000031
00000000
00000010
00001000
00000000
00000100
00010000
00000000
00002000
00000000
00203000
00000000
,
01300000
00000000
00000000
00000000
01000000
01000000
10020000
00000000
,
10030000
00100000
00010000
00001000
00000100
00000000
00000010
00001000
00000000
00000100
00010000
00000000
00002000
00000000
00203000
00000000
,
00310000
00000000
02000000
00000000
13000000
00000000
01000000
00010000
00000000
10000000
01000000
00000000
00200000
00000000
00302000
00000000
,
00013000
00000000
00000000
00000010
00000000
00000000
00010000
00000000
00000000
00001000
00000000
00000000
00100000
00000000
00000000
00001000
00000000
00000000
00010000
00000000
00000000
00000100
00000000
00000000
00010000
00000000
00000000
00001000
00000000
00000000
01000000
00000000
00000000
00001000
00000000
00000000
00010000
00000000
00000000
00000100
00000000
00000000
00001000
00000000
00000001
00000000
00001000
00000000
,
00000002
00000000
00000010
00000000
00001003
00000000
00000001
00001000
,
00001001
00000000
00000001
00000000
00000100
00000010
00000000
00000010
00000000
00001000
00000100
00001000
00000100
00000000
00010000
00000000
,
00001000
00000000
01000000
00000000
00010000
00100000
00000000
01000000
00000000
10000000
00010000
00000000
20000000
00000000
00000000
00000000
,
30010000
00000000
10000000
00000000
00100000
01000000
00000000
01000000
00000000
00010000
00100000
00010000
00100000
00000000
00001000
00000000
,
00010000
00000000
00000010
00000000
00001000
00000100
00000000
00000010
00000000
00000001
00001000
00000000
00000002
00000000
00000023
00000000
,
00000133
00000000
00010000
00000000
00001000
01000000
00000000
00001000
00000000
00100000
00000000
00001000
00020000
00000000
02030000
00000000
,
13000000
00000000
00100000
00000000
01000000
00010000
10000000
00010000
00100000
00000000
00000000
00000000
00101000
00000000
00000000
00000000
,
00010000
00000010
00000100
00000010
00010000
00000000
00000000
00000000
00001000
00100000
01000000
00100000
00001000
00000000
00000000
00000000
,
00010000
00001000
00000100
00000010
00001000
00000100
00000010
00000001
00001000
00000010
00000100
00000010
00020000
00000000
00000000
00000000
,
00032000
00000000
00010000
00000000
00000000
00100000
00000000
00000000
01000000
00000000
00000000
00103000
00003000
00001000
00100000
00001000
,
00020000
00000000
00001000
00000000
00000000
00000010
00000000
00000000
00000100
00000000
00000000
00030010
00000000
00010000
00000010
00010000
,
00001000
00000000
00100000
00000000
00010000
01000000
00000000
01000000
10000000
00000000
01000000
00010000
00000000
00010000
00100000
00001000
,
00010000
00000000
00000100
00000000
00001000
00000010
00000000
00000010
00000001
00000000
00000010
00001000
00000000
00001000
00000100
00010000
,
00001000
00000000
00100000
00000000
00010000
10000000
00000000
00010000
01000000
00000000
00001000
00010000
00000000
00001000
00010000
00000010
,
00010000
00000000
00000100
00000000
00001000
00000001
00000000
00001000
00000010
00000000
00010000
00001000
00000000
00010000
00001000
00100000
,
00002000
00020000
00000000
00000000
,
00000000
00000000
00000000
00000000
00033000
00000000
00001000
00010000
,
00011000
00000000
00001000
00000100
00000000
00001000
00000100
00000000
00000010
00000000
00001000
00000000
00000002
00000000
00000000
00000000
,
00001303
00000000
00000100
00000001
00000000
00000001
00000100
00000000
00001000
00000000
00000010
00000000
00020000
00000000
00000000
00000000
,
00031000
00000000
00010000
00100000
00000000
00010000
00100000
00000000
02000000
00000000
03020000
00000000
20030000
00000000
32000000
00000000
,
33100000
00000000
00000000
00000000
00000000
00000000
00010000
00000000
00000000
10000000
00000000
00000000
00000000
00000000
00000000
10000000
00000000
00000000
00010000
00000000
00000000
00000000
00000000
00000000
02000000
00000000
00000000
00000000
00000000
00000000
03200000
00000000
00000000
00000000
00000000
00000000
00310000
00000000
00001000
00000000
00010000
00000000
00001000
00000000
00000000
00100000
00000000
00000000
,
00001000
00000000
00010000
00000010
00000000
00000100
00000010
00000000
00000002
00000000
00000023
00000000
00020330
00000000
00032000
00000000
,
00013000
00000000
00001000
00100000
00000000
01000000
00100000
00000000
20000000
00000000
30200000
00000000
00302000
00000000
00000000
00000000
,
00013000
00000000
00000010
00000100
00000000
00000001
00000100
00000000
00000020
00000000
00002030
00000000
00003200
00000000
00020300
00000000
,
00031000
00000000
00000000
00000000
00000000
00000000
01000000
00000000
00000000
00100000
00000000
00000000
00000000
00000000
00000000
10000000
00000000
00000000
00100000
00000000
00000000
00000000
00000000
00000000
02000000
00000000
00000000
00000000
00000000
00000000
03020000
00000000
00000000
00000000
00000000
00000000
00130000
00000000
00001000
00000000
00100000
00000000
00001000
00000000
00000000
00010000
00000000
00000000
,
00002000
00000000
00000000
00010000
00000000
00000000
00003100
00000000
00000200
00000000
00000000
00000320
00000000
00000000
00010030
00000000
,
00020000
00000000
00000000
00001000
00000000
00000000
01000000
00000000
02030000
00300000
00000000
03200000
00000000
00000000
00301000
00000000
,
00010000
00000000
00000000
00002010
00000000
00000000
00003001
00000000
00000020
00000000
00000000
00000230
00000000
00000000
00010300
00000000
,
00001000
00000000
00000000
01020000
00000000
00000000
10030000
00000000
02000000
00000000
00000000
03200000
00000000
00000000
00301000
00000000
,
00010000
00000010
00010000
00000010
00000000
00001000
00000100
00000000
00000020
00000000
00000000
00002030
00000000
00000000
00023000
00000000
,
00031000
00100000
00001000
00100000
00000000
00010000
01000000
00000000
00200000
00000000
00000000
00320000
00000000
00000000
00032000
00000000
,
00103000
00010000
00100000
00001000
00010000
00001000
00010000
00000010
00000100
00000010
00001000
00000100
00000010
00000001
00000100
00000010
,
00020000
00000000
00002000
00000000
00033000
00000000
00001000
00310000
,
00011000
00000000
00010000
00000100
00000000
00001000
00000100
00000000
00001000
00000001
00001000
00000001
00000100
00000000
00000010
00000000
,
00001000
00000000
00000100
00010000
00000000
00001000
00010000
00000000
00001000
00100000
00001000
00100000
00010000
00000000
01000000
00000000
,
00010000
00000000
10000000
01000000
00000000
00100000
00010000
00000000
10000000
00100000
10000000
00100000
01000000
00000000
00001000
00000000
,
00010000
00000000
00000000
00000000
00000000
00000000
00001000
00000000
00000000
01000000
00000000
00000000
00000000
00000000
00000000
00001000
00000000
00000000
00010000
00000000
00000000
00000000
00000000
00000000
00000100
00000000
00000000
00010000
00000000
00000000
00000100
00000000
00000000
00001000
00000000
00000000
00000001
00000000
00000100
00000000
00000001
00000000
00000100
00000000
00000000
00000000
00000000
00000000
,
00000001
00000000
00000010
00000100
00000000
00000010
00001000
00000000
00010000
00001000
00000010
00001000
00020000
00000000
02030000
00000000
,
13000000
00000000
00100000
01000000
00000000
00100000
00010000
00000000
00001000
00010000
00100000
00010000
00002000
00000000
00003200
00000000
,
00000310
00000000
00001000
00000100
00000000
00000001
00000100
00001000
00000010
00000100
00000010
00000100
00002000
00000000
00023000
00000000
,
00031000
00000000
00000000
00000000
00000000
00000000
00100000
00000000
00000000
00000000
00000000
00000000
00101000
00000000
00000000
00000000
00000000
00000000
00000000
00000000
00000000
00000000
00000000
00000000
00001000
00000000
00000000
00010000
00000000
00000000
00100000
00000000
00000000
00010000
00000000
00000000
00001000
00000000
00000000
00100000
00000000
00000000
00010000
00000000
10000000
00000000
00010000
00000000
,
10000000
00000000
00010000
01000000
00000000
00100000
10000000
00100000
01000000
00100000
00010000
00100000
02000000
00000000
03002000
00000000
,
00103000
00000000
00001000
00010000
00000000
00001000
00100000
00001000
00010000
00001000
00000100
00001000
00020000
00000000
00030200
00000000
,
00001300
00000000
00000001
00000100
00000000
00000010
00001000
00000010
00000100
00000010
00000001
00000010
00002000
00000000
00003230
00000000
,
00013300
00000000
00000000
00000000
00000000
00000000
00001000
00000000
00000000
01000000
00000000
00000000
00000000
00000000
00000000
00001000
00000000
00000000
00010000
00000000
00000000
00001000
00000000
00000000
00100000
00000000
00000000
00010000
00000000
00000000
00100000
00000000
00000000
00010000
00000000
00000000
10000000
00000000
00010000
00000000
10000000
00000000
00010000
00000000
00000000
01000000
00000000
00000000
,
00100000
00000000
10000000
01000000
00000000
00100000
00001000
00100000
00010000
01000000
00100000
01000000
00002000
00000000
00023000
00000000
,
00030100
00000000
00000000
00000000
00000000
00000000
00010000
00000000
00000000
00001000
00000000
00000000
00000000
00000000
00000000
00010000
00000000
00000000
00000010
00000000
00000000
00010000
00000000
00000000
00001000
00000000
00000000
00000100
00000000
00000000
00000010
00000000
00000000
00000100
00000000
00000000
00000001
00000000
00000000
00000000
00000000
00000000
00001000
00000000
00000100
00000000
00001000
00000000
,
00000100
00000000
00000000
00000010
00000000
00000000
00000000
00000000
00000000
00000001
00000000
00000000
00000000
00000000
00000000
00000100
00000000
00000000
00000010
00000000
00000000
00000000
00000000
00000000
00010000
00000000
00000000
00000000
00000000
00000000
00001000
00000000
00100000
00000000
00001000
00000000
00100000
00000000
00000000
00000000
00000000
00000000
00010000
00000000
00000000
00000000
00000000
00000000
,
10000000
00000000
00000000
00100000
00000000
00000000
01000000
00000000
00000000
00010000
00000000
00000000
00100000
00000000
00000000
01000000
00000000
00000000
00100000
00000000
00000000
00001000
00000000
00000000
00010000
00000000
00000000
00000100
00000000
00000000
00010000
00000000
00000000
00000100
00000000
00000000
00010000
00000000
00001000
00000000
00010000
00000000
00001000
00000000
00000000
00000000
00000000
00000000
,
00022000
00000000
00000000
00000000
,
00033000
00000000
00000000
00000000
;

//---------------dance-double - ----------------
#NOTEDATA:;
#CHARTNAME:;
#STEPSTYPE:dance-double;
#DESCRIPTION:;
#CHARTSTYLE:;
#DIFFICULTY:Hard;
#METER:13;
#RADARVALUES:0.576498,0.699957,0.200107,0.250133,0.421058,484.000000,460.000000,24.000000,30.000000,0.000000,0.000000,0.000000,0.000000,0.000000,0.576498,0.699957,0.200107,0.250133,0.421058,484.000000,460.000000,24.000000,30.000000,0.000000,0.000000,0.000000,0.000000,0.000000;
#CREDIT:Ben Speirs;
#NOTES:
00000000
00000000
00000000
00000000
,
00000000
00000000
00000000
00000000
,
00000000
00000000
00000000
00000000
,
00000000
00000000
00000000
00000000
,
00022000
00000000
00000000
00000000
,
00000000
00000000
00000000
00000000
,
00000000
00000000
00000000
00000000
,
00000000
00000000
00000000
00033000
,
00001000
00100000
01000000
00000000
00100000
00000000
00101000
00000000
,
00001000
01000000
00100000
00000000
01000000
00001000
00012000
00000000
,
00013000
00000100
00000010
00000000
00000100
00000000
00010100
00000000
,
00010000
00000010
00000100
00000000
00000010
00010000
00012000
00000000
,
00103000
00000000
00010000
00000000
01000000
00000000
00000000
01000000
00100000
00000000
10000000
00000000
00010000
00000000
00000000
00010000
,
00100000
00000000
00001000
00000000
00010000
00000010
00000000
00010000
00000010
00000000
00000100
00000000
00000002
00000000
00000000
00000000
,
00001003
00000000
00000100
00000000
00000010
00000000
00000000
00000010
00000001
00000000
00001000
00000000
00000010
00000000
00010000
00001000
,
00020000
00000000
00000000
00000000
00031000
01000000
00000000
01000000
00100000
00000000
00000000
00000000
20010000
00000000
00000000
00000000
,
30010000
00000000
00200000
00000000
00000000
00000000
01300000
10000000
00000000
01000000
10000000
00000000
00010000
00000000
01000000
00000000
,
00001000
00000000
00200000
00000000
00000000
00000000
00301000
00010000
00000000
00001000
00010000
00000000
00000010
00000000
00000100
00000000
,
00000001
00000000
00000020
00000300
00000000
00000000
00000130
00001000
00000000
00000100
00001000
00000000
00000001
00000000
00000100
00000000
,
00000120
00000000
00000001
00000000
00001030
00000100
00001100
00000000
,
00010000
00001000
00010000
00031000
00010000
00000000
00000000
00000000
00010000
00000000
00000010
00000000
00000100
00000000
00000100
00000000
,
00000001
00000000
00000010
00000000
00000100
00000000
00001000
00000010
00000000
00001000
00000010
00000000
00010000
00000000
00001000
00000000
,
00101000
00000000
00000000
00011000
00000000
00000000
00010010
00000000
00000000
00011000
00000000
00000000
00001000
00000000
01000000
00100000
,
02000000
00000000
00000000
00000000
00000000
00000000
03100000
10000000
,
00010000
00000000
00100000
00000000
01000000
00000000
00000000
11000000
00000000
00000000
10000000
00000000
00100000
00000000
00010000
00000000
,
00001000
00000000
00100000
00000000
00001000
00000000
00000000
00011000
00000000
00000000
00010000
00000000
00000010
00000000
00000100
00000000
,
00000001
00000000
00000010
00000000
00000100
00000000
00000000
00001100
00000000
00000000
00001000
00000000
00000010
00000000
00000001
00000000
,
00000010
00000000
00001000
00000000
00000100
00000000
00010000
00001000
00000000
00010000
00001000
00000000
02000000
00000000
00000000
00000000
,
03100000
00000000
10000000
00000000
00010000
01000000
00000000
00010000
00000000
10000000
00010000
00000000
00100000
00000000
00001000
00000000
,
00010000
00000000
00000100
00000000
00001000
00000010
00000000
00001000
00000001
00000000
00000000
00000000
00000110
00000000
00000000
00000000
,
00001002
00000000
00000013
00000100
00020100
00000000
00031000
01000000
,
00100000
00010000
00100000
10000000
00100000
01000000
00020000
00000000
,
10330000
00000000
01000000
00000000
00100000
00000000
00010000
01000000
,
00001000
00000000
00000000
00000000
00010000
00000000
00000000
00000000
00000100
00000000
00000000
00001000
00000001
00001000
00000000
00000000
,
00003301
00000000
00000010
00000000
00000100
00000000
00001000
00000010
,
00010000
00000000
00010000
00000000
00001000
00000000
00000000
00000000
00100000
00000000
00000000
00010000
10000000
00010000
00000000
00000000
,
10000000
00000000
00100000
00000000
00000000
00100000
00000000
00000000
01000000
00000000
00000000
01000000
00000000
00000000
00010000
00000000
,
00100000
00000000
00001000
00000000
00000000
00001000
00000000
00000000
00010000
00000000
00000000
00010000
00000000
00000000
00000010
00000000
,
00000200
00000030
00000000
00000000
00000020
00000000
00000000
00000000
00000000
00000000
00000000
00000000
00000000
00000000
00000000
00000000
,
00000000
00000000
00000000
00000000
00000330
00000000
00001000
00000001
,
00000010
00000000
00000000
00000010
00000000
00000000
00000100
00000000
00010000
00000000
00001000
00000000
02000000
00000000
00000000
00000000
,
03100000
00000000
00000000
00100000
00000000
00000000
01000000
00000000
00001000
00000000
00010000
00000000
00000200
00000000
00000000
00000000
,
00000310
00000000
00000000
00001000
00000000
00000000
00010000
00000000
00001000
00000000
00010000
00000000
00001000
00000000
01000000
00000000
,
00100000
00000000
00000000
00010000
00000000
00000000
00001000
00000000
00010000
00000000
00001000
00000000
00020000
00000000
00000000
00000000
,
00030100
00000000
00001000
00000100
00000000
00001000
00000100
00000000
00010000
00000000
00001000
00000000
00010000
00000000
00001000
00000000
,
01000000
00000000
00010000
01000000
00000000
00010000
01000000
00000000
00001000
00000000
00010000
00000000
00002000
00000000
00000000
00000000
,
00103000
00000000
00010000
00100000
00000000
00010000
00100000
00000000
00001000
00000000
00010000
00000000
00001000
00000000
00010000
00000000
,
00000010
00000000
00001000
00000010
00000000
00001000
00000010
00000000
00001000
00000000
00000100
00000000
00010000
00000000
00001000
00000000
,
00202000
00000000
00000000
00303000
,
00100000
00000000
00000000
01000000
00000000
00000000
10000000
00000000
00100000
00000000
00000000
01000000
00000000
00000000
00001000
00000000
,
00020000
00000100
00000000
00031000
,
00002000
01000000
00000000
00013000
,
00010100
00000000
00000000
00000100
00000000
00000000
00000010
00000000
00000001
00000000
00000000
00000100
00000000
00000000
00000010
00000000
,
00001010
00000000
00000000
00001000
00000000
00000000
00000100
00000000
00010000
00000000
00000000
00001000
00000000
00000000
01000000
00000000
,
01010000
00010000
10000000
01000000
00100000
00010000
01000000
00001000
,
00200000
00000000
00002000
00000000
00303000
00000000
00001000
00010000
,
00001000
00000000
01000000
00010000
00000000
01000000
00100000
00000000
10000000
00000000
01000000
00000000
00100000
00000000
00010000
00000000
,
00100000
00000000
00001000
00010000
00000000
00001000
00100000
00000000
00001000
00000000
00010000
00000000
00000010
00000000
00000100
00000000
,
00000001
00000000
00001000
00000100
00000000
00001000
00000001
00000000
00000100
00000000
00000010
00000000
00001000
00000000
00000100
00000000
,
00010000
00000000
00001000
00100000
00000000
00001000
00010000
00000000
00000010
00000000
00000100
00000000
00001000
00010000
00001000
00000000
,
00010000
00000000
00000010
00001000
00000000
00000010
00000100
00000000
00000001
00000000
00000010
00000000
00000100
00000000
00001000
00000000
,
00000100
00000000
00010000
00001000
00000000
00010000
00000100
00000000
00010000
00000000
00001000
00000000
01000000
00000000
00100000
00000000
,
10000000
00000000
00010000
00100000
00000000
00010000
10000000
00000000
00100000
00000000
01000000
00000000
00010000
00000000
00100000
00000000
,
00001000
00000000
00010000
00000000
00011000
00000000
00000000
00000000
00010000
00000100
00010000
00000100
00000010
00000000
00000001
00000000
,
00001000
00000000
00000001
00000100
00000000
00000010
00001000
00000010
00001000
00000000
00000100
00000000
00010000
00000000
00001000
00000000
,
00100000
00000000
00010000
01000000
00000000
00100000
10000000
00100000
10000000
00000000
00010000
00000000
00100000
00000000
01000000
00000000
,
10000000
00000000
00010000
01000000
00000000
00001000
00010000
00001000
00010000
00000000
00000100
00000000
00000010
00000000
00000001
00000000
,
00001000
00000000
00000010
00000100
00000000
00000001
00001000
00000001
00001000
00000000
00000100
00000000
00010000
00000000
00001000
00000000
,
00100000
00000000
00010000
01000000
00000000
01000000
00100000
00000000
10000000
01000000
00100000
00000000
00010000
00000000
01000000
00000000
,
00001000
00000000
00010000
00000100
00000000
00000100
00000010
00000000
00000001
00000100
00000010
00000000
00001000
00000000
00000100
00000000
,
00010000
00001000
00000000
00100000
00000000
00001000
00010000
00000000
00000010
00000000
00000100
00000010
00000100
00000000
00000001
00000000
,
00001000
00000000
00000100
00000000
00010000
00000000
00001000
00000000
00100000
00001000
00100000
00001000
00100000
00001000
00010000
00000000
,
00022000
00000000
00000000
00000000
,
00033000
00000000
00000000
00000000
;

//---------------dance-double - ----------------
#NOTEDATA:;
#CHARTNAME:;
#STEPSTYPE:dance-double;
#DESCRIPTION:;
#CHARTSTYLE:;
#DIFFICULTY:Medium;
#METER:9;
#RADARVALUES:0.410933,0.517359,0.250133,0.383538,0.033351,345.000000,315.000000,30.000000,46.000000,0.000000,0.000000,0.000000,0.000000,0.000000,0.410933,0.517359,0.250133,0.383538,0.033351,345.000000,315.000000,30.000000,46.000000,0.000000,0.000000,0.000000,0.000000,0.000000;
#CREDIT:Ben Speirs;
#NOTES:
00000000
00000000
00000000
00000000
,
00000000
00000000
00000000
00000000
,
00000000
00000000
00000000
00000000
,
00000000
00000000
00000000
00000000
,
00022000
00000000
00000000
00000000
,
00000000
00000000
00000000
00000000
,
00000000
00000000
00000000
00000000
,
00000000
00000000
00000000
00033000
,
00001000
00010000
00000200
00000000
00000310
00000000
00000001
00000000
,
00001000
00000001
00000100
00000000
00000020
00000000
00001030
00000000
,
00000100
00010000
00001000
00000000
00100000
00001000
00010000
00000000
,
00001000
01000000
00100000
10000000
00010000
00100000
00200000
00000000
,
01300000
00000000
11000000
00000000
10000000
00010000
01000000
00000000
,
00001000
00000000
00011000
00000000
00010000
00000100
00000010
00000000
,
00000001
00001000
00000010
00000000
00001000
00000001
00000010
00000000
,
00002001
00000003
00003100
00000000
00010000
00001000
00011000
00000000
,
00001000
01000000
00000000
01010000
00000000
00010000
10000000
01000000
,
00000000
00100000
00000000
00101000
00000000
00001000
00010000
00000010
,
00000000
00000100
00000000
00000101
00000000
00000001
00000010
00000100
,
00000000
00001000
00000000
00001100
00000000
00000100
00020000
00000000
,
00031000
00001000
00100000
00000000
00010000
01000000
00100000
00000000
,
10000000
01000000
00100000
00000000
00010000
01000000
00001000
00000000
,
00010000
00000000
00000000
00010000
00000000
00000000
00001000
00000000
00000000
00001000
00000000
00000000
00100000
00000000
00000000
00000000
,
00022000
00000000
00033000
00010100
,
00001002
00000000
00000103
00000000
00000010
00001000
00000100
00000000
,
00001000
00000100
00000001
00000000
00000001
00000100
00001000
00000000
,
00000200
00003000
00010300
00000000
00020000
00000000
00031000
00000000
,
00001000
01000000
00100000
00000000
10000000
00010000
10000000
00000000
,
20010000
00000000
30100000
00000000
01000000
00010000
00100000
00000000
,
00010000
00100000
01000000
00000000
10010000
00000000
00011000
00000000
,
00002002
00003003
00000220
00000330
,
00000001
00000100
00000001
00000100
00000010
00001000
00000200
00000000
,
00020300
00001000
00000100
00001000
,
00032000
00010000
01000000
00013000
,
00020000
00001000
00000010
00001000
,
00032000
00010000
00100000
00010000
,
00013000
00000000
01000000
00000000
10000000
00000000
00100000
01000000
,
00010000
00000000
00100000
00000000
00001000
00000000
00010000
00000010
,
00000100
00002002
00000000
00000000
,
00000000
00000000
00000000
00000000
00003003
00000000
00001000
00000100
,
00020000
00000000
00000000
00000000
00031000
00100000
00001000
00000000
,
00002000
00000000
00000000
00000000
00013000
00000010
00013000
00000000
,
00020000
00000000
00000000
00000000
00030100
00010000
00000100
00010000
,
00002000
00000000
00000000
00000000
01003000
00001000
01000000
00001000
,
00020000
00000000
00000000
00000000
00030100
00000010
00000100
00010000
,
00002000
00000000
00000000
00000000
01003000
00100000
02000000
00000000
,
03020000
00000000
00000000
00000000
00130000
00001000
00010000
00000100
,
00002000
00000000
00000000
00000000
00003010
00000100
00000010
00000000
,
00002002
00000000
00000000
00003003
,
00000002
00000013
00000200
00010300
,
00010000
00011000
00001000
00101000
,
00100000
01100000
01000000
10010000
,
10000000
00100000
01000000
00000000
00010000
00100000
00001000
00000000
,
00010000
00000010
00000100
00000000
00000010
00001000
00000001
00000000
,
00001000
00000100
00001000
00000100
00010000
00001000
00010000
00001000
,
00200000
02000000
00000000
03300000
,
10010000
00000000
10000000
00100000
01000000
00100000
10000000
00000000
,
00010000
00000000
00100000
00001000
00010000
00001000
00100000
00000000
,
00001000
00000000
00010000
00000010
00001000
00000010
00010000
00000000
,
00000100
00000000
00000010
00000000
00000001
00001000
00000001
00000000
,
00001000
00000000
00000001
00000100
00000010
00000100
00000001
00000000
,
00001000
00000000
00000100
00010000
00001000
00010000
00000100
00000000
,
00010000
00000000
00001000
01000000
00010000
01000000
00001000
00000000
,
00100000
00000000
01100000
00000000
10000000
00010000
10000000
00010000
,
01000000
00000000
00000000
01000000
00000000
00000000
01000000
00000000
00200000
00000000
00000000
00000000
10300000
00000000
00000000
00000000
,
00010000
00000000
00000000
00010000
00000000
00000000
00010000
00000000
00200000
00000000
00000000
00000000
00301000
00000000
00000000
00000000
,
00010000
00000000
00000000
00010000
00000000
00000000
00010000
00000000
00000020
00000000
00000000
00000000
00000130
00000000
00000000
00000000
,
00000001
00000000
00000000
00000001
00000000
00000000
00000001
00000000
00000010
00000000
00000100
00000000
00001000
00000000
00000000
00000000
,
00000010
00000000
00000000
00000010
00000000
00000000
00000010
00000000
00000200
00000000
00000000
00000000
00000301
00000000
00000000
00000000
,
00001000
00000000
00000000
00001000
00000000
00000000
00001000
00000000
00000200
00000000
00000000
00000000
00010300
00000000
00000000
00000000
,
00011000
00101000
00010010
00011000
,
00001000
00010000
00001000
00010000
00100000
01000000
00100000
00000000
,
20020000
00000000
00000000
00000000
,
30030000
00000000
00000000
00000000
;

//---------------dance-double - ----------------
#NOTEDATA:;
#CHARTNAME:;
#STEPSTYPE:dance-double;
#DESCRIPTION:;
#CHARTSTYLE:;
#DIFFICULTY:Easy;
#METER:6;
#RADARVALUES:0.226311,0.304329,0.100053,0.258471,0.000000,190.000000,178.000000,12.000000,31.000000,0.000000,0.000000,0.000000,0.000000,0.000000,0.226311,0.304329,0.100053,0.258471,0.000000,190.000000,178.000000,12.000000,31.000000,0.000000,0.000000,0.000000,0.000000,0.000000;
#CREDIT:Ben Speirs;
#NOTES:
00000000
00000000
00000000
00000000
,
00000000
00000000
00000000
00000000
,
00000000
00000000
00000000
00000000
,
00000000
00000000
00000000
00000000
,
00022000
00000000
00000000
00000000
,
00000000
00000000
00000000
00000000
,
00000000
00000000
00000000
00000000
,
00000000
00000000
00000000
00033000
,
00010000
00000000
00001000
00000000
,
00100000
00010000
01000000
00000000
,
00001000
00000000
00010000
00000000
,
00000010
00001000
00000100
00000000
,
00010000
00010000
00001000
00000000
,
00001000
00001000
01000000
00000000
,
00010000
10000000
01000000
00100000
,
20020000
00000000
30030000
00000000
,
10000000
00000000
00100000
01000000
,
00001000
00000000
00010000
00000100
,
00000010
00000000
00000001
00001000
,
00000010
00000000
00000100
00000100
,
00000010
00010000
00001000
00000000
,
00100000
00100000
01000000
00000000
,
10000000
00000000
00000000
00010000
00000000
00000000
00100000
00000000
,
00022000
00000000
00000000
00033000
,
00010000
00000010
00000100
00000100
,
00000001
00000010
00000100
00000000
,
00010000
00000100
00010000
00010000
,
00001000
01000000
00100000
00000000
,
10000000
00010000
00100000
00100000
,
00010000
01000000
00001000
00010000
,
00022000
00033000
00022000
00033000
,
00010000
00000100
00000010
00000000
,
00000002
00000003
00000001
00000000
,
00002000
00003000
00001000
00000000
,
00000010
00000010
00010000
00000000
,
00010000
00010000
00001000
00000000
,
00200000
00300000
00100000
00000000
,
02000000
03000000
01000000
00000000
,
10000000
20020000
00000000
00000000
,
00000000
00000000
00000000
30030000
,
00020000
00030000
00010000
00100000
,
00002000
00003000
00001000
00010000
,
00000020
00000030
00000010
00000100
,
00000002
00000003
00000001
00000010
,
00000200
00000300
00000100
00010000
,
00002000
00003000
00001000
01000000
,
00200000
00300000
00100000
10000000
,
00020000
00030000
00010000
00100000
,
00022000
00000000
00000000
00000000
,
00033000
00000000
00000000
00000000
,
00010000
00000000
00000100
00000000
,
00000010
00000000
00000001
00000000
,
00001001
00000000
00001000
00000000
,
00000100
00000000
00010000
00000000
,
00011000
00000000
00011000
00000000
,
00100000
00200000
00000000
00300000
,
10010000
10000000
00100000
00000000
,
01000000
01000000
00010000
00000000
,
00100000
00001000
00010000
00000000
,
00000100
00000100
00000010
00000001
,
00001000
00001000
00000001
00000000
,
00000001
00000100
00000010
00000000
,
00010000
00010000
00001000
00001000
,
00100000
01000000
00000000
00000000
,
10000000
00010000
10000000
01000000
,
00100000
00010000
01000000
00001000
,
00010000
00010000
00000100
00000100
,
00001000
00000010
00000100
00000000
,
00000001
00000100
00000010
00001000
,
00000100
00010000
00000100
00010000
,
00002000
00003000
00020000
00030000
,
00001000
00100000
01000000
00000000
,
20020000
00000000
00000000
00000000
,
30030000
00000000
00000000
00000000
;
