#TITLE:Precious Time, Glory Days;
#SUBTITLE:;
#ARTIST:Psychic Lover;
#TITLETRANSLIT:;
#SUBTITLETRANSLIT:;
#ARTISTTRANSLIT:;
#GENRE:;
#CREDIT:;
#BANNER:Precious Time Glory Days.png;
#BACKGROUND:Precious Time Glory Days-bg.png;
#LYRICSPATH:;
#CDTITLE:;
#MUSIC:Precious Time Glory Days.ogg;
#OFFSET:-0.158000;
#SAMPLESTART:54.918015;
#SAMPLELENGTH:12.177999;
#SELECTABLE:YES;
#BPMS:0.000000=172.000000
;
#STOPS:
;
#BGCHANGES:0.000=Precious Time Glory Days.avi=1.000=0=0=1=====,
99999=-nosongbg-=1.000=0=0=0 // don't automatically add -songbackground-
;
#KEYSOUNDS:;
#ATTACKS:;

//---------------dance-single - ----------------
#NOTES:
     dance-single:
     :
     Beginner:
     3:
     0.161979,0.286269,0.089810,0.022452,0.000000,101.000000,93.000000,8.000000,2.000000,0.000000,0.000000,0.161979,0.286269,0.089810,0.022452,0.000000,101.000000,93.000000,8.000000,2.000000,0.000000,0.000000:
0000
0000
0000
0000
,
0000
0000
0000
0000
,
0000
0000
0000
0000
,
0000
0000
0000
0000
,
0000
0000
0000
0000
,
0000
0000
0000
0000
,
0000
0000
0000
0000
,
1000
0000
0000
0000
,
1000
0000
0000
0000
,
0001
0000
0000
0000
,
0000
0000
0000
0000
,
1000
0000
1000
0000
,
0001
0000
0001
0000
,
1000
0000
0001
0000
,
1000
0000
0001
0000
,
1001
0000
0000
0000
,
1000
1000
0000
0000
,
0001
0000
0000
0000
,
1000
0000
0000
0000
,
0010
0000
0000
0000
,
0100
0000
0000
0000
,
0010
0010
0010
0000
,
0100
0100
0100
0000
,
1001
0000
0000
0000
,
0001
0001
0000
0000
,
1000
0000
0000
0000
,
0001
0000
0000
0000
,
0100
0000
0000
0000
,
0010
0000
0000
0000
,
0100
0100
0100
0000
,
0010
0010
0010
0000
,
1000
0001
0000
0000
,
0001
1000
0000
0000
,
1000
1000
1000
0000
,
0001
0001
0001
0000
,
0001
1000
0000
0000
,
1000
0001
0000
0000
,
1000
1000
1000
0000
,
0001
0001
0001
0000
,
0110
0000
0000
1000
,
1000
0000
0000
0000
,
1000
0000
0000
0001
,
0001
0000
0000
0000
,
1001
0000
0000
0000
,
1001
0000
0000
0000
,
0001
0000
0010
0000
,
0100
0000
1000
0000
,
0000
0000
0000
0001
,
0001
0000
0000
0000
,
0001
0000
0000
1000
,
1000
0000
0000
0000
,
1001
0000
0000
0000
,
1001
0000
0000
0000
,
1000
0000
0100
0000
,
0010
0000
0001
0000
,
0000
1000
1000
0000
,
0000
1000
1000
0000
,
0000
0001
0001
0000
,
0000
0001
0001
0000
,
0000
1000
0001
0000
,
0000
0001
1000
0000
,
2002
0000
0000
0000
,
0000
0000
0000
0000
,
0000
0000
0000
3003
;

//---------------dance-single - AlienSix----------------
#NOTES:
     dance-single:
     AlienSix:
     Easy:
     4:
     0.197261,0.286269,0.033679,0.179620,0.000000,123.000000,120.000000,3.000000,16.000000,0.000000,0.000000,0.197261,0.286269,0.033679,0.179620,0.000000,123.000000,120.000000,3.000000,16.000000,0.000000,0.000000:
0000
0000
0000
0000
,
0000
0000
0000
0000
,
0000
0000
0000
0000
,
0000
0000
0000
0000
,
0000
0000
0000
0000
,
0000
0000
0000
0000
,
0000
0000
0000
0000
,
1000
1000
1000
0000
,
0001
0001
0001
0000
,
2002
0000
0000
0000
,
0000
0000
0000
0000
0000
0000
0000
3003
,
1000
1000
0001
0000
,
0001
0001
1000
0000
,
1000
0100
1000
0000
,
0001
0100
0001
0000
,
1001
0000
1000
0100
,
0010
0000
0001
0001
,
0000
0000
0001
0010
,
0100
0000
1000
1000
,
2000
0000
0000
0000
,
3020
0000
0000
0000
,
0230
0000
0000
0000
,
0302
0000
0000
0000
,
0003
0000
0001
0010
,
0100
0000
1000
1000
,
0000
0000
1000
0100
,
0010
0000
0001
0001
,
2000
0000
0000
0000
,
3020
0000
0000
0000
,
0230
0000
0000
0000
,
0301
0001
1000
0001
,
0200
0000
0000
0000
,
0320
0000
0000
0000
,
0230
0000
0000
0000
,
0320
0000
0000
0000
,
2030
0000
0000
0000
,
3002
0000
0000
0000
,
1003
1000
1000
0000
,
0001
0001
0001
0000
,
0110
0000
1000
0100
,
0010
0000
0000
0001
,
0000
0000
0001
0010
,
0100
0000
0000
0000
0000
1000
0000
1000
,
0000
0000
0000
0000
0000
0001
0000
0001
,
0000
0000
0000
0000
,
1000
1000
0100
0100
,
0010
0010
0001
0001
,
0000
0000
0001
0010
,
0100
0000
0000
1000
,
0000
0000
1000
0100
,
0010
0000
0000
0000
0000
0001
0000
0001
,
0000
0000
0000
0000
0000
1000
0000
1000
,
0000
0000
0000
0000
,
0001
0001
0010
0010
,
0100
0100
1000
1000
,
0000
0001
0001
0001
,
0000
1000
1000
1000
,
0000
0010
0010
0010
,
0000
0100
0100
0100
,
0000
1000
0100
0010
,
0000
0000
0001
0000
0010
0000
0000
0200
,
0000
0000
0000
0000
,
0000
0000
0000
0000
,
0000
0000
0000
0300
;

//---------------dance-single - AlienSix----------------
#NOTES:
     dance-single:
     AlienSix:
     Medium:
     8:
     0.458672,0.536755,0.145941,0.101036,0.005613,286.000000,273.000000,13.000000,9.000000,0.000000,0.000000,0.458672,0.536755,0.145941,0.101036,0.005613,286.000000,273.000000,13.000000,9.000000,0.000000,0.000000:
// measure 0
0000
0000
0000
0000
,  // measure 1
0000
0000
0000
0000
,  // measure 2
0000
0000
0000
0000
,  // measure 3
0000
0000
0000
0000
,  // measure 4
0000
0000
0000
0000
,  // measure 5
0000
0000
0000
0000
,  // measure 6
0000
0000
0000
0000
,  // measure 7
0000
0000
1000
0100
1000
0100
1000
0200
,  // measure 8
0000
0000
0301
0000
0000
0000
0000
2200
,  // measure 9
0000
0000
0000
0000
0000
0000
0000
3300
,  // measure 10
0010
0001
0010
0000
0100
1000
0100
0000
,  // measure 11
1000
0000
1100
0000
0000
0010
0001
0000
,  // measure 12
0001
0000
0011
0000
0000
0100
1000
0000
,  // measure 13
1000
0000
0100
0000
1000
0001
0100
0000
,  // measure 14
0001
0000
0100
0000
0001
1000
0100
0000
,  // measure 15
0000
0000
1000
0010
1000
0100
1000
0010
,  // measure 16
0000
1000
0001
0000
,  // measure 17
0000
0000
0001
0100
0001
0010
0001
0100
,  // measure 18
0000
0001
1000
0100
,  // measure 19
0010
0001
0010
0000
0100
1000
0100
0000
,  // measure 20
0010
0001
0010
0000
0100
1000
0100
0000
,  // measure 21
1000
0100
0001
0000
0100
0000
1000
0000
,  // measure 22
1000
0010
0001
0000
0010
1000
0000
0000
,  // measure 23
0000
0000
0001
0100
0001
0010
0001
0100
,  // measure 24
0000
0001
1000
0000
,  // measure 25
0000
0000
1000
0010
1000
0100
1000
0010
,  // measure 26
0000
1000
0001
0010
,  // measure 27
0100
1000
0100
0000
0010
0001
0010
0000
,  // measure 28
0100
1000
0100
0000
0010
0001
0010
0000
,  // measure 29
1000
0000
0001
0100
0000
1001
0000
0110
,  // measure 30
0000
1010
0000
0101
0000
0000
1000
0200
,  // measure 31
0000
0000
1000
0000
1300
0000
0010
0002
,  // measure 32
0000
0000
0010
0000
0013
0000
1000
0100
,  // measure 33
0000
0000
0010
0001
0000
0000
1000
0100
,  // measure 34
0000
0000
0001
0100
0000
0000
0001
0020
,  // measure 35
0000
0000
0001
0000
0031
0000
0100
2000
,  // measure 36
0000
0100
3100
0000
,  // measure 37
1000
1000
0100
0000
0100
0100
0001
0000
,  // measure 38
1001
0110
1001
0110
,  // measure 39
1000
0100
0010
0001
0000
0001
1000
0000
,  // measure 40
0001
0010
0100
1000
0000
1000
0001
0000
,  // measure 41
1000
0100
1000
0010
1000
0100
1000
0000
,  // measure 42
0001
0010
0001
0100
0001
0010
0001
1000
,  // measure 43
0000
1000
0001
0000
0000
1000
0010
0100
,  // measure 44
0000
0001
1000
0010
0000
0000
1000
0100
,  // measure 45
1000
1000
1000
0000
0010
0010
0010
0000
,  // measure 46
0100
0100
0100
0000
0001
0001
0001
0000
,  // measure 47
0001
0010
0100
1000
0000
1000
0001
0000
,  // measure 48
1000
0100
0010
0001
0000
0001
1000
0000
,  // measure 49
0001
0010
0001
0100
0001
0010
0001
0000
,  // measure 50
1000
0100
1000
0010
1000
0100
1000
0001
,  // measure 51
0000
0001
1000
0000
0000
0001
0100
0010
,  // measure 52
0000
1000
0001
0100
0000
0000
0001
0010
,  // measure 53
0001
0001
0001
0000
0100
0100
0100
0000
,  // measure 54
0010
0010
0010
0000
1000
1000
1000
0000
,  // measure 55
0010
1000
0100
0000
1000
0000
0100
0000
,  // measure 56
0010
0001
0100
0000
0001
0000
0100
0000
,  // measure 57
1000
0100
0001
0000
0001
0010
1000
0000
,  // measure 58
1000
0010
0001
0000
0001
0100
1000
0000
,  // measure 59
0100
0010
0100
0000
1000
0001
1000
0001
,  // measure 60
0000
0000
0001
0100
0010
0000
0000
0000
0000
0000
0000
0000
0110
0000
2002
0000
,  // measure 61
0000
0000
0000
0000
,  // measure 62
0000
0000
0000
0000
,  // measure 63
0000
0000
0000
3003
;

//---------------dance-single - AlienSix----------------
#NOTES:
     dance-single:
     AlienSix:
     Hard:
     13:
     0.606217,0.679889,0.280656,0.179620,0.089810,378.000000,353.000000,25.000000,16.000000,40.000000,0.000000,0.606217,0.679889,0.280656,0.179620,0.089810,378.000000,353.000000,25.000000,16.000000,40.000000,0.000000:
0000
0000
0000
0000
,
0000
0000
0000
0000
,
0000
0000
0000
0000
,
0000
0000
0000
0000
,
0000
0000
0000
0000
,
0000
0000
0000
0000
,
0000
0000
0000
0000
,
0000
0000
1000
0100
0001
0100
0001
0100
,
0000
0000
1000
0100
1000
0000
0000
0000
0000
0000
0000
0000
0110
0000
2002
0000
,
0000
0000
0000
0000
0000
0000
0000
3003
,
0010
0010
0100
0100
1000
1000
0001
0001
,
2000
0010
0100
0001
,
3020
1000
0100
1000
,
0230
0001
0010
1000
,
0310
0000
0000
0000
1001
0000
0000
0000
0110
0000
0000
0011
0000
0000
1100
0000
,
0000
0000
1000
0010
0100
0001
1000
0100
,
0010
0100
1000
0010
0100
0001
1000
0100
,
0010
0100
1000
0100
1000
0100
0010
0001
,
0010
0001
0010
0100
1000
0100
1000
0100
,
1000
0000
1100
0000
1000
0100
0001
0000
,
0010
0000
0011
0000
0001
0100
1000
0000
,
1020
1030
0201
0301
,
2001
0000
3001
0000
0110
0011
0000
1100
,
0000
0000
0001
0100
0010
1000
0001
0010
,
0100
0010
0001
0100
0010
1000
0001
0010
,
0100
0010
0001
0010
0001
0010
0100
1000
,
0100
1000
0100
0010
0001
0010
0001
0010
,
0001
0000
0011
0000
0001
0010
1000
0000
,
0100
0000
1100
0000
1000
0010
0001
0000
,
1001
0000
1000
0100
0000
1100
0000
0110
,
0000
0011
0000
0110
0000
0000
0001
1000
,
0010
0000
1000
0000
0010
0000
1000
0001
1000
0000
0001
0000
0100
0000
0001
0000
,
0100
0000
0001
0000
0100
0000
0001
1000
0001
0000
1000
0000
0100
0000
2000
0000
,
0000
3001
0100
0002
0000
1003
0010
2000
,
0000
3001
0010
0002
0000
0003
1000
0001
,
0100
0000
0001
0000
0100
0000
0001
1000
0001
0000
1000
0000
0010
0000
1000
0000
,
0010
0000
1000
0000
0010
0000
1000
0001
1000
0000
0001
0000
0010
0000
0100
0000
,
1000
1000
0010
0010
0100
0100
0001
0001
,
1001
0000
0000
0000
0010
0001
0000
0000
1000
0100
0000
0010
0000
0001
2000
0000
,
0000
0000
0000
3000
1000
0000
0010
0000
0100
0000
0010
0000
1000
0000
0010
0000
,
0100
0010
1000
0001
0010
0100
0010
0001
,
0010
0100
1000
0001
0010
0001
1000
0001
,
0010
0100
1000
0001
MMMM
1000
0100
1000
,
MMMM
0010
0001
0010
MMMM
0100
0001
0100
,
MMMM
1000
0010
1000
MMMM
0000
0001
1000
,
0001
0001
0100
0100
0010
0010
1000
1000
,
0001
0000
0010
0000
1000
0000
0000
0001
1000
0001
0000
0000
1000
0000
0002
0000
,
0000
0000
0000
0003
0001
0000
0100
0000
0010
0000
0100
0000
0001
0000
0100
0000
,
0010
0100
0001
1000
0100
0010
0100
1000
,
0100
0010
0001
1000
0100
1000
0001
1000
,
0100
0010
0001
1000
MMMM
0001
0010
0001
,
MMMM
0100
1000
0100
MMMM
0010
1000
0010
,
MMMM
0001
0100
0001
MMMM
0000
1000
0001
,
1000
1000
0010
0010
0100
0100
0001
0001
,
1000
0000
0100
0000
0001
0000
0000
1000
0001
1000
0000
0000
0001
0000
0000
0000
,
1000
0100
0001
0100
1000
0100
0001
0100
,
1000
0010
0001
0010
1000
0010
0001
0010
,
1000
0100
0001
0100
1000
0100
0001
0100
,
1000
0010
0001
0010
1000
0010
0001
0010
,
1000
1000
0010
0010
0100
0100
0001
1001
,
0000
0110
0110
0000
2000
0000
3100
0002
,
0000
0000
0000
0000
,
0000
0000
0000
0000
,
0000
0000
0000
0003
;
