#VERSION:0.83;
#TITLE:ポジネガ*ミステイカーズ;
#SUBTITLE:;
#ARTIST:sasakure.UK feat.初音ミク;
#TITLETRANSLIT:;
#SUBTITLETRANSLIT:;
#ARTISTTRANSLIT:;
#GENRE:;
#CREDIT:;
#MUSIC:Posinega Mistakers.ogg;
#BANNER:Posinega Mistakers-bn.png;
#BACKGROUND:Posinega Mistakers-bg.png;
#CDTITLE:;
#SAMPLESTART:54.552;
#SAMPLELENGTH:20.455;
#SELECTABLE:YES;
#OFFSET:1.084;
#BPMS:0.000=220.000;
#STOPS:;
#SPEEDS:0.000=0.500=0.000=0,
20.000=0.549=0.500=0,
20.500=0.598=0.500=0,
21.000=0.645=0.500=0,
21.500=0.691=0.500=0,
22.000=0.736=0.500=0,
22.500=0.778=0.500=0,
23.000=0.817=0.500=0,
23.500=0.854=0.500=0,
24.000=0.887=0.500=0,
24.500=0.916=0.500=0,
25.000=0.941=0.500=0,
25.500=0.962=0.500=0,
26.000=0.978=0.500=0,
26.500=0.990=0.500=0,
27.000=0.998=0.500=0,
27.500=1.000=0.500=0,
112.000=1.065=0.500=0,
112.500=1.128=0.500=0,
113.000=1.185=0.500=0,
113.500=1.236=0.500=0,
114.000=1.277=0.500=0,
114.500=1.308=0.500=0,
115.000=1.327=0.500=0,
115.500=1.333=0.500=0,
311.000=1.503=0.500=0,
311.500=1.648=0.500=0,
312.000=1.744=0.500=0,
312.500=1.777=0.500=0,
375.000=1.836=0.500=0,
375.500=1.893=0.500=0,
376.000=1.950=0.500=0,
376.500=2.005=0.500=0,
377.000=2.057=0.500=0,
377.500=2.107=0.500=0,
378.000=2.154=0.500=0,
378.500=2.197=0.500=0,
379.000=2.236=0.500=0,
379.500=2.271=0.500=0,
380.000=2.300=0.500=0,
380.500=2.325=0.500=0,
381.000=2.345=0.500=0,
381.500=2.359=0.500=0,
382.000=2.368=0.500=0,
382.500=2.370=0.500=0
;
#SCROLLS:0.000=1.000,
56.000=0.000,
56.250=3.000,
56.333=0.000,
56.583=3.000,
56.667=0.000,
56.917=3.000,
57.000=0.000,
57.250=3.000,
57.333=0.000,
57.583=3.000,
57.667=0.000,
57.917=3.000,
58.000=0.000,
58.250=3.000,
58.333=0.000,
58.583=3.000,
58.667=0.000,
58.917=3.000,
59.000=0.000,
59.250=3.000,
59.333=0.000,
59.583=3.000,
59.667=0.000,
59.917=3.000,
60.000=0.750,
279.000=0.563,
345.000=0.422,
347.000=0.844,
347.125=0.000,
347.250=0.844,
347.375=0.000,
347.500=0.844,
347.625=0.000,
347.750=0.844,
347.875=0.000,
348.000=0.844,
348.125=0.000,
348.250=0.844,
348.375=0.000,
348.500=0.844,
348.625=0.000,
348.750=0.844,
348.875=0.000,
349.000=0.844,
349.125=0.000,
349.250=0.844,
349.375=0.000,
349.500=0.844,
349.625=0.000,
349.750=0.844,
349.875=0.000,
350.000=0.844,
350.125=0.000,
350.250=0.844,
350.375=0.000,
350.500=0.844,
350.625=0.000,
350.750=0.844,
350.875=0.000,
351.000=0.422,
504.000=0.316,
519.000=0.632,
519.125=0.000,
519.250=0.632,
519.375=0.000,
519.500=0.632,
519.625=0.000,
519.750=0.632,
519.875=0.000,
520.000=0.632,
520.125=0.000,
520.250=0.632,
520.375=0.000,
520.500=0.632,
520.625=0.000,
520.750=0.632,
520.875=0.000,
521.000=0.632,
521.125=0.000,
521.250=0.632,
521.375=0.000,
521.500=0.632,
521.625=0.000,
521.750=0.632,
521.875=0.000,
522.000=0.632,
522.125=0.000,
522.250=0.632,
522.375=0.000,
522.500=0.632,
522.625=0.000,
522.750=0.632,
522.875=0.000,
523.000=0.316
;
#FAKES:56.000=3.500,
347.000=3.750,
519.000=3.750
;
#BGCHANGES:;
#FGCHANGES:;

//--------------- dance-single - XMOD XO FS- ----------------
#NOTEDATA:;
#STEPSTYPE:dance-single;
#DESCRIPTION:XMOD XO FS-;
#DIFFICULTY:Hard;
#METER:13;
#RADARVALUES:0,0,0,0,0;
#NOTES:
0000
0000
0000
0000
,
0000
0000
0000
0000
,
0000
0000
0000
0000
,
0000
0000
0000
0000
,
0000
0000
0000
0000
,
0002
0000
0000
0000
,
0000
0000
0000
0000
,
1003
0100
00M0
0100
0001
0000
0001
0010
,
0M00
0010
1000
0000
1000
0100
0020
0030
,
0001
0100
00M0
0100
1000
0000
1000
0010
,
0M00
0010
0001
0000
0001
0100
0020
0030
,
1000
0100
00M0
0100
0001
0000
0001
0010
,
0M00
0010
1000
0000
1000
0100
0020
0030
,
0001
0100
00M0
0100
1000
0000
1000
0010
,
0000
0000
0000
0000
,
0100
0010
0100
0001
,
0010
0000
0100
0000
1000
0010
1000
0001
,
0000
0010
0001
0100
,
0010
0000
1000
0000
0001
0010
0001
1000
,
0000
0010
1000
0100
,
0010
0000
0001
0000
1000
0010
1000
0000
,
0001
0000
0100
0010
0000
0010
0100
0000
,
0000
0001
1000
0100
0010
0000
0001
0000
,
0100
0000
0001
0000
1000
0100
1000
0100
,
0000
0000
1000
0000
0001
0100
0001
0100
,
0000
0000
1000
0000
0100
0010
0100
0000
,
0001
1000
0001
1000
0000
1100
0000
0011
,
0000
0001
1000
0000
0001
0100
0001
0000
,
1000
0100
1000
0001
0100
0010
1000
0000
,
0001
0000
0010
0000
0001
1000
0001
0100
,
0000
0001
0100
0000
0010
1000
0100
1000
,
0000
0000
0010
0000
1000
0001
1000
0100
,
0000
0010
0100
1000
0000
0010
0100
0001
,
0000
0000
0010
0000
0001
1000
0001
0100
,
0000
0001
0100
0000
0010
1000
0100
0000
,
1000
0000
0001
0010
0000
0010
0001
0000
,
0000
1000
0001
0100
0010
0000
1000
0000
,
0100
0000
1000
0000
0001
0100
0001
0100
,
0000
0000
0001
0000
1000
0100
1000
0100
,
0000
0001
0100
0010
,
0001
0010
0001
1000
0000
0010
0100
0001
,
0000
1000
0100
0000
0100
0010
0000
0010
,
0001
0000
0110
0000
1000
0010
0100
0000
,
0001
0100
00M0
0100
1000
0000
1000
0010
,
0M00
0010
0001
0000
0000
0000
0000
0000
,
1000
0100
00M0
0100
0001
0000
0001
0010
,
0M00
0000
0000
0010
0000
0000
1000
0000
0000
0000
0000
0000
0001
0000
0000
0000
0010
0000
0000
0000
0100
0000
0000
0000
,
0000
0000
1100
0000
1000
0001
0000
0001
,
0000
0100
0010
2000
0000
0000
3001
0000
,
1000
0100
0010
0200
0000
0000
0301
0000
,
1000
0010
0100
0020
0000
0000
0031
0000
,
0201
0000
1000
0000
0301
0000
0100
0001
,
0000
0001
0010
0000
0001
0000
1000
0000
,
1200
0001
1300
0001
,
0100
0001
0010
0100
0000
0100
1000
0000
,
1020
0000
0001
0000
1030
0000
0010
1000
,
0000
1000
0100
0000
1000
0000
0001
0010
,
0100
0000
1000
0010
0000
0001
0010
0000
,
1000
0100
0010
0001
1000
0000
1001
0000
,
0201
0000
1000
0000
0301
0000
0100
0010
,
0000
0010
0000
0010
0000
1000
0001
0010
,
0200
0001
1300
0001
,
0100
0001
0010
0100
0000
0100
1000
0000
,
0001
0100
0010
0000
0100
1000
0000
0100
,
0010
0100
0001
2000
0000
0000
3100
0000
,
1001
0000
1000
0010
0M00
0010
0001
0000
,
0001
0100
00M0
0100
1000
0000
1000
0010
,
0M00
0010
0001
0100
0001
0100
0000
0101
,
0000
1010
0000
2001
0001
0000
0000
0000
,
0000
0000
0000
3000
,
0000
0000
0002
0000
0000
0103
0000
0100
,
0000
0000
2000
0000
0000
3100
0000
0100
,
0000
0000
0001
0000
0100
0010
0000
0010
,
0000
0010
0000
1000
0100
0020
0000
0000
,
0030
0000
0002
0000
0000
0013
0000
0010
,
0000
0000
2000
0000
0000
3010
0000
0010
,
0000
0000
0001
0000
0010
0100
0000
0100
,
0000
0100
0000
1000
0010
0200
0000
0000
,
0000
0000
0301
0000
0100
0010
0000
1020
,
0000
0001
0000
1030
0100
0010
0000
0001
,
0001
0100
0001
0000
0010
0100
0000
1200
,
0000
0001
0000
1300
0100
1000
0001
0000
,
0100
0010
2000
0000
0001
0000
0010
0000
,
3001
0012
0100
2003
,
0100
3002
0010
0100
,
0013
2010
0000
0000
,
0000
0000
3000
0000
0000
0000
0M00
00M0
,
0M00
00M0
0M00
00M0
0M00
00M0
0001
0000
,
0100
0000
0010
0000
0000
0100
0000
0100
,
0002
0000
0003
1000
,
0100
0000
0010
0000
0100
0000
1000
0001
,
1000
0001
0000
0100
0000
0000
0001
0000
,
0010
0000
0100
0000
0000
0010
0000
0010
,
0002
0000
1003
1001
,
0001
0010
0000
1000
0010
0000
0001
0100
,
0010
0100
0001
0000
1001
0000
1200
0000
,
0001
0000
1300
0000
0100
1000
0000
1000
,
0010
1000
0001
0201
,
1000
0000
0301
0000
1000
0000
0100
1000
,
0010
0100
0000
0100
0001
0000
0021
0000
,
1000
0000
0031
0000
0010
0001
0000
0001
,
0100
0000
0001
0000
1000
0010
0100
0000
,
0001
0010
0000
1000
0010
0000
0001
0100
,
0010
0100
2000
0000
3001
0000
0021
0000
,
0100
0000
1030
0000
0001
0010
0000
0010
,
0100
0000
1000
0010
1000
0010
0200
0000
,
1000
0000
0301
0000
1000
0010
0200
1000
,
0000
0301
0000
0000
0010
0000
0021
0000
,
0100
0000
0031
0000
1000
0010
0000
0010
,
0100
0000
0001
0010
0001
0010
0100
0000
,
0000
1100
0000
0000
0101
0000
0000
0011
,
0000
2010
0100
3001
,
0100
0010
0100
0000
0001
0010
0000
0010
,
0100
0000
1000
0001
0010
0001
0000
1000
,
0000
0010
0100
0001
0000
0100
0001
0000
,
0010
0100
1000
0000
0010
0200
1000
0000
,
0010
0000
0301
0000
1000
0100
0000
0001
,
0100
0010
0001
0000
0100
0000
1001
0000
,
0001
0010
0M00
0010
1000
0000
1000
0100
,
00M0
0100
0001
0000
0001
0010
0M00
0010
,
1000
0100
1000
0100
0000
1100
0000
0011
,
0000
1001
1000
0000
0001
0100
0001
0100
,
0000
0101
0000
1010
0000
1001
0001
0000
,
1000
0100
1000
0100
0000
1100
0000
0011
,
0000
1001
1000
0000
0001
0100
0001
0100
,
0000
0101
0000
1010
0000
1001
0001
0000
,
0020
0000
0000
0000
,
0000
0000
0000
0000
,
0000
0000
0000
0000
,
0000
0000
0000
0000
0000
0000
M030
000M
,
M000
000M
M000
000M
M000
000M
0000
0000
;

//--------------- dance-single - XMOD JA XO FS- SJ- SS- ----------------
#NOTEDATA:;
#STEPSTYPE:dance-single;
#DESCRIPTION:XMOD JA XO FS- SJ- SS-;
#DIFFICULTY:Challenge;
#METER:15;
#RADARVALUES:0,0,0,0,0;
#NOTES:
0000
0000
0000
0000
,
0000
0000
0000
0000
,
0000
0000
0000
0000
,
0000
0000
0000
0000
,
0000
0000
0000
0000
,
0002
0000
0000
0000
,
0000
0000
0000
0000
,
1003
1000
0000
0010
0010
0000
0100
0100
,
0000
0001
0001
0000
1000
1000
0100
0M00
,
0001
0001
0000
0010
0010
0000
0100
0100
,
0000
1000
1000
0000
0001
0001
0100
0M00
,
1000
1000
0000
0010
0010
0000
0100
0100
,
0000
0001
0001
0000
1000
1000
0100
0M00
,
0001
0001
0000
0010
0010
0000
0100
0100
,
0000
0000
0000
0000
,
1000
0100
1000
0001
0000
0100
0000
0010
,
0000
1000
0001
0010
0100
0010
0001
1000
,
0000
0010
0000
0100
0010
0100
0001
1000
,
0000
0100
0020
0000
0031
1000
0100
1000
,
0000
0001
0200
0000
0000
0310
0000
0010
,
0000
1000
0001
0010
0100
0010
0001
1000
,
0010
1000
0001
0010
0001
1000
0020
0000
,
0000
0031
0010
0100
1000
0000
0100
0010
,
1000
0001
0010
0001
0100
0010
0100
0010
,
0000
1000
0010
1000
0100
0010
0100
0010
,
0000
0000
2000
0000
3010
0001
0010
0001
,
0100
0010
0100
0010
1000
0001
0000
0010
,
0000
0001
2000
0000
3010
0100
0001
0100
,
0010
1000
0001
0010
0100
0010
0001
0000
,
1000
0001
0010
0001
1000
0010
0100
0001
,
0000
1000
0010
1000
0100
0010
0100
1000
,
0000
0001
0010
0001
1000
0010
0100
0001
,
0000
0100
0001
0010
0000
0100
0010
0100
,
0000
1000
0100
1000
0001
0100
0010
1000
,
0001
0100
0001
0010
0100
0010
0001
1000
,
0010
0100
0001
0010
0100
1000
0002
0000
,
0000
0103
0010
1000
0010
0100
0001
1000
,
0100
1000
0010
0100
0001
0010
0001
0010
,
0000
0001
0010
0100
1000
0010
1000
0010
,
0000
0100
2000
0000
3100
0000
0100
0001
,
1000
0010
1000
0100
0000
0010
0100
0010
,
0000
0001
1000
0010
0100
0002
0000
0103
,
0010
1000
0100
1000
0010
1000
0001
0000
,
0011
0001
0000
1010
1000
0000
0101
0001
,
0000
1100
1000
0000
0000
0000
0000
0000
,
1010
1000
0000
0011
0001
0000
1100
1000
,
0000
0000
0000
0101
0000
0000
0001
0000
0000
0000
0000
0000
0010
0000
0000
0000
0010
0000
0000
0000
0010
0000
0000
0000
,
0000
0000
0110
0000
0200
1000
0000
0310
,
0000
0001
0100
0020
0000
0000
1030
0000
,
0001
0010
0100
0010
0001
0100
0010
0100
,
0001
0010
1000
0010
0002
0000
0000
0000
,
2003
0000
0100
0000
3010
0100
0001
0010
,
0M00
0010
2000
0000
0000
3100
0010
0100
,
2000
0000
0100
0000
3010
0100
0010
0000
,
0001
0010
0100
1000
000M
1000
0010
0100
,
0002
0000
0100
0000
0013
0100
1000
0010
,
0M00
0010
0002
0000
0000
0103
0010
0100
,
0001
0010
0100
0001
0000
1000
0010
0100
,
1000
0010
0100
0010
1000
0000
1001
0000
,
0012
0000
0010
0000
0103
0010
1000
0100
,
0000
0110
0000
1001
0000
1000
0010
1000
,
0002
0000
0010
0000
0103
0000
1000
0100
,
0010
1000
0100
0010
0000
0001
0100
0001
,
0010
0100
1000
0000
0010
0001
0000
0010
,
1000
0100
0010
0001
0000
1000
0010
0100
,
0001
0010
0001
1000
0010
1000
0001
0100
,
0001
1000
0100
1000
0001
0010
0001
1000
,
0010
1000
0100
0100
0100
0100
0000
0100
,
0000
0110
0000
1002
1000
0000
0000
0000
,
0000
0000
0000
0003
,
0000
0000
0000
0000
0000
0000
0000
0000
1000
0000
0000
0000
0010
0100
0010
0000
,
0000
1000
0000
0001
0010
0100
0000
0100
,
0010
0001
1000
0000
1000
0010
0000
0010
,
0000
0010
0000
0100
0001
0020
0000
0000
,
0000
0000
0000
0000
0030
0000
0000
0000
0001
0000
0000
0000
0010
0100
0010
0000
,
0000
0001
0000
1000
0010
0100
0000
0100
,
0010
1000
0001
0000
0001
0010
0000
0010
,
0000
0010
0000
0100
1000
0020
0000
0000
,
0000
0000
1030
0001
0100
0010
0000
1020
,
0000
0001
0000
1030
0100
0010
0000
0001
,
0001
0100
0001
1000
0100
0010
0000
0021
,
0000
0000
1000
0000
0000
0000
0130
0000
0010
0000
0100
0000
1000
0001
1000
0000
,
0010
0000
0000
0100
0000
0000
0002
0000
0000
0000
0000
0000
0010
0000
0000
0000
0000
0000
1003
0000
0100
0000
0010
0000
,
0001
0010
0100
2000
0000
0000
0010
0000
0000
3001
0100
0010
,
1000
0010
0100
0002
0000
0000
0010
0000
0000
1003
0100
0010
,
0001
0010
0100
1000
0001
0010
0001
1000
0010
0100
0001
1000
,
0100
0000
1000
0000
0001
0000
0000
0000
0000
0000
0000
0000
0000
0000
0000
0000
0000
0000
0M00
0000
0000
00M0
0000
0000
,
0M00
00M0
0M00
00M0
0M00
00M0
2000
0000
,
0100
0000
3001
0000
1000
0100
00M0
0100
,
0002
0000
0000
0003
0000
0000
2000
0000
,
0100
0000
3001
0000
0100
0000
1000
0100
,
0010
0001
M000
0001
0100
0000
0002
0000
,
0100
0000
1003
0000
0001
0100
00M0
0100
,
2000
0000
0000
3000
0100
1000
0001
0010
,
0100
0001
0000
1000
0010
0100
1000
0001
,
0100
0010
1000
0000
1001
0000
2010
0000
,
0010
0000
3100
0010
0001
0100
00M0
0100
,
2000
0000
0000
3010
0100
0010
2000
0000
,
0010
0000
3100
0010
0100
0000
0001
0100
,
0010
1000
000M
1000
0100
0010
0002
0000
,
0010
0000
0103
0010
1000
0100
00M0
0100
,
0002
0000
0000
0013
0100
0010
0001
0100
,
0010
0100
1000
0001
0010
0100
0010
1000
,
0100
0020
0001
0000
1030
0000
1020
0000
,
0100
0000
0031
0000
1000
0010
0M00
0010
,
0001
0100
1000
0100
0001
0010
0200
0000
,
0001
0000
1300
0000
0001
0010
0200
0001
,
0000
1300
0010
1000
0001
0100
0020
0000
,
0100
0000
1030
0000
0001
0010
0M00
0010
,
1000
0100
0001
0100
1000
0010
0100
0001
,
0100
0010
0000
1000
0100
0010
0100
1000
,
0000
0010
0100
0000
1001
0000
0101
0000
,
0100
0010
0100
0000
0001
0010
0M00
0010
,
1000
0100
0010
0100
1000
0001
0000
0101
,
0000
0100
0010
1000
0010
0100
0001
0000
,
0001
0010
0100
1000
0010
0200
1000
0000
,
0010
0000
0301
0000
1000
0100
0000
0001
,
0100
0010
0001
0000
0010
0100
1000
0010
,
1000
0001
0010
0001
1000
0100
1000
0001
,
0100
0001
1000
0010
1000
0001
0010
0001
,
0100
0100
0100
0100
0000
0100
0000
0110
,
0000
1001
0001
0000
1000
1000
1000
1000
,
0000
1000
0000
1100
0000
0101
0100
0000
,
0001
0001
0001
0001
0000
0001
0000
0101
,
0000
1100
0100
0000
0010
0010
0010
0010
,
0000
0010
0000
0110
0000
1001
0001
0000
,
0200
0000
0000
0000
,
0000
0000
0000
0000
,
0000
0000
0000
0000
,
0000
0000
0000
0000
0000
0000
M300
000M
,
M000
000M
M000
000M
M000
000M
0000
0000
;
