#VERSION:0.83;
#TITLE:Pon de Replay;
#SUBTITLE:;
#ARTIST:Rihanna;
#TITLETRANSLIT:;
#SUBTITLETRANSLIT:;
#ARTISTTRANSLIT:;
#GENRE:;
#ORIGIN:;
#CREDIT:;
#BANNER:Pon de Replay.png;
#BACKGROUND:Pon de Replay-bg.png;
#PREVIEWVID:;
#JACKET:Pon de Replay-jacket.png;
#CDIMAGE:;
#DISCIMAGE:;
#LYRICSPATH:;
#CDTITLE:;
#MUSIC:Pon de Replay.ogg;
#OFFSET:-0.627000;
#SAMPLESTART:44.247108;
#SAMPLELENGTH:19.393940;
#SELECTABLE:YES;
#BPMS:0.000=99.000;
#STOPS:;
#DELAYS:;
#WARPS:;
#TIMESIGNATURES:0.000=4=4;
#TICKCOUNTS:0.000=4;
#COMBOS:0.000=1;
#SPEEDS:0.000=1.000=0.000=0;
#SCROLLS:0.000=1.000;
#FAKES:;
#LABELS:0.000=Song Start;
#BGCHANGES:;
#KEYSOUNDS:;
#ATTACKS:
;

//---------------dance-single - ----------------
#NOTEDATA:;
#CHARTNAME:;
#STEPSTYPE:dance-single;
#DESCRIPTION:;
#CHARTSTYLE:;
#DIFFICULTY:Challenge;
#METER:13;
#RADARVALUES:0.574460,0.575097,0.187241,0.401230,0.704382,451.000000,430.000000,21.000000,45.000000,16.000000,0.000000,0.000000,0.000000,0.000000,0.574460,0.575097,0.187241,0.401230,0.704382,451.000000,430.000000,21.000000,45.000000,16.000000,0.000000,0.000000,0.000000,0.000000;
#CREDIT:;
#NOTES:
// measure 0
0000
0000
0000
0000
,  // measure 1
0000
0000
0000
0000
0000
0000
0000
2000
,  // measure 2
3200
1000
0010
0010
0001
0010
0320
0100
,  // measure 3
0031
0000
1000
0000
0000
1000
0100
0000
0100
0010
0000
0010
0001
0000
0001
1000
0000
1000
0010
0000
M010
0002
0000
0000
,  // measure 4
0203
0001
0010
0010
1000
0010
0320
0100
,  // measure 5
1030
0000
0001
0000
0000
0001
0100
0000
0100
0010
0000
0010
1000
0000
1000
0001
0000
0001
0010
0000
001M
1000
0000
0000
,  // measure 6
0002
0000
0103
0000
2000
0000
3100
0010
0110
0000
1000
0000
1001
0000
1000
0100
,  // measure 7
0010
0001
0010
0001
0100
0000
0001
0010
0100
1000
0100
1000
0010
0000
1000
0000
,  // measure 8
0100
0000
0010
0001
0100
0000
0010
0100
1000
0100
0010
0000
1000
0000
0001
0100
,  // measure 9
0010
0000
0100
0000
0010
0000
00M1
0100
0010
0000
0100
0000
0010
0000
M011
0000
,  // measure 10
0010
0000
101M
0000
0010
0000
M011
0000
0001
0100
0010
1000
0100
0000
M101
0000
,  // measure 11
0001
0010
0100
1000
0010
0000
M011
0000
1000
0010
0100
0001
0010
0000
101M
0000
,  // measure 12
0001
1000
0010
0100
0001
0010
0100
1000
0000
0020
0000
0000
0130
0000
0100
0010
,  // measure 13
1000
0001
0010
0100
1000
0010
0100
0001
0020
0000
0000
0000
0230
0000
0310
0001
,  // measure 14
0000
0000
0000
0010
0000
0000
0100
0000
0000
1000
0000
0000
0010
0000
0000
0000
0000
0000
1000
0000
0000
0100
0000
0000
0020
0000
0000
0000
0000
0000
0000
0000
0000
0031
0000
0000
0000
0000
0000
0000
0001
0000
1000
0000
0000
0010
0000
0000
,  // measure 15
0000
0000
0000
0100
0000
0000
0000
0000
0000
0100
0000
0000
0001
0000
0000
0000
0000
0000
1000
0000
0000
0100
0000
0000
0020
0000
0000
0000
0000
0000
0000
0000
0000
0032
0000
0000
0000
0000
0000
0003
0010
0000
0100
0000
0000
1000
0000
0000
,  // measure 16
0000
0001
0000
0100
1000
0000
0100
0010
0000
1000
0000
0100
0001
0000
0100
0010
,  // measure 17
0000
0001
0000
0100
0010
0000
00M1
0000
0000
0000
0001
0000
0000
0000
0002
0000
,  // measure 18
0203
0001
0010
0010
1000
0010
0320
0100
,  // measure 19
1030
0000
0001
0000
0000
0001
0100
0000
0100
0010
0000
0010
1000
0000
1000
0001
0000
0001
0010
0000
001M
2000
0000
0000
,  // measure 20
3200
1000
0010
0010
0001
0010
0320
0100
,  // measure 21
0031
0000
1000
0000
0000
1000
0100
0000
0100
0010
0000
0010
0001
0000
0001
1000
0000
1000
0010
0000
M010
0001
0000
0100
,  // measure 22
0000
0000
0001
0000
0000
0010
0100
0000
0100
1000
0000
0010
0000
0000
1000
0000
0000
0100
0010
0000
0010
0001
0000
0000
,  // measure 23
1000
0000
0001
0000
0000
0001
0100
0000
0100
0010
0000
0010
1000
0000
1000
0001
0000
0001
0010
0000
001M
1000
0000
0100
,  // measure 24
0010
0000
0000
0001
0000
0100
0010
0000
0000
0100
0000
0001
0000
0000
1000
0000
0000
0100
0010
0000
0100
1000
0000
0010
,  // measure 25
0000
0000
0100
0000
0000
0100
0001
0000
0001
0010
0000
0010
0100
0000
0100
1000
0000
1000
0010
0000
0010
M002
0000
0000
,  // measure 26
2003
0000
0000
3020
0000
0000
0001
0000
0000
0032
0000
0000
0023
0000
0000
2030
0000
3001
0000
0000
0010
0100
0000
0010
,  // measure 27
0002
0000
0000
0203
0000
0000
1000
0000
0000
0010
0000
0000
0301
0000
0000
1000
0000
0100
0010
0000
0001
1000
0000
0010
,  // measure 28
0200
0000
0000
0302
0000
0000
1000
0000
0000
0010
0000
0000
0100
0000
0000
1003
0000
1000
0100
0000
0010
0001
0000
0100
,  // measure 29
0010
0000
0110
0000
0000
0101
0000
0000
1001
0000
0000
0011
0000
0000
0110
0000
0000
1001
0000
0000
0001
2000
0000
0000
,  // measure 30
3002
0000
0000
0023
0000
0000
1000
0000
0000
2030
0000
0000
3020
0000
0000
0032
0000
1003
0000
0000
0010
0100
0000
0010
,  // measure 31
2000
0000
0000
3200
0000
0000
0001
0000
0000
0010
0000
0000
1300
0000
0000
0001
0000
0100
0010
0000
1000
0001
0000
0010
,  // measure 32
0200
0000
0000
2300
0000
0000
0001
0000
0000
0010
0000
0000
0100
0000
0000
3001
0000
0001
0100
0000
0010
1000
0000
0100
,  // measure 33
0010
0000
0110
0000
0000
1100
0000
0000
1001
0000
0000
2020
0000
0000
0000
0000
0000
0000
0000
0000
0000
3030
0000
0000
,  // measure 34
0102
0000
0000
0000
1003
0010
0100
0001
0010
0000
0100
0000
1000
0000
0100
0010
,  // measure 35
0001
0100
0010
0000
0010
0000
0100
0000
0001
0000
0010
0000
0100
0000
0010
0001
,  // measure 36
1000
0010
0100
0000
100M
0010
0100
0001
0010
0000
0100
0000
1000
0000
0100
0010
,  // measure 37
0001
0100
0010
0000
1000
0100
0010
0001
0100
0000
0010
0000
1000
0000
0001
0010
,  // measure 38
0100
1000
0010
0000
0001
0010
1000
0100
0010
0000
0100
0000
1000
0000
0001
0100
,  // measure 39
1000
0100
0001
0000
0010
0000
0100
0000
1000
0000
0010
0000
0100
0000
0010
1000
,  // measure 40
0001
0010
1000
0000
1000
0010
0001
0100
0010
0000
0100
0000
0001
0000
1000
0100
,  // measure 41
0001
100M
0000
1000
0000
1000
0000
0110
,  // measure 42
2002
0000
0000
0000
,  // measure 43
3003
0000
0000
0000
;

//---------------dance-single - ----------------
#NOTEDATA:;
#CHARTNAME:;
#STEPSTYPE:dance-single;
#DESCRIPTION:;
#CHARTSTYLE:;
#DIFFICULTY:Hard;
#METER:10;
#RADARVALUES:0.450907,0.498417,0.267487,0.356649,0.187241,354.000000,324.000000,30.000000,40.000000,0.000000,0.000000,0.000000,0.000000,0.000000,0.450907,0.498417,0.267487,0.356649,0.187241,354.000000,324.000000,30.000000,40.000000,0.000000,0.000000,0.000000,0.000000,0.000000;
#CREDIT:;
#NOTES:
0000
0000
0000
0000
,
0000
0000
0000
0000
0000
0000
0000
0002
,
0203
0010
1000
1000
0010
0001
0302
0000
,
1003
0100
0001
0100
0110
1100
1010
2000
,
3200
0010
0001
0001
0010
1000
2300
0000
,
3001
0100
1000
0100
0110
0101
0011
0001
,
0200
0000
1300
0000
0200
0000
0301
0000
1001
0000
0100
0000
1001
0000
1000
0100
,
1000
0000
0100
0010
0100
0000
1000
0100
1000
0000
0001
1000
0001
0000
1000
0000
,
0010
0000
0100
0010
0100
0000
0010
1000
0010
0000
1000
0000
0100
0000
0010
0100
,
0010
0000
0001
0000
1000
0000
0010
0100
0010
0000
1000
0000
1000
0000
1001
0000
,
0010
0000
1001
0000
0010
0000
1001
0000
0001
0100
0010
0000
0100
0000
1001
0000
,
1000
0100
0010
0000
0100
0000
1001
0000
0001
0100
0010
0000
0100
0000
1001
0000
,
1000
0010
1000
0000
0001
0010
0001
0000
2000
0000
0000
0000
3001
0000
1000
0000
,
0001
0010
0001
0000
1000
0010
1000
0000
0002
0000
0000
0000
1003
0000
0100
0000
,
0010
0000
0001
0000
0100
0000
0010
0000
0110
0000
0000
0101
0000
0000
0100
0000
,
0010
0000
1000
0000
0100
0000
0010
0000
0110
0000
0000
1100
0000
0000
0100
0000
,
0010
0001
0200
1000
0310
1000
0200
0001
,
0310
0001
0000
1000
0000
0001
0000
2000
,
3200
0010
0001
0001
0010
1000
2300
0000
,
3001
0100
1000
0100
0110
0101
0011
0002
,
0203
0010
1000
1000
0010
0001
0302
0000
,
1003
0100
0001
0100
0110
1100
1010
1000
,
0001
0010
1000
0100
1000
0010
0001
0001
,
1000
0010
0001
0010
0110
0101
0011
0001
,
1000
0010
0001
0001
1000
0100
0002
0000
,
1003
0100
0001
0100
0110
1100
1010
2000
,
3200
0302
0003
0002
0203
2300
3001
0100
,
0010
0000
0020
0000
0100
0000
0000
0000
0100
0000
0000
0000
0130
0010
1000
0000
,
1000
0000
0200
0000
0010
0000
0000
0000
0010
0000
0000
0000
0310
0100
1000
0000
,
0010
0000
0100
0000
0000
0001
0000
0000
0001
0000
0000
0010
0000
0000
0100
0000
0000
2000
0000
0000
0000
3002
0000
0000
,
0203
2300
3000
2000
3200
0302
1003
0100
,
0010
0000
0020
0000
0100
0000
0000
0000
0100
0000
0000
0000
0130
0010
0001
0000
,
0001
0000
0200
0000
0010
0000
0000
0000
0010
0000
0000
0000
0310
0100
0001
0000
,
0010
0000
0100
0000
0000
1000
0000
0000
1000
0000
0000
0020
0000
0000
0000
0000
0000
0000
0000
0000
0000
1000
0000
0000
,
2030
0000
0000
0000
3001
1000
0001
0000
0010
0000
0100
0000
1000
0000
0010
0000
,
0001
0010
0001
0000
0010
0000
1000
0000
0100
0000
0010
0000
0001
0000
1000
0000
,
0010
0100
0010
0000
1000
0001
1000
0000
0010
0000
0100
0000
0001
0000
0010
0000
,
1000
0010
1000
0000
0010
0100
0010
0000
0001
0000
0010
0000
0100
0000
1000
0000
,
0010
0100
0010
0000
0100
0001
1000
0000
1000
0000
0100
0000
0010
0000
0001
0000
,
1000
0010
0100
0000
0010
0000
1000
0000
0001
0000
0010
0000
0100
0000
0100
0000
,
1000
0001
0100
0000
0010
1000
0001
0000
0001
0000
0010
0000
0100
0000
1000
0000
,
0001
1000
0000
1000
0000
1000
0000
0020
,
0200
0000
0000
0000
,
0330
0000
0000
0000
;

//---------------dance-single - ----------------
#NOTEDATA:;
#CHARTNAME:;
#STEPSTYPE:dance-single;
#DESCRIPTION:;
#CHARTSTYLE:;
#DIFFICULTY:Medium;
#METER:8;
#RADARVALUES:0.360471,0.421738,0.089162,0.303152,0.008916,283.000000,273.000000,10.000000,34.000000,3.000000,0.000000,0.000000,0.000000,0.000000,0.360471,0.421738,0.089162,0.303152,0.008916,283.000000,273.000000,10.000000,34.000000,3.000000,0.000000,0.000000,0.000000,0.000000;
#CREDIT:;
#NOTES:
0000
0000
0000
0000
,
0000
0000
0000
0000
0000
0000
0000
1000
,
2000
0001
0001
0000
0010
0000
3001
0000
,
0001
0100
0010
0000
1000
0100
0010
0001
,
0002
1000
1000
0000
0010
0000
1003
0000
,
0001
0100
0010
0000
1000
0100
0010
0001
,
0100
0010
0100
0000
0101
0001
1001
0000
,
1000
0100
0001
0000
0001
0100
1000
0010
,
0100
0001
0001
1000
0100
0010
0100
1000
,
0010
0100
0001
0000
001M
0100
0001
0001
,
0010
0000
2000
3000
0010
0000
0002
0003
1000
0000
0010
0000
0001
0000
2000
3000
,
0100
0000
0001
0000
0010
0000
2000
3000
0001
0000
0100
0000
1000
0000
0002
0003
,
1000
0010
0100
0001
0020
0000
0130
1000
,
0001
0100
0010
1000
0200
0000
0310
0000
,
0001
0000
0100
0000
1000
0000
0100
0000
0001
0000
0000
0001
0000
0000
1000
0000
,
1000
0000
0100
0000
0001
0000
0100
0000
1000
0000
0000
1000
0000
0000
0001
0000
,
0100
1000
0002
0000
1003
0100
0002
0000
,
1003
0100
0010
0100
0000
0100
0000
1000
,
2000
0001
0001
0000
0010
0000
3001
0000
,
0001
0100
0010
0000
1000
0100
0010
0001
,
0002
1000
1000
0000
0010
0000
1003
0000
,
0001
0100
0010
0000
1000
0100
0010
0001
,
0100
1000
0010
0000
0010
1000
0100
0001
,
1000
0100
0010
0000
0001
0100
0010
1000
,
1000
0001
0100
0010
1000
0001
0020
0000
,
0031
0100
0010
0000
1000
0100
0010
0002
,
2003
3020
0030
00M2
2003
3020
0130
0001
,
0010
0200
0010
0000
0010
0000
0310
0100
,
1000
0020
0100
0000
0100
0000
0130
0001
,
0010
0010
0100
0100
0010
0001
0001
2000
,
3002
0023
0030
20M0
3002
0023
0130
1000
,
0010
0200
0010
0000
0010
0000
0310
1000
,
0100
0020
0100
0000
0100
0000
0130
1000
,
0010
0010
0100
0100
0020
0000
0000
1000
,
2030
0000
3100
0010
0001
0100
0010
0001
,
1000
0001
0010
1000
0100
0010
0001
1000
,
0010
0010
0100
0010
1000
0100
0010
1000
,
0001
1000
0010
0100
1000
0010
0100
0001
,
1000
1000
1001
1001
1100
1100
0100
0010
,
0001
0100
0010
1000
0100
0010
0001
1000
,
0001
0001
1001
1001
0101
0101
0100
0010
,
1000
0001
0000
0001
0000
0001
0000
0002
,
2000
0000
0000
0000
,
3003
0000
0000
0000
;

//---------------dance-single - ----------------
#NOTEDATA:;
#CHARTNAME:;
#STEPSTYPE:dance-single;
#DESCRIPTION:;
#CHARTSTYLE:;
#DIFFICULTY:Easy;
#METER:5;
#RADARVALUES:0.235643,0.249209,0.044581,0.240738,0.000000,185.000000,180.000000,5.000000,27.000000,0.000000,0.000000,0.000000,0.000000,0.000000,0.235643,0.249209,0.044581,0.240738,0.000000,185.000000,180.000000,5.000000,27.000000,0.000000,0.000000,0.000000,0.000000,0.000000;
#CREDIT:;
#NOTES:
0000
0000
0000
0000
,
0000
0000
0000
0000
,
0002
1000
0010
2003
,
3001
0000
0100
0000
0010
0100
0010
0000
,
2000
0001
0010
3002
,
1003
0000
0100
0000
0010
0100
0010
0000
,
0001
0001
0110
1001
,
1000
0000
0010
0000
0100
0010
0100
0000
,
0010
1000
0100
0010
,
0010
0001
0010
0000
0001
1000
0001
1000
,
0000
0010
0000
0100
0000
0000
0001
1000
,
0000
0000
0100
0010
0000
0000
0001
1000
,
0001
0100
0020
0031
,
0001
0010
0200
0301
,
1000
0100
0220
0330
,
0001
0100
0020
0130
,
0010
0000
0202
0303
0010
0000
2200
3300
,
0000
0010
0000
0001
0000
1000
0000
0001
,
2000
0001
0010
3002
,
1003
0000
0100
0000
0010
0100
0010
0000
,
0002
1000
0010
2003
,
3001
0000
0100
0000
0010
0100
0010
0000
,
0100
0001
0100
0000
0001
1000
0001
0000
,
0010
0001
0010
0000
0100
0000
0010
0000
,
0100
1000
0100
0000
1000
0001
1000
0000
,
0010
1000
0010
0000
0100
0000
0010
0000
,
1000
0002
0000
0000
0013
0200
0000
0000
,
1300
0010
0100
0001
,
0010
0200
0000
0000
0000
0000
1300
0001
,
1000
0100
0010
0010
,
0001
2000
0000
0000
3010
0200
0000
0000
,
0301
0010
0100
1000
,
0010
0200
0000
0000
0000
0000
0301
1000
,
0001
0100
0020
0000
,
0230
0000
0301
0000
0010
0100
0010
0000
,
0001
0100
1000
0010
,
0001
0000
1000
0000
0010
0100
0010
0000
,
1000
0100
0001
0010
,
1000
0000
0001
1000
0001
0000
0010
0000
,
0100
0010
0100
0000
1000
0000
0001
0000
,
1000
0001
1000
0001
1000
0000
0010
0000
,
0100
0010
0000
1000
0000
0001
0000
2000
,
0002
0000
0000
0000
,
3003
0000
0000
0000
;

//---------------dance-single - ----------------
#NOTEDATA:;
#CHARTNAME:;
#STEPSTYPE:dance-single;
#DESCRIPTION:;
#CHARTSTYLE:;
#DIFFICULTY:Beginner;
#METER:3;
#RADARVALUES:0.113364,0.134189,0.017832,0.124827,0.000000,89.000000,87.000000,2.000000,14.000000,0.000000,0.000000,0.000000,0.000000,0.000000,0.113364,0.134189,0.017832,0.124827,0.000000,89.000000,87.000000,2.000000,14.000000,0.000000,0.000000,0.000000,0.000000,0.000000;
#CREDIT:;
#NOTES:
0000
0000
0000
0000
,
0000
0000
0000
0000
,
2000
0000
0000
3000
,
1000
0000
0001
0000
,
0200
0000
0000
0300
,
0100
0000
0010
0000
,
1000
0000
1001
0000
,
0001
0000
0010
0000
,
1000
0000
0100
0000
,
0010
0000
1000
0000
,
0001
0001
0000
1000
,
1000
0000
0010
0000
,
0100
0100
0100
0000
,
0001
0001
0001
0000
,
1000
0000
0200
0300
,
0100
0000
0020
0030
,
0010
0000
0001
0000
,
1000
0000
0000
0000
,
0002
0000
0000
0003
,
0001
0000
1000
0000
,
0020
0000
0000
0030
,
0010
0000
0100
0000
,
0001
0001
0001
0000
,
1000
0000
0010
0000
,
0100
0100
0100
0000
,
0001
0000
1000
0000
,
0200
0300
0200
0300
,
0100
0100
0100
0000
,
1000
1000
1000
0000
,
0010
0000
0000
0000
,
0200
0300
0200
0300
,
0100
0100
0100
0000
,
0001
0001
0001
0000
,
0020
0000
0000
0030
0000
0000
0000
0000
,
0002
0003
0001
0000
,
0100
0000
0010
0010
,
0010
0000
1000
0000
,
0100
0000
0010
0010
,
0010
0010
0000
0100
,
0100
0000
1000
1000
,
1000
0000
0001
0001
,
0001
0000
0000
0000
,
2002
0000
0000
0000
,
3003
0000
0000
0000
;
