#VERSION:0.83;
#TITLE:Plastic Doll;
#SUBTITLE:(Ashnikko Remix);
#ARTIST:Lady Gaga;
#TITLETRANSLIT:;
#SUBTITLETRANSLIT:;
#ARTISTTRANSLIT:;
#GENRE:;
#ORIGIN:;
#TAGS:;
#CREDIT:;
#BANNER:Plastic Doll Ashnikko Remix-bn.png;
#BACKGROUND:Plastic Doll Ashnikko Remix-bg.png;
#PREVIEWVID:;
#JACKET:Plastic Doll Ashnikko Remix-jk.png;
#CDIMAGE:;
#DISCIMAGE:;
#LYRICSPATH:;
#CDTITLE:;
#MUSIC:Plastic Doll Ashnikko Remix.ogg;
#OFFSET:0.000000;
#SAMPLESTART:39.724991;
#SAMPLELENGTH:13.241300;
#SELECTABLE:YES;
#BPMS:0.000000=145.000000
;
#STOPS:;
#DELAYS:;
#WARPS:;
#TIMESIGNATURES:0.000000=4=4
;
#TICKCOUNTS:0.000000=4
;
#COMBOS:0.000000=1
;
#SPEEDS:0.000000=1.000000=0.000000=0
;
#SCROLLS:0.000000=1.000000
;
#LABELS:0.000000=Song Start
;
#BGCHANGES:;
#KEYSOUNDS:;
#ATTACKS:
;

//---------------dance-single - ----------------
#NOTEDATA:;
#CHARTNAME:;
#CHARTHASH:3653507614;
#STEPSTYPE:dance-single;
#BANNER:;
#DESCRIPTION:;
#CHARTSTYLE:;
#DIFFICULTY:Beginner;
#METER:3;
#METERF:3.000000;
#LASTSECONDHINT:132.413788;
#RADARVALUES:0.000000,0.000000,0.000000,0.000000,0.000000,0.000000,0.000000,0.000000,0.000000,0.000000,0.000000,0.000000,0.000000,0.000000,0.000000,0.000000,0.000000,0.000000,0.000000,0.000000,0.000000,0.000000,0.000000,0.000000,0.000000,0.000000,0.000000,0.000000;
#CREDIT:Embrace;
#NOTES:
0000
0000
0000
0000
,
0000
0000
0000
0000
,
0000
0000
0000
0000
,
0000
0000
0000
0000
,
0001
0000
0000
0000
,
0000
0000
0000
0000
,
1000
0000
0000
0000
,
0000
0000
0000
0000
,
0010
0000
0000
0000
,
0100
0000
0000
0000
,
0010
0000
0000
0000
,
0100
0000
0000
0000
,
0002
0000
0003
0000
,
2000
0000
3000
0000
,
0002
0000
0003
0000
,
2000
0000
3000
0000
,
0001
0000
0001
0000
,
0010
0000
0010
0000
,
0100
0000
0100
0000
,
1000
0000
1000
0000
,
0001
0000
0001
0000
,
0100
0000
0100
0000
,
0010
0000
0010
0000
,
1000
0000
0000
0000
,
1001
0000
0001
0000
,
0001
0000
0100
0000
,
1000
0000
1000
0000
,
1000
0000
0010
0000
,
0001
0000
0000
0000
,
1000
0000
0000
0001
,
0001
0000
0000
0000
,
0010
0000
0010
0000
,
1000
0000
1000
0000
,
1000
0000
0010
0000
,
0001
0000
0001
0000
,
0001
0000
0100
0000
,
1000
0000
0000
0000
,
0001
0000
0000
0100
,
0100
0000
0000
0000
,
0010
0000
0010
0000
,
0001
0000
0001
0000
,
0000
0000
1000
0000
,
0010
0000
1000
0000
,
0000
0000
0001
0000
,
0010
0000
0001
0000
,
0000
0000
1000
0000
,
0100
0000
1000
0000
,
0000
0000
0001
0000
,
2000
0000
3000
0000
,
0002
0000
0003
0000
,
2000
0000
3000
0000
,
0002
0000
0003
0000
,
0010
0000
0010
0000
,
0100
0000
0100
0000
,
0010
0000
0010
0000
,
0001
0000
1000
0000
,
1001
0000
0001
0000
,
0100
0000
1000
0000
,
0010
0000
0010
0000
,
1000
0000
0100
0000
,
0001
0000
0000
0000
,
0010
0000
0000
1000
,
1000
0000
0000
0000
,
0100
0000
0000
0000
,
1001
0000
1000
0000
,
0010
0000
0001
0000
,
0100
0000
0100
0000
,
0001
0000
0010
0000
,
1000
0000
0000
0000
,
0100
0000
0000
0010
,
0010
0000
0000
0000
,
0001
0000
0001
0000
,
2000
0000
3000
0000
,
0020
0000
0030
0000
,
0200
0000
0300
0000
,
0002
0000
0003
0000
,
0020
0000
0030
0000
,
0200
0000
0300
0000
,
2000
0000
3000
0000
,
0001
0000
0200
0000
,
0300
0000
0000
0000
;

//---------------dance-single - ----------------
#NOTEDATA:;
#CHARTNAME:;
#CHARTHASH:233384608;
#STEPSTYPE:dance-single;
#BANNER:;
#DESCRIPTION:;
#CHARTSTYLE:;
#DIFFICULTY:Easy;
#METER:5;
#METERF:5.000000;
#LASTSECONDHINT:132.413788;
#RADARVALUES:0.000000,0.000000,0.000000,0.000000,0.000000,0.000000,0.000000,0.000000,0.000000,0.000000,0.000000,0.000000,0.000000,0.000000,0.000000,0.000000,0.000000,0.000000,0.000000,0.000000,0.000000,0.000000,0.000000,0.000000,0.000000,0.000000,0.000000,0.000000;
#CREDIT:Embrace;
#NOTES:
0000
0000
0000
0000
,
0000
0000
0000
0000
,
0000
0000
0000
0000
,
0000
0000
0000
0000
,
1000
1000
0001
0000
,
0000
0000
0000
0000
,
0001
0001
1000
0000
,
0000
0100
0000
0000
,
1000
0000
0010
0000
,
0010
0100
0010
0000
,
1000
0000
0001
0010
,
0000
0010
0100
1000
,
0001
0000
0001
0000
,
1000
0000
0100
0010
,
0001
0000
0001
1000
,
0000
0010
0000
0100
,
0200
0300
0002
0003
,
2000
3000
0200
0300
,
0010
0001
0010
0000
,
0100
1000
0100
0000
,
0020
0030
0002
0003
,
0200
0300
0020
0030
,
1000
0001
1000
0001
,
1000
0000
0000
0000
,
0110
0000
0001
0000
,
1000
0000
0010
1000
,
0001
0000
0010
0000
,
0100
0000
0010
0001
,
1000
0000
0010
0000
,
0100
0000
0001
0010
,
0100
0010
0001
0000
,
1000
1000
1000
0000
,
0010
0000
0100
0000
,
0001
0000
0010
0001
,
1000
0000
0010
0000
,
0100
0000
0001
1000
,
0100
0000
0010
0000
,
0001
0000
0100
0001
,
1000
0001
0100
0000
,
0010
0010
0010
0000
,
1000
1000
0100
0000
,
0010
0000
0001
1000
,
0001
0001
1000
0000
,
0010
0000
0100
0000
,
0001
0001
0010
0000
,
0100
0000
1000
0001
,
1000
1000
0001
0000
,
0100
0001
0100
0000
,
0020
0030
2000
3000
,
0002
0003
0020
0030
,
0100
0010
0100
0000
,
1000
0001
1000
0001
,
0200
0300
0020
0030
,
2000
3000
0200
0300
,
0010
0001
1000
0010
,
0100
0000
0010
0010
,
0110
0000
1000
0000
,
0001
0000
0010
0001
,
0100
0000
0010
0000
,
1000
0000
0100
1000
,
0010
0000
1000
0000
,
0001
0000
0010
0100
,
1000
0001
0100
0000
,
0010
0010
0010
0000
,
1000
0000
0001
0000
,
0010
0000
0100
1000
,
0010
0000
1000
0000
,
0001
0000
0100
0001
,
0010
0000
0001
0000
,
0100
0000
0001
0010
,
0100
1000
0001
0000
,
0100
0100
0100
0000
,
0002
0000
1003
0000
,
0002
0000
1003
0000
,
2000
0000
3001
0000
,
2000
0000
3001
0000
,
0020
0000
0130
0000
,
0020
0000
0130
0010
,
0200
0000
0310
0000
,
0001
0100
0010
1000
,
0001
0000
0000
0000
;

//---------------dance-single - ----------------
#NOTEDATA:;
#CHARTNAME:;
#CHARTHASH:2322740242;
#STEPSTYPE:dance-single;
#BANNER:;
#DESCRIPTION:;
#CHARTSTYLE:;
#DIFFICULTY:Medium;
#METER:8;
#METERF:8.000000;
#LASTSECONDHINT:132.413788;
#RADARVALUES:0.000000,0.000000,0.000000,0.000000,0.000000,0.000000,0.000000,0.000000,0.000000,0.000000,0.000000,0.000000,0.000000,0.000000,0.000000,0.000000,0.000000,0.000000,0.000000,0.000000,0.000000,0.000000,0.000000,0.000000,0.000000,0.000000,0.000000,0.000000;
#CREDIT:Embrace;
#NOTES:
0000
0000
0000
0000
,
0000
0000
0000
0000
,
0000
0000
0000
0000
,
0000
0000
0000
0000
,
0001
0000
0000
1001
0000
0000
1000
0000
,
0000
0000
0000
0000
0000
0001
0000
0000
,
1000
0000
0000
1010
0000
0000
0001
0000
,
0000
1000
1000
0000
0000
0100
0000
0000
,
0010
0000
0001
1000
0001
0000
0100
0000
,
0001
0000
0100
0000
0010
1000
1000
0000
,
0001
0000
0010
0001
0010
0000
0011
0000
,
0000
1000
1000
0000
0100
0010
0010
0000
,
0002
0023
1030
0000
,
2000
3020
0031
0000
,
0002
0203
1300
0000
,
2000
3200
0301
0001
,
0020
0000
0230
0000
,
2300
0000
0000
0000
3001
0000
0000
1000
,
0000
0010
1000
0010
1000
0000
0000
0001
,
0000
0010
0001
0010
0200
0000
1300
0000
,
0002
0000
0000
0000
0203
0000
0300
0020
,
0000
2030
3002
0023
,
0130
1000
0001
1000
,
0010
0000
0000
0000
,
1000
0000
0100
1000
0001
0000
0101
0000
,
0000
0000
1010
0000
0000
1000
0001
1000
,
0001
0000
0100
0001
1000
0000
1100
0000
,
0000
0001
0001
0000
0000
1000
0020
0000
,
0130
1000
0100
0001
,
0010
0000
1000
0000
0010
0001
1000
0001
,
1000
0010
0001
0010
,
1000
0001
1000
0000
0200
0000
0320
0000
,
0031
0000
1000
0001
0100
0000
0110
0000
,
0000
0000
1001
0000
0000
0001
0010
0100
,
1000
0000
0010
1000
0001
0000
0011
0000
,
0000
1000
1000
0000
0000
0010
0100
0010
,
0100
1000
0100
0001
,
0010
0000
1000
0000
0010
0001
1000
0001
,
1000
0010
0001
0010
,
0100
0001
0100
0000
0002
0000
0023
0000
,
0130
0000
1000
0001
0000
0001
0000
0001
,
0000
0000
0010
0100
0000
1000
0000
1000
,
0000
0000
0010
0100
0000
0010
0000
1000
,
0000
0000
0001
0010
0000
0001
0000
0100
,
0000
0000
0001
0010
0000
0100
0000
1000
,
0000
0000
1000
0100
0000
0010
0000
0001
,
1000
0010
0100
0010
,
1000
0100
0001
0100
,
0210
0010
0320
0001
,
0032
0000
1000
0000
1003
0000
0010
1000
,
0000
0001
0100
0001
0100
0000
0001
0010
,
0000
0100
1000
0100
2000
0000
3001
0000
,
0200
0010
0320
1000
,
2030
0001
3002
0010
,
0013
0100
1000
0001
,
0100
0010
0100
0010
0100
0000
0100
0000
,
1001
0000
0001
0010
0100
0000
1100
0000
,
0000
0000
0011
0000
0010
0100
1000
0001
,
1000
0000
0010
0100
0001
0000
0101
0000
,
0000
1000
1000
0000
0100
1000
0100
0010
,
0100
0001
0100
1000
,
0010
0000
0001
0000
0010
1000
0001
1000
,
0100
0010
1000
0010
,
0001
1000
0100
0000
1000
0010
0100
0000
,
0001
0000
1000
0100
0010
0000
0011
0000
,
0000
0000
1100
0000
0000
1000
0010
1000
,
0010
0000
0100
0001
0010
0000
0110
0000
,
0000
0001
0001
0000
1000
0001
0100
0010
,
0100
1000
0100
0001
,
0010
0000
1000
0000
0010
0001
1000
0001
,
0010
0100
0001
0100
,
1000
0010
0001
0010
,
1000
0000
0001
0100
0010
0000
0100
0000
,
0001
0000
1000
0100
0010
0000
0001
0000
,
1000
0000
0010
0100
0001
0000
0100
0000
,
0010
0000
1000
0100
0010
0000
0001
0000
,
0100
1000
0100
0001
,
0010
0000
1000
0000
0010
0001
1000
0010
,
0100
0000
1000
0000
0100
0000
0001
0010
,
0100
1000
0001
0100
0020
0000
2030
0000
,
3001
0000
0000
0000
;

//---------------dance-single - ----------------
#NOTEDATA:;
#CHARTNAME:;
#CHARTHASH:3512755558;
#STEPSTYPE:dance-single;
#BANNER:;
#DESCRIPTION:;
#CHARTSTYLE:;
#DIFFICULTY:Hard;
#METER:12;
#METERF:12.000000;
#LASTSECONDHINT:132.413788;
#RADARVALUES:0.000000,0.000000,0.000000,0.000000,0.000000,0.000000,0.000000,0.000000,0.000000,0.000000,0.000000,0.000000,0.000000,0.000000,0.000000,0.000000,0.000000,0.000000,0.000000,0.000000,0.000000,0.000000,0.000000,0.000000,0.000000,0.000000,0.000000,0.000000;
#CREDIT:Embrace;
#NOTES:
0000
0000
0000
0000
,
0000
0000
0000
0000
,
0000
0000
0000
0000
,
0000
0000
0000
0000
,
0011
0000
0000
0101
0000
0000
1000
0000
,
0000
0000
0000
0000
0000
0001
0000
0000
,
1100
0000
0000
1010
0000
0000
0001
0000
,
0000
1000
1000
0000
0100
0010
0100
0000
,
1000
0000
0000
1000
0001
0000
0100
0000
0001
0000
0000
0000
0010
0000
0100
0000
,
1000
0000
0000
0100
0010
0000
0000
0000
0001
0000
1000
0000
1000
0000
1000
0000
,
0001
0000
0000
0001
0100
0000
0010
0000
1000
0000
0000
0000
1100
0000
0000
0000
,
0000
0001
0001
0000
1000
0010
0010
0010
,
0100
0000
0000
0100
0001
0000
1000
0000
0100
0000
0000
0000
0010
0000
0000
0000
,
0001
0000
0000
0001
0010
0000
0100
0000
1000
0000
0001
0000
0001
0000
0001
0000
,
0100
0010
0100
0001
0010
0000
0110
0000
,
0000
0001
0001
0000
1000
0010
0010
0100
,
0200
0301
0020
0130
,
2000
0000
3020
0000
0130
0000
1000
0100
,
0000
0001
1000
0100
0010
0000
1000
0010
,
0000
0001
1000
0001
0020
0000
0130
0000
,
2000
0000
3010
0000
2000
0000
3100
0020
,
0001
0000
0031
1000
0002
0000
0103
0000
,
0010
1000
0010
0010
0100
0001
0100
0100
,
0010
1000
0000
0000
0000
0000
0000
0000
,
0021
0000
0130
0010
0001
0000
0102
0000
,
1003
0000
2010
0000
3100
1000
1000
0001
,
1000
0000
0002
0010
1003
0000
2010
0000
,
3001
0010
0012
0000
1003
0001
0001
0100
,
0001
0000
0010
0100
1000
0000
1000
0002
,
0100
0000
1000
0000
0013
0100
1000
0001
,
0000
0001
1000
0010
1000
0100
0000
0100
,
0010
0001
1001
1000
0020
0000
0130
0000
,
1002
0000
0103
0001
0010
0000
2100
0000
,
3010
0000
0012
0000
1003
0010
0010
0100
,
0010
0000
2000
0001
3100
0000
0210
0000
,
1300
0001
1002
0000
0103
0010
0010
1000
,
0100
0000
0100
0010
0001
0000
0001
2000
,
0010
0000
0001
0000
3100
0010
0100
1000
,
0000
1000
0010
0100
0001
0010
0000
0010
,
0001
1000
0100
0100
2000
0000
3002
0000
,
0103
0000
0010
1000
0000
0001
0010
0200
,
0000
0300
0010
0200
0000
0301
0100
1000
,
0001
0000
1000
0020
0000
0130
0000
0002
,
0000
0000
1003
0000
0010
0000
0002
0000
0000
0000
0023
0000
0000
0000
1030
0001
,
1000
0000
0001
0010
0000
0010
0001
1000
,
0100
0000
1000
0010
0000
0010
0100
0001
,
1000
0100
1000
0010
0000
0100
0001
0010
,
0000
0100
0000
0100
0000
0100
1000
0001
,
0200
0301
0020
0031
,
0200
0000
0010
0000
1300
0000
0100
0001
,
0000
0001
1000
0100
0010
0000
1000
0010
,
0000
0010
0001
1000
0010
0100
0010
0000
,
2000
0000
3100
0000
2000
0000
3010
0200
,
0001
0000
0310
1000
0001
1000
0100
0000
,
0010
0001
1000
0010
0100
0001
1000
0100
,
0010
0000
0001
0000
0010
0000
1000
0000
0010
0001
0000
0000
0001
1000
0000
0000
,
0102
0000
0013
0001
0100
0000
0210
0000
,
1300
0000
0102
0000
1003
0100
0100
1000
,
0001
0000
0200
0001
0310
0000
0021
0000
,
1030
0001
1002
0000
0013
0001
0001
1000
,
0010
0000
0100
0010
1000
0000
1000
0200
,
0010
0000
0001
0000
1300
0100
0010
0001
,
0000
0001
1000
0010
0100
1000
0000
1000
,
0100
0001
1000
1000
0020
0000
0130
0000
,
0102
0000
0013
0001
0100
0000
0120
0000
,
0031
0000
2010
0000
3100
0010
0010
0001
,
1000
0000
0200
1000
0310
0000
0120
0000
,
1030
0010
0021
0000
0130
1000
1000
0001
,
0100
0000
0100
0010
0001
0000
0001
0010
,
0010
1000
0001
1000
1000
0100
0010
0001
,
0000
0001
1000
0100
0001
0100
0000
0010
,
0001
0100
0001
0001
2000
0000
3010
0000
,
0100
0001
1000
0100
0020
0000
0031
0000
,
0100
0001
0010
0200
1000
0000
0302
0000
,
0103
1000
0001
1000
0020
0000
0130
0000
,
0001
1000
0010
0200
0001
0000
2300
0000
,
3100
0001
1000
1000
0100
0100
0010
0001
,
1000
0001
0100
0010
1000
0100
1000
0010
,
0100
0001
1000
1000
0010
0100
0000
0100
,
0010
1000
1001
0001
0020
0000
1000
0000
,
0031
0000
0000
0000
;

//---------------dance-double - ----------------
#NOTEDATA:;
#CHARTNAME:;
#CHARTHASH:259052831;
#STEPSTYPE:dance-double;
#BANNER:;
#DESCRIPTION:;
#CHARTSTYLE:;
#DIFFICULTY:Hard;
#METER:12;
#METERF:12.000000;
#LASTSECONDHINT:132.413788;
#RADARVALUES:0.488549,0.527256,0.197721,0.446703,0.029292,467.000000,440.000000,27.000000,61.000000,0.000000,0.000000,0.000000,0.000000,0.000000,0.488549,0.527256,0.197721,0.446703,0.029292,467.000000,440.000000,27.000000,61.000000,0.000000,0.000000,0.000000,0.000000,0.000000;
#CREDIT:;
#NOTES:
// measure 0
00000000
00000000
00000000
00000000
,  // measure 1
00000000
00000000
00000000
00000000
,  // measure 2
00000000
00000000
00000000
00000000
,  // measure 3
00000000
00000000
00000000
00000000
,  // measure 4
01001000
00000000
00000000
00010100
00000000
00000000
00010000
00000000
,  // measure 5
00000000
00000000
00000000
00000000
00000000
00001000
00000000
00000000
,  // measure 6
00010010
00000000
00000000
00101000
00000000
00000000
00001000
00000000
,  // measure 7
00000000
00010000
00010000
00000000
00000100
00000010
00000001
00000000
,  // measure 8
00001000
00000000
00000000
00001000
00000100
00000000
00010000
00000000
00001000
00000000
00000000
00000000
00001000
00000000
00100000
00000000
,  // measure 9
01000000
00000000
00000000
00100000
00010000
00000000
00000000
00000000
10000000
00000000
00100000
00000000
00100000
00000000
00100000
00000000
,  // measure 10
10000000
00000000
00000000
00010000
01000000
00000000
00001000
00000000
00010000
00000000
00000000
00000000
00010010
00000000
00000000
00000000
,  // measure 11
00000000
00000100
00000100
00000000
00000001
00001000
00001000
00001000
,  // measure 12
00000010
00000000
00000000
00000010
00001000
00000000
00000001
00000000
00000100
00000000
00000000
00000000
00001000
00000000
00000000
00000000
,  // measure 13
00010000
00000000
00000000
00001000
00010000
00000000
01000000
00000000
10000000
00000000
00010000
00000000
00010000
00000000
00010000
00000000
,  // measure 14
00100000
00001000
00010000
00000100
00001000
00000000
00000011
00000000
,  // measure 15
00000000
00001000
00001000
00000000
00000010
00010000
00010000
00001000
,  // measure 16
00002000
00003100
00000002
00000103
,  // measure 17
00002000
00000000
00023000
00000000
00130000
00000000
10000000
00010000
,  // measure 18
00000000
00100000
00001000
00010000
01000000
00000000
10000000
00010000
,  // measure 19
00000000
00100000
00001000
00010000
00000020
00000000
00000130
00000000
,  // measure 20
00000002
00000000
00000013
00000000
00002000
00000000
00013000
00000200
,  // measure 21
00001000
00000000
00001300
00000001
00000200
00000000
00001300
00000000
,  // measure 22
01000000
00001000
00010000
00010000
00000010
00001000
00000001
00000001
,  // measure 23
00000010
00000100
00000000
00000000
00000000
00000000
00000000
00000000
,  // measure 24
00002100
00000000
00003010
00010000
00001000
00000000
00120000
00000000
,  // measure 25
01030000
00000000
02100000
00000000
03001000
00100000
00100000
00010000
,  // measure 26
01000000
00000000
00002000
00010000
00103000
00000000
20010000
00000000
,  // measure 27
30100000
01000000
02100000
00000000
03001000
00010000
00010000
00001000
,  // measure 28
00010000
00000000
00001000
00000010
00000100
00000000
00000100
00020000
,  // measure 29
00001000
00000000
00000010
00000000
00031000
01000000
00010000
10000000
,  // measure 30
00000000
10000000
01000000
00100000
00001000
00010000
00000000
00010000
,  // measure 31
00000100
00001000
00001100
00000100
00020000
00000000
00031000
00000000
,  // measure 32
10020000
00000000
01030000
00001000
00010000
00000000
00002010
00000000
,  // measure 33
00003100
00000000
00000210
00000000
00010300
00000010
00000010
00001000
,  // measure 34
00000100
00000000
00020000
00001000
00030010
00000000
00002001
00000000
,  // measure 35
00003100
00000010
00000210
00000000
00010300
00001000
00001000
00010000
,  // measure 36
00001000
00000000
00010000
01000000
00100000
00000000
00100000
00002000
,  // measure 37
00010000
00000000
01000000
00000000
00013000
00000100
00001000
00000001
,  // measure 38
00000000
00000001
00000100
00000010
00010000
00001000
00000000
00001000
,  // measure 39
01000000
00010000
01010000
01000000
00200000
00000000
20300000
00000000
,  // measure 40
31000000
00000000
00100000
00001000
00000000
00010000
01000000
20000000
,  // measure 41
00000000
00000000
30010000
20000000
00000000
31000000
00010000
00001000
,  // measure 42
00010000
00000000
00000010
00002000
00000000
00003100
00000000
00002000
,  // measure 43
00000000
00000000
00013000
00000000
00100000
00000000
02000000
00000000
00000000
00000000
23000000
00000000
00000000
00000000
30010000
01000000
,  // measure 44
00010000
00000000
10000000
00010000
00000000
00010000
01000000
00001000
,  // measure 45
00010000
00000000
00010000
00000010
00000000
00000010
00001000
00000001
,  // measure 46
00000100
00000010
00001000
00000100
00000000
00001000
00000010
00010000
,  // measure 47
00000000
00001000
00000000
00001000
00000000
00001000
00010000
00100000
,  // measure 48
20000000
30010000
00200000
01300000
,  // measure 49
00020000
00000000
00001000
00000000
00030010
00000000
00001000
00000100
,  // measure 50
00000000
00000100
00000010
00000001
00000100
00000000
00000010
00010000
,  // measure 51
00000000
00010000
00001000
00100000
00010000
01000000
00100000
00000000
,  // measure 52
00020000
00000000
00031000
00000000
00020000
00000000
01030000
20000000
,  // measure 53
00010000
00000000
30100000
01000000
00001000
00010000
00001000
00000000
,  // measure 54
00010000
00000100
00000010
00000001
00001000
00000001
00000100
00001000
,  // measure 55
00010000
00000000
00100000
00000000
01000000
00000000
00010000
00000000
00100000
01000000
00000000
00000000
01000000
10000000
00000000
00000000
,  // measure 56
00201000
00000000
01300000
00010000
00001000
00000000
00010020
00000000
,  // measure 57
00001030
00000000
00000201
00000000
00001300
00010000
00010000
00001000
,  // measure 58
00010000
00000000
02000000
00100000
13000000
00000000
02001000
00000000
,  // measure 59
03010000
00100000
00200000
00000000
00301000
00010000
00010000
00001000
,  // measure 60
00010000
00000000
00001000
00000100
00000010
00000000
00000010
00020000
,  // measure 61
00001000
00000000
00000100
00000000
01030000
00100000
00010000
01000000
,  // measure 62
00000000
01000000
00100000
00010000
00001000
00010000
00000000
00010000
,  // measure 63
00001000
00000010
00000001
00000001
00000200
00000000
00000310
00000000
,  // measure 64
00010020
00000000
00000130
00001000
00010000
00000000
00102000
00000000
,  // measure 65
00013000
00000000
12000000
00000000
03010000
00001000
00001000
00010000
,  // measure 66
00001000
00000000
00000200
00000010
00000301
00000000
00010200
00000000
,  // measure 67
00001300
00000010
00000020
00000000
00010030
00001000
00001000
00010000
,  // measure 68
00001000
00000000
00010000
01000000
00100000
00000000
00100000
00002000
,  // measure 69
00010000
00000000
01000000
00000000
00003100
00000010
00001000
00000100
,  // measure 70
00000000
00000100
00000010
00001000
00010000
00001000
00000000
00001000
,  // measure 71
00010000
01000000
10000000
10000000
02000000
00000000
03100000
00000000
,  // measure 72
00001000
00010000
01000000
10000000
00020000
00000000
00130000
00000000
,  // measure 73
00001000
00010000
00100000
02000000
00010000
00000000
03002000
00000000
,  // measure 74
00013000
00001000
00000100
00000001
00002000
00000000
00003010
00000000
,  // measure 75
00010000
00001000
00000010
00000200
00001000
00000000
00020300
00000000
,  // measure 76
00031000
01000000
00010000
00010000
10000000
10000000
01000000
00100000
,  // measure 77
00010000
01000000
00001000
00010000
00001000
00000010
00000001
00001000
,  // measure 78
00000010
00000100
00001000
00001000
00010000
00010000
00000000
00001000
,  // measure 79
00100000
00010000
00110000
00100000
02000000
00000000
00010000
00000000
,  // measure 80
13000000
00000000
00000000
00000000
;
