#VERSION:0.83;
#TITLE:Picasso;
#SUBTITLE:;
#ARTIST:Sakuzyo;
#TITLETRANSLIT:;
#SUBTITLETRANSLIT:;
#ARTISTTRANSLIT:;
#GENRE:;
#CREDIT:;
#MUSIC:Picasso.ogg;
#BANNER:Picasso.png;
#BACKGROUND:Picasso-bg.png;
#CDTITLE:cdtitle.png;
#SAMPLESTART:37.200;
#SAMPLELENGTH:14.400;
#SELECTABLE:YES;
#OFFSET:0.000;
#BPMS:0.000=200.000;
#STOPS:;
#SPEEDS:0.000=1.000=0.000=0;
#SCROLLS:0.000=1.000;
#TICKCOUNTS:0.000=4;
#TIMESIGNATURES:4.000=3=4;
#LABELS:0.000=Song Start,
4.000=Start
;
#COMBOS:0.000=1;
#ORIGIN:;
#TAGS:;
#PREVIEWVID:;
#JACKET:Picasso-jacket.png;
#CDIMAGE:;
#DISCIMAGE:;
#BGCHANGES:178.000=Picasso-BG2.png=1.000=0=0=1===CrossFade_Faster==,
178.500=Picasso-bg.png=1.000=0=0=1===CrossFade_Faster==,
187.000=Picasso-BG2.png=1.000=0=0=1===CrossFade_Faster==,
187.500=Picasso-bg.png=1.000=0=0=1===CrossFade_Fastest==,
190.000=Picasso-BG2.png=1.000=0=0=1===CrossFade_Fastest==,
190.500=Picasso-bg.png=1.000=0=0=1===CrossFade_Fastest==,
202.000=Picasso-BG2.png=3.000=0=0=1=Visualization2FileFlash==CrossFade_Fastest==,
388.000=Picasso-bg.png=1.000=1=0=1===CrossFade==,
99999.000=-nosongbg-=1.000=0=0=0=StretchNoLoop====
;
#FGCHANGES:;

//--------------- dance-single - MEGAtive ----------------
#NOTEDATA:;
#STEPSTYPE:dance-single;
#DESCRIPTION:MEGAtive;
#DIFFICULTY:Beginner;
#METER:1;
#RADARVALUES:0.09786,0.240534,0.062274,0.21796,0,88,80,8,28,0,0,0,0,0,0.09786,0.240534,0.062274,0.21796,0,88,80,8,28,0,0,0,0,0;
#CHARTNAME:;
#CHARTHASH:733155463:;
#BANNER:;
#CHARTSTYLE:;
#METERF:0.000000;
#CREDIT:;
#NOTES:
0000
0000
0000
0000
,
0000
0000
0000
0000
,
0000
0000
0000
0000
,
0000
0000
0000
0000
,
0000
0000
0000
0000
,
0000
0000
0000
0000
,
0000
0000
0000
0000
,
1000
0000
0000
0000
,
0000
0000
0000
0000
,
0000
0000
0000
0000
,
0001
0000
0000
0000
,
0000
0000
0000
0000
,
0000
0000
0000
0000
,
0100
0000
0000
0000
,
0000
0000
0000
0000
,
0000
0000
0000
0000
,
0010
0000
0000
0000
,
0000
0000
0000
0000
,
0000
0000
0000
0000
,
1001
0000
0000
0000
,
0000
0000
1000
0000
,
0000
0000
0000
0000
,
0100
0000
0000
0000
,
0000
0000
0010
0000
,
0000
0000
0000
0000
,
0001
0000
0000
0000
,
0000
0000
1000
0000
,
0000
0000
0000
0000
,
0010
0000
0000
0010
,
0000
0000
0100
0000
,
0000
0100
0000
0000
,
2001
0000
0000
0000
,
0000
0000
3002
0000
,
0000
0000
0000
0000
,
0023
0000
0000
0000
,
0000
0000
0230
0000
,
0000
0000
0000
0000
,
2300
0000
0000
0000
,
0000
0000
3002
0000
,
0000
0000
0000
0000
,
0103
0000
0000
0000
,
0000
0000
0110
0000
,
0000
0000
0000
0000
,
2002
0000
0000
0000
,
0000
0000
3003
0000
,
0000
0000
0000
0000
,
0000
0000
0000
0000
,
0000
0000
0000
0000
,
0000
0000
0000
0000
,
0000
0000
0000
0000
,
0000
0000
2100
0000
,
0000
3002
0000
0000
,
0203
0000
0000
0320
,
0000
0000
2030
0000
,
0000
3002
0000
0000
,
0023
0000
0000
0230
,
0000
0000
2300
0000
,
0000
3002
0000
0000
,
2003
0000
0000
3020
,
0000
0000
0230
0000
,
0000
0302
0000
0000
,
2003
0000
0000
3200
,
0000
0000
0310
0000
,
0000
0010
0000
0000
,
0100
0000
0000
0100
,
0000
0000
1001
0000
,
0000
1001
0000
0000
,
1001
0000
0000
0000
,
0000
0000
0000
0000
,
0000
0000
0000
0000
,
1000
0000
0000
0010
,
0000
0000
0100
0000
,
0000
0001
0000
0000
,
1000
0000
0000
0001
,
0000
0000
0010
0000
,
0000
0100
0000
0000
,
1000
0000
0000
0001
,
0000
0000
0100
0000
,
0000
0010
0000
0000
,
1000
0000
0000
0001
,
0000
0000
1000
0000
,
0000
0100
0000
0000
,
0020
0000
0000
0000
,
0000
0000
0000
0000
,
0000
0000
0000
0000
,
0130
0000
0000
1000
,
0000
0000
0001
0000
,
0000
1000
0000
0000
,
0010
0000
0000
0100
,
0000
0000
0001
0000
,
0000
1000
0000
0000
,
0001
0000
0000
0010
,
0000
0000
0100
0000
,
0000
1000
0000
0000
,
0001
0000
0000
1000
,
0000
0000
0020
0000
,
0000
0000
0000
0000
,
2030
0000
0000
0000
,
0000
0000
0000
0000
,
0000
0000
0000
0000
,
0002
0000
0000
0000
,
0000
0000
0000
0000
,
0000
0000
0000
0000
,
3003
0000
0000
0000
;

//--------------- dance-single - MEGAtive ----------------
#NOTEDATA:;
#STEPSTYPE:dance-single;
#DESCRIPTION:MEGAtive;
#DIFFICULTY:Easy;
#METER:7;
#RADARVALUES:0.211288,0.360801,0.101196,0.194607,0,190,177,13,25,0,0,0,0,0,0.211288,0.360801,0.101196,0.194607,0,190,177,13,25,0,0,0,0,0;
#CHARTNAME:;
#CHARTHASH:2147483647:;
#BANNER:;
#CHARTSTYLE:;
#METERF:0.000000;
#CREDIT:;
#NOTES:
0000
0000
0000
0000
,
0000
0000
0000
0000
,
0000
0000
0000
0000
,
0000
0000
0000
0000
,
0000
0000
0000
0000
,
0000
0000
0000
0000
,
0000
0000
0000
0000
,
0001
0000
0000
1000
,
0000
0000
0100
0000
,
0000
0010
0000
0000
,
0001
0000
0000
0100
,
0000
0000
0010
0000
,
0000
1000
0000
0000
,
0001
0000
0000
0010
,
0000
0000
0100
0000
,
0000
1000
0000
0000
,
0100
0000
0000
0010
,
0000
0000
0001
0000
,
0000
0100
0000
0000
,
1001
0000
0000
0001
,
0000
0000
1000
0000
,
0000
0100
0000
0000
,
1000
0000
0000
0001
,
0000
0000
0100
0000
,
0000
0010
0100
0010
,
1000
0000
0000
0001
,
0000
0000
1000
0000
,
0000
0100
0000
0000
,
0010
0000
0000
0010
0000
0000
0001
0000
,
0000
0001
0000
0000
2000
0000
0000
0000
,
0000
3020
0000
0100
,
0230
0000
0000
0302
,
0000
0000
2003
0000
,
0000
3200
0000
0000
,
0320
0000
0000
0032
,
0000
0000
2003
0000
,
0000
3020
0000
0000
,
0230
0000
0000
0302
,
0000
0000
2003
0000
,
0000
3200
0000
0000
,
0310
0000
0000
1001
,
0000
0000
0110
0000
,
0000
1001
0000
0000
,
1000
0000
0000
1000
0000
0000
0001
0000
,
0000
0001
0000
0000
1000
0000
0000
0000
,
0000
0000
0000
0000
,
0000
0000
0000
0000
,
0000
0000
0000
0000
,
0000
0000
0000
0000
,
0000
0000
0000
0000
,
0000
0000
0000
0000
1001
0000
0000
0001
,
0000
0000
0100
0000
0000
1000
0000
0000
,
0100
0010
0100
0001
,
1000
0100
0000
0100
,
1000
0001
0100
0000
,
0010
1000
0001
0010
,
0100
0000
1000
0000
0001
0000
0000
1000
,
0000
0000
0100
0000
0000
0001
0000
0000
,
0100
0010
0100
1000
,
0001
0100
0000
0010
,
0100
0001
1000
0100
,
0010
0010
0100
1000
,
0001
0000
1001
0000
,
0000
1001
0000
0000
,
0110
0000
0000
0110
,
0000
0000
1001
0000
,
0000
1001
0000
0000
,
0220
0330
0000
0000
,
0000
0000
0000
0000
,
0000
0000
0000
0000
,
0001
0000
0001
0100
,
0000
0010
1000
0000
,
0001
1000
0000
0100
,
0010
0000
0100
1000
,
0000
0001
1000
0000
,
0010
0100
0000
0001
,
1000
0000
0001
0010
,
0000
0100
0010
0000
,
0001
1000
0000
0100
,
0010
0000
0001
1000
,
0000
0010
0100
0000
,
0001
1000
0000
0100
,
0020
0000
0000
0000
,
0000
0000
0032
0000
,
0000
0000
0000
0000
,
1003
0000
0000
1000
0000
0000
0010
0000
,
0000
0010
0000
0000
0100
0000
0000
0100
,
0000
0001
0000
0001
,
0010
0000
0000
0010
0000
0000
0100
0000
,
0000
0100
0000
0000
1000
0000
0000
1000
,
0000
0001
0100
0010
,
1000
0000
0000
1000
0000
0000
0001
0000
,
0000
0001
0000
0000
0010
0000
0000
0010
,
0000
0200
0000
0000
,
1300
0000
0000
1000
0000
0000
0001
0000
,
0000
0001
0000
0000
0200
0000
0000
0000
,
0300
2002
0000
3003
,
1000
0000
0000
0100
,
0000
0000
0010
0000
,
0000
0001
0000
0000
,
0200
0000
0000
0320
,
0000
0000
2030
0000
,
0000
0000
0000
0000
,
3001
0000
0000
0000
;

//--------------- dance-single - MEGAtive ----------------
#NOTEDATA:;
#STEPSTYPE:dance-single;
#DESCRIPTION:MEGAtive;
#DIFFICULTY:Medium;
#METER:11;
#RADARVALUES:0.420351,0.601336,0.140117,0.677233,0.05449,378,360,18,87,0,0,0,0,0,0.420351,0.601336,0.140117,0.677233,0.05449,378,360,18,87,0,0,0,0,0;
#CHARTNAME:;
#CHARTHASH:2147483647:;
#BANNER:;
#CHARTSTYLE:;
#METERF:0.000000;
#CREDIT:;
#NOTES:
0000
0000
0000
0000
,
0000
0000
0000
0000
,
0000
0000
0000
0000
,
0000
0000
0000
0000
,
0000
0000
0000
0000
,
0000
0000
0000
0000
,
0000
0000
0000
0000
,
2000
3020
0230
0302
,
2003
3200
0320
0230
,
2300
0000
3002
0000
0203
0000
0310
1000
,
0020
0230
0302
2003
,
3200
2300
3020
0230
,
0302
0023
0000
0030
,
0001
1000
0100
0010
,
0100
1000
0001
1000
,
0010
0100
0001
1000
,
0001
0010
0100
1000
,
0001
1000
0010
0100
,
0001
0010
0000
0000
,
1001
0000
0000
1100
,
0000
0000
0011
0010
,
0010
0000
0100
0010
0000
0000
0001
0000
0000
0001
0000
0000
,
0101
0000
0000
0100
0000
0000
0100
0000
0010
0100
0000
0000
,
0001
0001
1001
1000
,
1000
0000
0100
1000
0000
0010
0000
0000
0010
0100
0000
0000
,
0101
0000
0000
0001
0000
0000
0001
0000
1000
0001
0000
0000
,
0010
0010
0110
0100
,
0100
0000
1000
0100
0000
0000
0010
0000
0000
0010
0000
0000
,
0011
0000
0000
0000
0000
0000
0000
0000
0000
1001
0000
0000
0000
0000
0000
0000
1000
0000
0010
0000
0000
0000
0000
0000
,
0100
0010
0000
0000
0101
0000
0000
0000
,
2001
0000
0000
3100
0000
0100
0000
0000
0010
0100
0000
0000
,
2100
0000
0001
3020
,
0000
0000
0230
0000
,
0010
0302
0000
0000
,
2003
0000
0001
3200
,
0000
0010
2300
0000
,
0100
3002
0000
0010
,
2003
0000
0001
3020
,
0000
0000
0230
0000
,
0010
0302
1000
0023
,
0130
0000
0000
1000
0000
1000
0100
0000
0000
0010
0000
0000
,
0001
0000
0001
0100
0000
0000
0010
0000
0000
1000
0000
1000
,
0100
0000
0000
0010
0000
0000
0001
0000
0001
0100
0000
0000
,
0020
0000
0000
2030
0000
0000
3200
0000
,
0000
0320
0000
0000
0031
0000
0000
0000
,
0000
0000
0000
0000
,
0000
0000
0000
0000
,
0000
0000
0000
0000
,
0000
0000
0000
0000
,
0000
0000
0000
0000
,
0000
0000
0000
0000
1000
0100
1000
0001
,
0100
0000
0010
0100
0010
1000
0001
0000
,
0010
0100
1000
0000
0001
0010
0001
1000
,
0010
0000
0100
0001
0000
1000
0100
0000
,
0010
0100
1000
0001
0100
0001
0000
1000
,
0010
0100
0001
1000
0001
0000
0010
0100
,
1000
0000
0001
0100
0010
1000
0001
0000
,
1000
0100
0010
0000
0100
1000
0001
0000
,
0100
0010
0100
0001
1000
0000
0001
1000
,
0100
0010
0001
1000
0000
0001
0100
0010
,
1000
0001
1000
0100
0010
0001
0000
0010
,
0100
0000
0100
0000
1000
0001
0100
0010
,
1000
0100
0010
0001
2000
0000
0000
0000
,
0000
3020
0000
0000
,
0230
0000
0000
0302
,
0000
1000
0000
0000
0023
0000
0000
0000
,
0000
0000
0230
0000
0000
1000
0000
0000
,
0020
0330
0000
0000
,
0000
0000
0000
0000
,
0000
0000
0000
0000
,
1020
0001
0100
2030
,
0001
0100
3002
0010
,
1000
0000
0100
0000
1000
0000
0013
0100
,
2000
0001
0010
3002
,
0100
1000
0023
0100
,
0001
0230
1000
0310
,
0021
1000
0100
0032
,
1000
0100
2003
0010
,
0001
0100
0001
3010
,
0102
1000
0010
2003
,
0100
0001
3020
0100
,
1000
0230
0001
0310
,
2001
0000
0000
3002
,
2003
3200
0320
0000
,
0000
0230
2300
3002
,
1003
0010
0000
0100
0001
0000
1000
0100
,
0000
0010
0100
0000
1000
0001
0000
0100
,
0010
0000
1000
0100
1000
0001
0010
0000
,
0100
1000
0000
0001
1000
0000
0010
1000
,
0000
0001
1000
0000
0001
0010
0000
0001
,
1000
0000
0001
0100
0001
0100
0010
0000
,
1000
0010
0000
1000
0001
0000
0010
0100
,
0000
0010
0001
0000
1000
0001
0000
0100
,
0001
0000
1000
0010
1000
0001
0010
0000
,
0100
1000
0000
0001
0010
0000
0001
1000
,
0000
0001
0100
0000
0220
0000
0000
0000
,
0330
2002
0000
0003
,
3002
0203
0320
2030
,
3200
0320
0032
0023
,
0230
0302
0203
0320
,
0032
0000
0000
0203
,
0000
0000
0320
0000
,
0000
0000
0000
0000
,
0031
0000
0000
0000
;

//--------------- dance-single - MEGAtive ----------------
#NOTEDATA:;
#STEPSTYPE:dance-single;
#DESCRIPTION:MEGAtive;
#DIFFICULTY:Hard;
#METER:15;
#RADARVALUES:0.588269,1.162583,0.179038,0.739507,0.32694,529,506,23,95,46,0,0,0,0,0.588269,1.162583,0.179038,0.739507,0.32694,529,506,23,95,46,0,0,0,0;
#CHARTNAME:;
#CHARTHASH:2147483647:;
#BANNER:;
#CHARTSTYLE:;
#METERF:0.000000;
#CREDIT:;
#NOTES:
0000
0000
0000
0000
,
0000
0000
0000
0000
,
0000
0000
0000
0000
,
0000
0000
0000
0000
,
0000
0000
0000
0000
,
0000
0000
0000
0000
,
0000
0000
0000
0000
,
0002
0203
0320
2030
,
3200
0320
0032
0023
,
0230
0000
2300
0000
3020
0000
0130
0001
,
0200
0320
0230
0302
,
2003
3200
0320
0032
,
0023
0230
0000
0300
,
1000
0100
0010
0001
,
0100
0010
1000
0001
,
1000
0001
0010
0100
,
1000
0001
0100
0010
,
0100
0001
0010
0100
,
1000
0002
0000
0003
,
2100
0000
3001
0100
1000
0000
0110
0000
,
0000
0000
0000
0000
0000
0000
0001
0000
1000
0100
0000
0000
,
0010
0000
0010
0100
0000
0010
0001
0000
0000
0100
0000
0100
,
0010
0000
0100
0001
0000
0000
1000
0000
1000
0100
0000
1000
,
0001
0000
0000
0100
0000
0100
0010
0000
0100
0001
0000
0000
,
0010
0000
0010
0100
0000
0010
0001
0000
0010
0100
0000
0000
,
1000
0000
0001
0100
0000
0000
0010
0000
0010
1000
0000
0010
,
0100
0000
0000
0001
0000
0001
1000
0000
0001
0010
0000
0000
,
0100
0000
0100
0010
0000
0100
1000
0000
0000
0001
0000
0000
,
0201
0000
0000
0000
0000
0000
0000
0000
0000
0000
0000
0000
0000
0000
0000
0000
0000
0000
1300
0000
0000
0000
0000
0000
0200
0000
0000
0000
0000
0000
0000
0000
0010
0300
0000
0000
0200
0000
0000
0000
0000
0000
0000
0000
0000
0000
0000
0000
,
0301
0020
0000
0000
0230
0000
0000
0000
,
0010
0000
0000
0310
0000
0010
0001
0000
1000
0001
0000
0100
,
0020
0000
1000
0230
,
0302
0023
0230
0000
,
1000
0320
0032
2003
,
3020
0000
0100
2030
,
3002
0203
0320
0000
,
1000
0230
0302
1000
,
0023
0000
0100
0032
,
0203
0320
2030
0000
,
0001
3200
0010
2300
,
3001
0000
0000
1000
0010
1000
0001
0000
0000
0010
0000
0000
,
0100
1000
0001
1000
0000
0000
0010
0000
0000
0100
0001
1000
,
0001
0000
0000
0010
0000
0000
0100
1000
0001
1000
0000
0000
,
0020
0000
0000
0032
0000
0000
2003
0000
,
0000
3200
0000
0000
0002
0303
0000
0000
,
M000
M000
M000
M000
M000
M000
M000
M000
,
M000
M000
M000
M000
M000
M000
M000
M000
,
M000
M000
M000
M000
M000
M000
M000
M000
,
M000
M000
M000
M000
M000
M000
M000
M000
,
M000
M000
M000
M000
M000
M000
M000
M000
,
M000
M000
M000
0000
0011
0001
1000
1010
,
0010
0000
0100
0000
1000
0100
0010
0000
1000
0000
0001
0010
0100
0000
1000
0000
,
0001
0000
0100
0010
0100
0000
0001
0000
0001
0000
0010
0000
0120
0000
0000
0000
,
0031
1000
0100
0010
0001
1000
0010
0000
0100
0000
0010
0000
0010
0100
0010
1000
,
0001
0010
0100
1000
0001
1000
0010
0000
0100
0000
0101
0000
0001
0000
0100
0001
,
0010
0000
0100
0000
0100
0000
1000
0000
2000
0001
0000
0001
0000
3001
0010
0100
,
1000
0001
1000
0010
0100
0000
0001
0000
1001
0000
1000
0000
0001
0000
0011
0000
,
0010
0000
0100
0000
0001
0100
0010
0000
0001
0000
1000
0010
0100
0000
0001
0000
,
0100
0000
0010
1000
0001
0000
1000
0000
1000
0000
0100
0000
0210
0000
0000
0000
,
1300
0001
0010
0100
1000
0001
0100
0000
0010
0000
0010
1000
0001
0010
0100
1000
,
0001
1000
0010
0100
0010
1000
0001
1000
0100
0000
0110
0000
0010
0000
0001
1000
,
0020
0000
0100
0000
2030
0000
0001
0000
3010
0100
0000
0100
0001
0000
0001
0000
,
0010
0100
1000
0001
0100
0010
1000
0001
0020
0000
0100
0000
0000
0000
0000
0000
,
0000
0000
0032
0100
0000
0000
0000
0000
,
2003
0100
0000
0000
0000
0000
3002
0100
,
0000
0103
0010
1000
0200
0010
0000
0000
,
0000
0000
2300
0010
0000
3010
0100
0001
,
0020
0030
0000
0000
,
0000
0000
0000
0000
,
0000
0000
0000
0000
,
2100
0000
3001
0100
1000
0000
0120
0000
,
1030
0000
0100
0000
0001
0M00
0001
0000
0010
0000
0000
0000
0011
0000
0010
0000
,
0100
1000
0010
0000
0101
0000
0001
0100
,
1000
0000
0100
0001
0010
0000
1100
0000
,
1001
0000
0000
0000
0001
0000
0100
0000
1000
00M0
1000
0000
0010
0000
0100
0000
,
0001
0010
0100
0000
2001
0000
3100
0010
,
0001
0000
1000
0010
0001
0010
0100
0000
,
0001
0000
0010
0000
2000
0000
0000
0000
3010
0000
0100
00M0
0100
0000
0001
0000
,
0100
0010
1000
0000
0001
0010
0001
1000
,
1002
0000
1003
0010
0001
0000
0210
0000
,
0301
0010
1000
0000
1010
0000
0110
0000
,
0010
0001
0100
0000
1000
0100
0001
0010
,
0200
0000
0000
2300
,
3002
0203
0320
0000
,
0000
2030
3002
0023
,
0031
0000
0010
0000
0010
0000
1000
0000
0010
0000
0010
0000
0100
0010
0000
0000
,
0100
0000
1000
0000
0001
0100
0001
0000
1000
0000
0010
0000
0010
0000
0001
0000
,
0010
0000
0010
0000
0100
0000
0001
0000
0010
0000
0100
0000
1000
0001
1000
0000
,
0010
0000
0100
0000
0100
0000
1000
0000
0100
0000
0100
0000
0010
0100
0000
0000
,
0010
0000
1000
0000
0001
0010
0001
0000
1000
0000
0100
0000
0100
0000
0001
0000
,
0100
0100
0010
0001
0100
0010
1000
0100
,
0010
0000
0001
0000
0001
0000
0100
0000
0001
0000
0001
0000
1000
0010
0000
0000
,
0100
0000
0001
1000
0001
0000
0010
0000
0100
0000
1000
0000
1000
0000
0010
0000
,
1000
0000
1000
0000
0001
0010
0000
0000
0100
0000
1000
0001
1000
0000
0010
0000
,
0100
0000
0001
0000
0001
0000
0010
0000
0001
0000
0001
0000
1000
0100
0000
0000
,
0010
0000
0001
0000
1000
0010
1000
0000
0020
0000
0000
0000
0000
0000
0000
0000
,
0000
0030
2002
0000
0000
0000
0003
0000
,
3002
0010
0010
2003
,
0010
0010
3002
0203
,
0320
2030
3200
0320
,
2030
0000
0000
3002
,
0000
0000
0203
0000
,
0000
0000
0000
0000
,
0310
0000
0000
0000
;
