#TITLE:Passcard (final candidate) [Ex•Sync STYLE];
#SUBTITLE:;
#ARTIST:DV-i;
#TITLETRANSLIT:;
#SUBTITLETRANSLIT:;
#ARTISTTRANSLIT:;
#GENRE:;
#CREDIT:;
#MUSIC:Passcard (final candidate) [Ex Sync STYLE].ogg;
#BANNER:Passcard (final candidate) [Ex Sync STYLE].png;
#BACKGROUND:Passcard (final candidate) [Ex Sync STYLE]-bg.png;
#CDTITLE:;
#SAMPLESTART:11.186;
#SAMPLELENGTH:15.000;
#SELECTABLE:YES;
#OFFSET:1.372;
#BPMS:0.000=172.000
,164.000=344.000
,166.000=172.000
,189.000=344.000
,190.000=172.000
,205.000=344.000
,206.000=172.000
,221.000=344.000
,222.000=172.000
,266.000=344.000
,268.000=172.000
;
#STOPS:164.000=0.872
,165.000=0.174
,189.000=0.174
,205.000=0.174
,221.000=0.044
,221.250=0.044
,221.500=0.044
,221.750=0.044
,266.000=0.872
,267.000=0.174
;
#DISPLAYBPM:172.000;
#BGCHANGES:;
#FGCHANGES:;

//--------------- dance-single - Extraordiberry ----------------
#NOTES:
     dance-single:
     Extraordiberry:
     Beginner:
     2:
     0,0,0,0,0:
0000
0000
0000
0000
,
0000
0000
0000
0000
,
0000
0000
0000
0000
,
0000
0000
0000
0000
,
0000
0000
0000
0000
,
0000
0000
0000
0000
,
0000
0000
0000
0000
,
0000
0000
0000
0000
,
0000
0000
0000
0000
,
1000
0000
0000
0000
,
0000
0000
0000
0000
,
1000
0000
0000
0000
,
0000
0000
0000
0000
,
0001
0000
0000
0000
,
0000
0000
0000
0000
,
0001
0000
0000
0000
,
0000
0000
0000
0000
,
1000
0000
0000
0000
,
0000
0000
0000
0000
,
0100
0000
0000
0000
,
0000
0000
0000
0000
,
0010
0000
0000
0000
,
0000
0000
0000
0000
,
0001
0000
0000
0000
,
0001
0000
0000
0000
,
1000
0000
0000
0000
,
0000
0000
0000
0000
,
1000
0000
0000
0000
,
0000
0000
0000
0000
,
0001
0000
0000
0000
,
0000
0000
0000
0000
,
0001
0000
0000
0000
,
0000
0000
0000
0000
,
1000
0000
0000
0000
,
1000
0000
0000
0000
,
1000
0000
0000
0000
,
0000
0000
0000
0000
,
0001
0000
0000
0000
,
0001
0000
0000
0000
,
0001
0000
0000
0000
,
0000
0000
0000
0000
,
0000
0000
0000
0000
,
0000
0000
1000
0000
,
0000
0000
0000
0000
,
0000
0000
1000
0000
,
0000
0000
0000
0000
,
0000
0000
0001
0000
,
0000
0000
0000
0000
,
0000
0000
0001
0000
,
0000
0000
0000
0000
,
0000
0000
0010
0000
,
0000
0000
0000
0000
,
0000
0000
0010
0000
,
0000
0000
0000
0000
,
0000
0000
0100
0000
,
0000
0000
0000
0000
,
0000
0000
1000
0000
,
0000
0000
1000
0000
,
0000
0000
0100
0000
,
0000
0000
1000
0000
,
0000
0000
0000
0000
,
0000
0000
0001
0000
,
0000
0000
0100
0000
,
0000
0000
0001
0000
,
0000
0000
0001
0000
,
0000
0000
0010
0000
,
0000
0000
0000
0000
,
0000
0000
0000
0000
,
0100
0000
0000
0000
,
0000
0000
0000
0000
,
1000
0000
0000
0000
,
0000
0000
0000
0000
,
0001
0000
0000
0000
,
0000
0000
0000
0000
,
0010
0000
0000
0000
,
0001
0000
0000
0000
,
0001
0000
0000
0000
,
0100
0000
0000
0000
,
0100
0000
0000
0000
,
0010
0000
0000
0000
,
0010
0000
0000
0000
,
1000
0000
0000
0000
,
1000
0000
0000
0000
,
0001
0000
0000
0000
,
0000
0000
0000
0000
,
1000
0000
0000
0000
,
0000
0000
0000
0000
,
0001
0000
0000
0000
,
0000
0000
0000
0000
,
1000
0000
0000
0000
,
0001
0000
0000
0000
;

//--------------- dance-single - Extraordiberry ----------------
#NOTES:
     dance-single:
     Extraordiberry:
     Easy:
     7:
     0,0,0,0,0:
0000
0000
0000
0000
,
0000
0000
0000
0000
,
0000
0000
0000
0000
,
0000
0000
0000
0000
,
0000
0000
0000
0000
,
0000
0000
0000
0000
,
0000
0000
0000
0000
,
0000
0000
0000
0000
,
0000
0000
0000
0000
,
1000
0001
1000
0000
,
0100
0000
0010
0000
,
0001
1000
0001
0000
,
0100
0000
0010
0000
,
1000
0100
1000
0000
,
0001
0000
0010
0000
,
0001
0100
0001
0000
,
0100
0001
0100
0000
,
0001
1000
0010
0000
,
2000
0000
3002
0000
,
1003
0001
0010
0000
,
0002
0000
2003
0000
,
3100
0010
0001
0000
,
0200
0000
0320
0000
,
0130
0010
1000
0000
,
1000
0010
0100
0000
,
0002
0000
0000
0000
,
0023
0000
0000
0000
,
0230
0000
0000
0000
,
0320
0000
0000
0000
,
0230
0000
0000
0000
,
2300
0000
0000
0000
,
3002
0000
0000
0000
,
0023
0000
0032
0000
,
0013
0010
0010
0000
,
0100
0100
0100
0000
,
1000
1000
1000
0000
,
0001
0001
0001
0000
,
1000
0001
1000
0000
,
0010
0100
0010
0000
,
1000
0000
0000
0000
0001
0000
0000
0000
1000
0000
0000
0000
0000
0000
0000
1000
,
0002
0000
0000
0000
,
0000
0000
1003
0000
,
1001
0000
0001
0000
,
1001
0000
0010
0000
,
0110
0000
0100
0000
,
0110
0000
1000
1000
,
1001
0000
0001
0001
,
2001
0000
3001
0000
,
1001
0000
1000
0001
,
1001
0000
0110
0000
,
0110
0000
0001
1000
,
1002
0000
1003
0000
,
1001
0000
0110
0000
,
1001
0000
1000
0001
,
1001
0000
0010
0100
,
0120
0000
0130
0000
,
0101
0000
0001
1000
,
0100
0000
0000
0000
1000
0000
0000
2000
,
0000
3000
0000
0000
0100
0000
0000
0200
,
0000
0300
0000
0000
0010
0000
0000
0020
,
0000
0030
0000
0000
0001
0000
0001
0000
,
1000
0000
1000
0000
0001
0000
0000
0002
,
0000
0003
0000
0000
0100
0000
0000
0200
,
0000
0300
0000
0000
0010
0000
0000
0010
,
0000
0000
0010
0000
0010
0000
0000
0010
,
0000
0010
0100
0010
,
0100
0020
0000
0000
,
1030
0100
0010
0001
,
1000
0100
0010
0000
,
0001
1000
0100
0010
,
0001
1000
0100
0000
,
1000
0010
0100
0001
,
1000
0010
0100
0000
,
0001
1000
0010
0100
,
0010
1000
0001
0000
,
1000
0000
0000
1000
0000
0000
1000
0000
,
0200
0000
0320
0000
,
0031
0000
0000
0001
0000
0000
0001
0000
,
0200
0000
0320
0000
,
1030
0100
0001
0100
,
2000
0000
3001
0000
,
0001
0100
1000
0100
,
0001
0010
0100
1000
,
0002
0000
0000
0000
,
0203
0000
0000
0000
,
0320
0000
0000
0000
,
2030
0000
0000
0000
,
3200
0000
0000
0000
,
0320
0000
0000
0000
,
0032
0000
0000
0000
,
0023
0000
0000
0000
,
0030
0000
0000
0000
;

//--------------- dance-single - Extraordiberry ----------------
#NOTES:
     dance-single:
     Extraordiberry:
     Medium:
     13:
     0,0,0,0,0:
0000
0000
0000
0000
,
0000
0000
0000
0000
,
0000
0000
0000
0000
,
0000
0000
0000
0000
,
0000
0000
0000
0000
,
0000
0000
0000
0000
,
0000
0000
0000
0000
,
0000
0000
0000
0000
,
0000
0000
0000
0000
,
1000
0100
1000
0000
0100
0010
0100
0000
,
0010
0100
0010
0000
0001
0010
0001
0000
,
0100
0001
0100
0000
0010
0100
0010
0000
,
0100
0010
0100
0000
0010
1000
0010
0000
,
1000
0100
0010
0000
0100
0010
0001
0000
,
0001
0100
0010
0000
0100
0010
1000
0000
,
1000
0100
0010
0001
1000
0100
0010
0000
,
0010
0100
1000
0001
0010
0100
1000
0000
,
0001
0000
1000
0000
0010
0000
0000
1000
0000
1000
0000
0000
1000
0000
1000
0000
,
0001
0010
0001
1000
0010
1000
0010
0000
,
1000
0000
0001
0000
0010
0000
0000
0001
0000
0001
0000
0000
0001
0000
0001
0000
,
1000
0010
1000
0001
0010
0001
0010
0000
,
0001
0000
0100
0000
0010
0000
0000
0010
0000
0010
0000
0000
1000
0000
1000
0000
,
0100
0010
0001
1000
0100
0001
0100
0000
,
1000
0000
0100
0000
0010
0000
0000
0010
0000
0010
0000
0000
0001
0000
0001
0000
,
0100
0010
1000
0001
0100
1000
0100
0000
,
0002
0000
0000
0000
0000
0000
0000
0103
,
0020
0000
0000
2030
,
3200
0000
0000
0000
0000
0000
0000
0010
,
0320
0000
0000
0000
0000
0000
0100
0000
0230
0000
0000
0302
0000
0000
0203
0000
,
0320
0000
0000
0230
,
2300
0000
0000
3020
,
0230
0000
0000
0000
0000
0000
0000
2300
,
3200
0000
0000
0302
0000
0000
0023
0000
0230
0000
0300
2000
0000
0000
3002
0000
,
1003
0000
0010
0000
1000
0000
0000
0001
0000
0000
0001
0000
0010
0000
0000
0000
,
0001
0000
0010
0000
0001
0000
0000
1000
0000
0000
1000
0000
0010
0000
0000
0000
,
1000
0000
0100
0000
1000
0000
0000
0100
0000
0000
0100
0000
0010
0000
0000
0000
,
0001
0000
0100
0000
0001
0000
0000
0100
0000
0000
0100
0000
0010
0000
0000
0000
,
1000
0000
0100
0000
0001
0000
0000
0001
0000
0000
0100
0000
1000
0000
0000
0000
,
0001
0000
0100
0000
1000
0000
0000
1000
0000
0000
0100
0000
0001
0000
0000
0000
,
1000
0000
0100
0000
0010
0000
0000
0001
0000
0000
0001
0000
0010
0000
0100
0000
,
2000
0000
0000
0000
,
0000
0000
3001
0000
0011
0000
0010
0001
,
0011
0000
0001
1000
1010
0000
0010
1000
,
1010
0000
1001
0000
0110
0000
0100
0010
,
0110
0000
1000
0001
1001
0000
0100
0010
,
0110
0000
0001
0001
0101
0000
0100
0001
,
0101
0000
1000
0100
1100
0000
0100
1000
,
1100
0000
2100
0000
3001
0000
1000
0001
,
1001
0000
1000
0010
0100
0001
1000
0001
,
1001
0000
1000
1000
1100
0000
1000
0100
,
1100
0000
0000
0000
0001
0000
1000
0000
0001
0100
0000
0010
0000
0100
0001
0000
,
0100
0000
0200
0000
0310
0000
0100
0010
,
1001
0000
1000
0100
0110
0000
0001
0100
,
0110
0000
1000
1000
1100
0100
0010
0001
,
0011
0000
0000
0000
0001
0000
0100
0000
0001
0100
0000
0010
1000
0000
0010
0000
,
1010
0000
0000
0000
0000
0000
0000
0000
0000
0000
0000
0000
0000
0000
0000
0000
2002
0003
0000
0000
0000
0000
0000
0000
0002
0003
0000
0000
0000
0000
0000
0000
3001
0000
0000
0000
0000
0000
0000
0000
0000
0000
0000
0000
0000
0000
0000
0000
0001
0000
0000
0000
0000
0000
0000
0000
0100
0000
0000
0000
0000
0000
0000
0000
,
0110
0000
0010
1000
0100
0001
0100
1000
,
0200
0000
2300
0000
3001
0100
0010
1000
,
0000
1000
0100
0010
0000
0001
0100
0010
,
0000
1000
0100
0001
0000
0001
0100
1000
,
0000
1000
0010
0001
0020
0000
2030
0000
,
3200
0000
0320
0000
0031
1000
0010
0100
,
0000
0100
0001
0010
0000
0100
1000
0010
,
0000
0100
0001
1000
0100
0001
0100
1000
,
0000
0100
0010
0001
0100
1000
0100
0001
,
0000
0000
0001
0000
0100
0000
0010
0000
1000
0001
0000
1000
0000
0001
0000
1000
,
0001
0000
1000
0001
2000
0000
0000
0000
0000
0000
0000
0000
3001
0000
0000
0000
,
1000
0100
0010
0001
1000
0100
0010
0001
,
1000
0010
1000
0001
1000
0100
1000
0000
,
0001
0100
0010
1000
0001
0100
0010
1000
,
0001
0010
0001
1000
0001
0100
0001
0000
,
1000
0010
0100
0001
1000
0001
0010
0100
,
1000
0100
0001
0100
1000
0100
0001
0000
,
0100
1000
0010
0100
0001
0010
0100
1000
,
0100
0010
0001
0100
0010
1000
0100
0000
,
1000
0000
0010
0000
0100
0000
0001
0100
0000
0100
0000
0000
0001
0000
0100
0000
,
0010
0100
1000
0000
0001
0010
0100
0000
,
0001
0000
0010
0000
0100
0000
1000
0100
0000
0100
0000
0000
1000
0000
0100
0000
,
0010
0100
0001
0000
1000
0010
0100
0000
,
1000
0000
0100
0000
0001
0000
0100
1000
0000
1000
0000
0000
0100
0000
1000
0000
,
0010
0100
1000
0100
0001
1000
1000
0000
,
0001
0000
0100
0000
1000
0000
0100
0001
0000
0001
0000
0000
0100
0000
0001
0000
,
0010
0100
0001
0100
1000
0100
0001
0100
,
2000
0000
0000
0000
0000
0000
0000
0000
0000
0000
0000
0000
0000
0000
3100
0010
,
0200
0000
0000
0320
,
0032
0000
0000
0000
0000
0000
0000
0000
0000
0000
0000
0000
0000
0000
0103
0010
,
0200
0000
0000
0000
0000
0000
0310
1000
0020
0000
0000
2030
0000
0000
3002
0000
,
0023
0000
0000
0032
,
0203
0000
0000
0302
,
0023
0000
0000
0000
0000
0000
0000
0000
0000
0000
0000
0000
0000
0000
0031
1000
,
0200
0000
0000
0000
,
0300
0000
0000
0000
;

//--------------- dance-single - Extraordiberry ----------------
#NOTES:
     dance-single:
     Extraordiberry:
     Hard:
     16:
     0,0,0,0,0:
0000
0000
0000
0000
,
0000
0000
0000
0000
,
0000
0000
0000
0000
,
0000
0000
0000
0000
,
0000
0000
0000
0000
,
0000
0000
0000
0000
,
0000
0000
0000
0000
,
0000
0000
0000
0000
,
0000
0000
0000
0000
,
1000
0100
0010
0001
1000
0100
0010
0001
,
1000
0100
0010
0100
0001
0100
0020
0000
,
0130
1000
0010
0100
0001
1000
0010
0100
,
0001
0100
0010
0100
1000
0100
0020
0000
,
0130
0001
0010
0100
1000
0010
0100
0001
,
1000
0100
0001
0100
1000
0100
0002
0000
,
0103
1000
0010
0100
0001
0010
0100
1000
,
1000
0100
0010
0001
0100
0010
1000
0100
,
1000
0000
0001
0000
0010
0000
0001
1000
0000
1000
0000
0000
1000
0000
1000
0000
,
0020
0030
0100
0001
0100
0000
0001
0000
0020
0030
0001
1000
0001
0000
0100
0000
,
0001
0000
1000
0000
0010
0000
1000
0001
0000
0001
0000
0000
0001
0000
0001
0000
,
0020
0030
0100
1000
0100
0000
1000
0000
0020
0030
1000
0001
1000
0000
0001
0000
,
1000
0000
0100
0000
0010
0000
0100
0001
0000
0100
0000
0000
0100
0000
0100
0000
,
1000
0100
2000
0000
0100
0000
3100
0000
0010
0100
0020
0000
0001
0000
0031
0000
,
1000
0000
0010
0000
0010
0000
0100
1000
0000
0100
0000
0000
0100
0000
0100
0000
,
0001
0100
0002
0000
0100
0000
0103
0000
0010
0100
0020
0000
1000
0000
1030
0000
,
0002
0000
0000
0000
1000
0000
0000
0000
0100
0000
0000
0000
1003
0000
0001
1000
,
0020
1000
0100
2030
,
3200
0000
0000
0000
0010
0000
0000
0000
1000
0000
0000
0000
0310
0000
0001
1000
,
0020
0000
0000
0000
0000
0000
0130
0001
2000
0000
0000
3200
0000
0000
0302
0000
,
0203
1000
0010
2300
,
3020
0100
1000
0230
,
0302
0000
0000
0000
0010
0000
0000
0000
1000
0000
0000
0000
0103
0000
0010
1000
,
0002
0000
0000
0023
0000
0000
0230
0000
0302
0000
0000
0203
0000
0000
2300
0000
,
3001
0000
1000
0000
0001
0000
0010
0000
0100
0000
1000
0000
0001
0000
0100
0001
,
0100
0010
0100
0001
1000
0010
0100
0000
,
0010
0000
0100
0000
1000
0000
0100
0000
0010
0000
1000
0000
0100
0000
0010
0001
,
0010
0000
0100
0000
0001
0000
0100
0010
0100
0000
0000
0010
0000
0000
0001
0000
,
0100
0000
0010
0000
1000
0000
0001
0100
0000
0100
0001
0000
1000
0000
0010
0000
,
1000
0000
0100
0000
0010
0000
0001
0010
0000
0010
0001
0000
1000
0000
0010
0000
,
2000
0000
0000
0000
0010
0000
0000
0000
0010
0000
0000
0000
3010
0000
1000
0001
,
0020
0000
0000
0000
,
0000
0000
0000
0000
0031
0000
0000
0000
0002
0000
0010
0000
0013
0000
0001
0010
,
0002
0000
0010
0000
0013
0000
0001
0000
0011
0000
0020
0000
0001
0000
0031
1000
,
0010
0000
1000
0000
1010
0000
0000
0000
2100
0000
0100
0000
3100
0000
1000
0100
,
2000
0000
0100
0000
3100
0000
1000
0000
1100
0000
0200
0000
1000
0000
1300
0001
,
0100
0000
0001
0000
0100
0001
1000
0001
0100
0000
0001
0000
0010
0000
0001
1000
,
0100
0000
0010
0000
0110
0000
0100
0000
0010
0000
0001
0000
1000
0000
0001
0100
,
0010
0000
0100
0000
0120
0000
0000
0000
0130
0000
1000
0000
0100
0000
0001
1000
,
0100
0000
0010
0000
0110
0000
0100
0000
0010
0000
1000
0000
0010
0000
0001
1000
,
0010
0000
0100
0000
0001
0100
0010
0100
1000
0000
0100
0000
0001
0000
0010
0100
,
1000
0000
0001
0000
1001
0000
1000
0000
0100
0010
0000
0110
0000
0010
0100
0000
,
0110
0000
0010
0000
0002
0000
0000
0000
1003
0000
0001
0000
0100
0000
0010
0100
,
1000
0000
0100
0000
0110
0000
0010
0000
0001
0000
0010
0000
1000
0000
0100
0010
,
0001
0000
1000
0000
0001
1000
0001
0100
0020
0000
1000
0000
1000
0000
1030
0001
,
0020
0000
0130
0000
0110
0000
0010
0000
0001
1000
0000
0001
0100
0001
0000
1000
,
0010
0000
0000
0000
0000
0000
0000
0000
1000
0000
0000
0000
0000
0000
0000
0000
0200
0300
0000
0000
0020
0030
0000
0000
0002
0003
0000
0000
2000
3000
0000
0000
0200
0000
0000
0000
0000
0000
0000
0000
0010
0000
0000
0000
0000
0000
0000
0000
0010
0000
0000
0000
0000
0000
0000
0000
0310
0000
0000
0000
0001
0000
0000
0000
,
0200
0000
0010
0000
0310
0100
0010
0100
0001
0000
1000
0000
0010
0000
0100
0000
,
2000
0000
3200
0000
0301
0010
0100
0002
,
0000
0103
0010
0100
1000
0010
0100
2000
,
0000
3100
0010
1000
0100
0010
0001
1000
,
0010
0100
0001
1000
0200
0000
0302
0000
,
2003
0000
3020
0000
0031
0100
0010
0002
,
0000
1003
0100
0010
1000
0100
0010
2000
,
0000
3001
0100
0010
0001
0100
0010
1000
,
0001
0100
0010
1000
0100
0001
0100
1000
,
0010
0000
0001
0000
0010
0000
1000
0000
0001
0010
0000
0011
0000
0010
0001
0010
,
0001
0000
1000
0000
0001
0100
0001
0200
0000
0000
0000
0000
0301
0000
0000
0000
,
1000
0100
0010
0000
0001
0010
0100
0000
1000
0100
0010
0000
0001
0010
0100
0000
,
1000
0001
1000
0001
1000
0000
0001
1000
0001
1000
0001
0000
1000
0001
1000
0000
,
0001
0100
0010
0000
1000
0010
0100
0000
0001
0100
0010
0000
1000
0010
0100
0000
,
0010
0100
0010
0100
0010
0000
0100
0010
0100
0010
0100
0000
0010
0100
0010
0000
,
1000
0100
0010
0000
0100
0010
0001
0000
0010
0100
1000
0000
0001
0010
0100
0000
,
1000
0010
1000
0001
1000
0000
0001
1000
0001
0100
0001
0000
1000
0001
1000
0000
,
0001
0100
0010
0000
0100
0010
1000
0000
0010
0100
0001
0000
1000
0010
0100
0000
,
0100
0010
1000
0000
0001
0100
0010
0000
1000
0100
0010
0000
0001
0010
0100
0000
,
1000
0000
0100
0000
0010
0000
0001
1000
0000
1000
0000
0100
0010
0000
0002
0003
,
1000
0000
0010
0000
0100
0000
0010
0000
0002
0003
0010
0000
1000
0000
0001
0000
,
1000
0000
0100
0000
0010
0000
0001
1000
0000
1000
0000
0010
0100
0000
0100
0000
,
2000
3000
0100
0000
0001
0000
0010
0000
2000
3000
0010
0000
0001
0000
0100
0000
,
0001
0000
0001
0000
0001
0000
0100
0001
0000
0001
0000
0100
0001
0000
0001
0000
,
0100
0010
1000
0010
0100
0010
1000
0010
0100
0001
0100
0010
0100
0001
0100
0010
,
1000
0000
1000
0000
1000
0000
0100
1000
0000
1000
0000
0100
1000
0000
1000
0000
,
0100
0010
0001
0010
0100
0010
0001
0010
0100
1000
0100
0010
0100
1000
0100
0010
,
0002
0000
0000
0000
0000
0000
0000
0000
0000
0000
0000
0000
0000
0000
0103
0010
,
2000
0000
0000
3200
,
0302
0000
0000
0000
0000
0000
0000
0000
0000
0000
0000
0000
0000
0000
0103
0010
,
0002
0000
0000
0000
0000
0000
0103
0001
2000
0000
0000
3020
0000
0000
0230
0000
,
0302
1000
0100
1000
,
0023
0001
0100
0032
,
0203
0000
0000
0000
0001
0000
0000
0000
0010
0000
0000
0000
1000
0000
1300
0100
,
0002
1000
1000
2000
,
3003
0000
0000
0000
;
