#VERSION:0.83;
#TITLE:パリピサクヤ;
#SUBTITLE:;
#ARTIST:モリモリあつし;
#TITLETRANSLIT:Paripi Sakuya;
#SUBTITLETRANSLIT:;
#ARTISTTRANSLIT:Morimori Atsushi;
#GENRE:Touhou;
#CREDIT:Melody Love;
#MUSIC:Paripi Sakuya.ogg;
#BANNER:Paripi Sakuya.png;
#BACKGROUND:Paripi Sakuya-bg.png;
#CDTITLE:;
#SAMPLESTART:19.589;
#SAMPLELENGTH:15.346;
#SELECTABLE:YES;
#OFFSET:-0.320;
#BPMS:0.000=130.000
,107.000=260.000
,109.000=198.000
,109.250=96.750
,109.750=198.000
,110.250=96.750
,110.750=198.000
,111.250=96.750
,111.750=198.000
,112.250=96.750
,112.750=198.000
,113.250=96.750
,113.750=198.000
,114.250=96.750
,114.750=198.000
,115.250=96.750
,115.750=198.000
,116.250=96.750
,116.750=198.000
,117.250=96.750
,117.750=198.000
,118.250=96.750
,118.750=198.000
,119.250=96.750
,119.750=198.000
,120.250=96.750
,120.750=198.000
,121.250=96.750
,121.750=198.000
,122.250=96.750
,122.750=198.000
,123.250=96.750
,123.750=198.000
,124.250=96.750
,124.750=198.000
,125.250=96.750
,125.750=198.000
,126.250=96.750
,126.750=198.000
,127.250=96.750
,127.750=198.000
,128.250=96.750
,128.750=198.000
,129.250=96.750
,129.750=198.000
,130.250=96.750
,130.750=198.000
,131.250=96.750
,131.750=198.000
,132.250=96.750
,132.750=198.000
,133.250=96.750
,133.750=198.000
,134.250=96.750
,134.750=198.000
,135.250=96.750
,135.750=198.000
,136.250=96.750
,136.750=198.000
,137.000=65.000
,138.500=260.000
,139.500=130.000
,140.000=198.000
,140.250=96.750
,140.750=198.000
,141.250=96.750
,141.750=198.000
,142.250=96.750
,142.750=198.000
,143.250=96.750
,143.750=198.000
,144.250=96.750
,144.750=198.000
,145.250=96.750
,145.750=198.000
,146.250=96.750
,146.750=198.000
,147.250=96.750
,147.750=198.000
,148.250=96.750
,148.750=198.000
,149.250=96.750
,149.750=198.000
,150.250=96.750
,150.750=198.000
,151.250=96.750
,151.750=198.000
,152.250=96.750
,152.750=198.000
,153.250=96.750
,153.750=198.000
,154.250=96.750
,154.750=198.000
,155.250=96.750
,155.750=198.000
,156.250=96.750
,156.750=198.000
,157.250=96.750
,157.750=198.000
,158.250=96.750
,158.750=198.000
,159.250=96.750
,159.750=198.000
,160.250=96.750
,160.750=198.000
,161.250=96.750
,161.750=198.000
,162.250=96.750
,162.750=198.000
,163.250=96.750
,163.750=198.000
,164.250=96.750
,164.750=198.000
,165.250=96.750
,165.750=198.000
,166.250=96.750
,166.750=198.000
,167.250=96.750
,167.750=198.000
,168.000=130.000
,171.000=260.000
,173.000=198.000
,173.250=96.750
,173.750=198.000
,174.250=96.750
,174.750=198.000
,175.250=96.750
,175.750=198.000
,176.250=96.750
,176.750=198.000
,177.250=96.750
,177.750=198.000
,178.250=96.750
,178.750=198.000
,179.250=96.750
,179.750=198.000
,180.250=96.750
,180.750=198.000
,181.250=96.750
,181.750=198.000
,182.250=96.750
,182.750=198.000
,183.250=96.750
,183.750=198.000
,184.250=96.750
,184.750=198.000
,185.250=96.750
,185.750=198.000
,186.250=96.750
,186.750=198.000
,187.250=96.750
,187.750=198.000
,188.250=96.750
,188.750=198.000
,189.250=96.750
,189.750=198.000
,190.250=96.750
,190.750=198.000
,191.250=96.750
,191.750=198.000
,192.250=96.750
,192.750=198.000
,193.250=96.750
,193.750=198.000
,194.250=96.750
,194.750=198.000
,195.250=96.750
,195.750=198.000
,196.250=96.750
,196.750=198.000
,197.250=96.750
,197.750=198.000
,198.250=96.750
,198.750=198.000
,199.250=96.750
,199.750=198.000
,200.250=96.750
,200.750=198.000
,201.000=130.000
,204.000=260.000
,206.000=130.000
;
#STOPS:;
#SCROLLS:0.000=1.000,
40.250=0.000,
42.625=-0.375,
42.750=-0.250,
42.875=-0.125,
43.000=0.000,
43.125=0.125,
43.250=0.250,
43.375=0.375,
43.500=0.500,
43.625=0.625,
43.750=0.750,
43.875=0.875,
44.000=1.000,
234.000=0.500,
236.000=0.000,
236.625=-0.375,
236.750=-0.250,
236.875=-0.125,
237.000=0.000,
237.125=0.125,
237.250=0.250,
237.375=0.375,
237.500=0.500,
237.625=0.625,
237.750=0.750,
237.875=0.875,
238.000=1.000,
240.000=0.900,
241.000=0.800,
242.021=0.700,
242.938=0.600,
243.917=0.500,
245.021=0.400,
246.333=0.300,
247.479=0.200,
248.500=0.100,
249.250=0.000
;
#BGCHANGES:-0.820=Paripi Sakuya.avi=1.000=1=0=0=StretchNoLoop==CrossFade==,
99999.000=-nosongbg-=1.000=0=0=0=StretchNoLoop====
;
#FGCHANGES:;

//--------------- dance-single - Melody Love ----------------
#NOTEDATA:;
#STEPSTYPE:dance-single;
#DESCRIPTION:Melody Love;
#DIFFICULTY:Beginner;
#METER:3;
#RADARVALUES:0,0,0,0,0;
#NOTES:
0000
0000
0000
0000
,
0000
0000
0000
0000
,
0000
0000
0000
0000
,
0000
0000
0000
0000
,
0000
0000
0100
0000
,
0100
0000
0000
0000
,
0000
0000
0010
0000
,
0010
0000
0000
0000
,
0000
0000
1000
0000
,
1000
0000
0000
0000
,
0001
0000
0000
0000
,
1000
0000
0000
0000
,
0100
0000
0000
0000
,
0010
0000
0000
0000
,
0001
0000
0000
0000
,
1000
0000
0000
0000
,
0100
0000
0000
0000
,
0010
0000
0000
0000
,
0001
0000
0000
0000
,
1000
0000
0100
0000
,
0010
0000
0001
0000
,
1000
0000
0100
0000
,
0010
0000
0001
0000
,
0010
0100
0010
0000
,
0100
0010
0100
0000
,
1000
0000
0001
0000
,
0100
0000
0010
0000
,
0000
0000
0000
0000
,
0000
0100
0000
0000
,
0000
0001
0000
0000
,
0000
0010
0000
0000
,
0000
0100
0000
0000
,
0000
1000
0000
0000
,
0000
0010
0000
0000
,
0000
0200
0000
0000
,
0300
0000
0000
0000
,
0001
0000
0001
0000
,
1000
0000
0000
0000
,
0010
0000
0010
0000
,
0100
0000
0000
0000
,
0001
0000
0001
0000
,
1000
0000
0000
0000
,
0100
0000
0200
0000
,
0000
0300
0000
0000
,
0000
0010
0000
0001
,
0000
0010
0000
0000
,
0000
0100
0000
1000
,
0000
0100
0000
0000
,
0000
0010
0000
0100
,
0000
0010
0000
0000
,
0000
0100
0000
0020
,
0000
0000
0000
0000
,
0030
0000
0000
0000
,
0100
0000
0100
0000
,
0000
0000
0000
0000
,
0100
0000
0010
0000
,
0000
0000
0000
0000
,
0010
0000
0010
0000
,
0000
0000
0000
0000
,
0000
0000
0220
0000
,
0000
0000
0000
0000
,
0000
0000
0000
0000
,
0000
0000
0000
0000
0000
0330
0000
0000
0000
0000
0000
0000
0000
0000
0000
0000
;

//--------------- dance-single - Melody Love ----------------
#NOTEDATA:;
#STEPSTYPE:dance-single;
#DESCRIPTION:Melody Love;
#DIFFICULTY:Easy;
#METER:6;
#RADARVALUES:0,0,0,0,0;
#NOTES:
0000
0000
0000
0000
,
0000
0000
0000
0000
,
0000
0000
0000
0000
,
1000
0000
0100
0000
,
0010
0000
0001
0000
,
0001
0000
0010
0000
,
0100
0000
1000
0000
,
0010
0000
0100
0000
,
0001
0000
1000
0000
,
0100
0000
0010
0000
,
0100
0000
0000
0000
,
0210
0000
1300
0000
,
0001
0100
0010
1000
,
0002
0000
0013
0000
,
0100
1000
0010
0100
,
0020
0000
1030
0000
,
0100
0010
0001
1000
,
0020
0100
0130
0000
,
0200
0010
0310
0000
,
1000
0100
0010
0100
,
1000
0010
0100
0010
,
1000
0100
0010
0100
,
1000
0010
0100
0010
,
1000
0100
0010
0001
,
0010
0100
1000
0010
,
0100
0001
0100
0010
,
1000
0010
0100
0220
,
0000
0330
0000
0100
,
0100
0020
1030
0001
,
0001
0020
0130
1000
,
1000
0010
0100
0001
,
0010
0100
1100
0000
,
0011
0000
1010
0000
,
0101
0000
1001
0000
,
0110
0200
0020
0000
,
0330
0100
0010
1010
,
0000
0100
0001
0101
,
0000
1000
0100
0010
,
0001
0010
0100
0001
,
0100
1100
0000
0101
,
0000
1100
0000
0101
,
0000
1100
0000
0101
,
2000
0000
0001
0002
,
0000
3003
0000
0100
,
0010
0110
0010
1000
,
0001
1001
1000
0010
,
0100
0002
0023
0230
,
2300
3020
0100
0230
,
0320
2030
0001
3002
,
2003
3010
0100
0001
,
0010
0200
0000
0000
,
0020
0000
0330
0000
,
0000
0000
1000
0100
,
2000
0000
3020
0000
,
0030
0000
0100
0001
,
0200
0000
0320
0000
,
0030
0000
1000
0010
,
2000
0000
3020
0000
,
0030
0000
0100
0000
,
0000
0000
0220
0000
,
0000
0000
0000
0000
,
0000
0000
0000
0000
,
0000
0000
0000
0000
0000
0330
0000
0000
0000
0000
0000
0000
0000
0000
0000
0000
;

//--------------- dance-single - Melody Love ----------------
#NOTEDATA:;
#STEPSTYPE:dance-single;
#DESCRIPTION:Melody Love;
#DIFFICULTY:Medium;
#METER:12;
#RADARVALUES:0,0,0,0,0;
#NOTES:
0000
0000
0000
0000
,
0000
0000
0000
0000
,
0000
0000
0000
0000
,
2000
0100
0100
0100
,
0100
0100
3200
0010
,
0320
0001
0001
0001
,
0001
0001
0032
0100
,
0203
0010
0010
0010
,
0010
0010
0320
1000
,
2030
0100
0100
0100
,
3000
0000
0000
0000
,
0210
1000
0320
0001
,
0230
2300
3020
0230
,
0302
0010
0203
1000
,
0302
0023
0230
2300
,
3020
0100
2030
0001
,
3020
0230
0302
2003
,
3002
0010
0203
0310
,
2000
0100
3020
0130
,
0001
1000
0001
0000
0100
0001
0100
0000
,
0010
1000
0010
0000
0100
0010
0100
0000
,
0001
1000
0001
0000
1000
0100
1000
0000
,
0001
0010
0001
0000
0010
0100
0010
0000
,
0100
1000
0100
1000
0100
0010
0001
0000
,
0100
0001
0100
0001
0100
0010
1000
0000
,
0010
1000
0100
0010
0100
1000
0001
0100
,
0010
0000
0100
0001
0010
0000
0100
1000
0010
0000
0010
0000
0020
0000
0000
0000
,
M000
0000
0000
0000
0130
0000
0000
0000
0001
0000
0100
0100
0010
0000
1000
0000
,
0100
0000
0000
0000
1000
0000
0000
0000
0010
0000
0100
0100
0001
0000
0100
0000
,
0010
0000
0000
0000
1000
0000
0000
0000
0100
0000
0010
0000
0001
0000
0000
0001
,
0010
0000
0100
1000
0100
0010
0001
0010
,
0100
1000
0020
0000
0130
0000
0002
0000
,
0013
0200
1300
0020
,
0130
0000
0002
0000
1003
0001
1000
0000
,
1001
0000
0000
0000
M001
0000
0100
0000
0020
0000
0100
0000
0000
0M00
0000
0000
,
M130
0000
0000
0000
0001
0000
0010
0010
0100
0000
1000
0000
0010
0000
0000
0000
,
0100
0000
0000
0000
0001
0000
0100
0100
0010
0000
1000
0000
0100
0000
0000
0000
,
0010
0000
0000
0000
0001
0000
0010
0000
0100
0000
0000
1000
0100
0000
0000
0000
,
0010
0001
1000
0100
0010
0001
1000
0000
,
0002
0000
0103
0000
0010
0010
0010
0000
,
2000
0000
3100
0000
0010
0010
0010
0000
,
0200
0000
1300
0010
0100
0000
0101
0000
,
0100
0001
0010
0000
0100
0000
2000
0000
,
000M
0000
0000
0000
3001
0000
0000
0000
0100
0000
1000
1000
0100
0000
0010
0000
,
1000
0000
0000
0000
2010
0000
0000
0000
3100
0000
0001
0001
0100
0000
0010
0000
,
0001
0000
0000
0000
0012
0000
0000
0000
0013
0000
0001
0000
0010
0000
0000
0010
,
0100
0000
1000
0100
0001
0100
1000
0001
,
1000
0001
1002
0000
0100
0100
0103
0000
,
0101
0000
2001
0000
0010
0010
3010
0000
,
1010
0000
1001
2000
3100
0200
0310
0020
,
0031
0002
2000
0000
0003
0000
3200
0000
,
M31M
0MM0
0210
0010
,
1000
0320
0032
0203
,
0320
2030
3020
0100
,
0001
0230
0302
0023
,
0230
2300
3200
0010
,
1000
0320
0032
0203
,
0320
2030
3020
0100
,
1000
0230
0300
0000
,
0000
0000
0220
0000
,
0000
0000
0000
0000
,
0000
0000
0000
0000
,
0000
0000
0000
0000
0000
0330
0000
0000
0000
0000
0000
0000
0000
0000
0000
0000
;

//--------------- dance-single - Melody Love ----------------
#NOTEDATA:;
#STEPSTYPE:dance-single;
#DESCRIPTION:Melody Love;
#DIFFICULTY:Hard;
#METER:15;
#RADARVALUES:0,0,0,0,0;
#NOTES:
0000
0000
0000
0000
,
0000
0000
0000
0000
,
0000
0000
0000
0000
,
2000
0100
0010
0001
,
0010
0100
3200
0010
,
0320
0001
0100
1000
,
0100
0001
0032
0100
,
0203
0010
1000
0010
,
0001
0010
0320
1000
,
2030
0100
0010
0001
,
3000
0000
0000
0000
,
1002
1000
0203
0010
,
0302
0000
0023
0000
0130
2000
0000
3020
,
0000
0100
2030
0100
,
3020
0000
0230
0000
0301
0020
0000
0230
,
0000
1000
0320
0001
,
0230
0000
2300
0000
3010
0200
0000
0302
,
0000
0000
0010
0000
1000
0000
0100
0003
,
2000
0010
0001
3100
,
1000
0100
1000
0100
0010
0001
1000
0100
,
0010
0001
0010
0001
1000
0100
0010
0001
,
1000
0010
1000
0010
0100
0001
1000
0010
,
0100
0001
0100
0001
1000
0010
0100
0001
,
0100
0001
0010
0010
0100
1000
0010
0010
,
0100
0001
0010
0010
0100
1000
0010
0010
,
0100
0001
0010
0100
1000
0010
0100
0001
0010
0100
1000
0010
0100
0001
0010
0100
,
1000
0010
0010
0010
0100
0001
1MM0
0000
,
M00M
0000
0000
0000
0000
0000
0000
0000
1MM1
0000
0000
0000
0000
0000
0000
0000
0100
0000
0000
0000
0010
0000
0010
0000
1000
0000
0000
1000
0100
0000
0100
0000
,
1000
0000
0000
1000
0010
0000
0000
0000
0100
0000
0000
0000
0000
0000
0000
0000
0001
0000
0000
0000
0010
0000
0010
0000
0100
0000
0000
0100
0010
0000
0010
0000
,
0001
0000
0000
0001
0100
0000
0000
0000
0010
0000
0000
0000
0000
0000
0000
0000
1000
0000
0000
0000
0001
0000
0000
0000
1000
0000
0000
0010
0000
0000
0010
0000
,
1000
0000
0000
1000
0100
0000
0000
0000
0010
0000
0000
0010
0001
0000
0001
0000
0100
0000
0000
0100
0010
0000
0010
0000
1000
0000
0000
0001
0000
0000
0100
0000
,
0000
0000
0000
0100
0010
0000
0000
0000
1000
0000
0000
0000
0000
0000
0000
0000
1100
0000
0000
0000
0100
0000
0100
0000
0010
0000
0000
0000
0100
0000
0000
0000
,
0110
0000
0000
0000
0010
0000
0000
0000
0011
0000
0010
0010
0100
0000
0010
0000
,
0110
0000
0000
0000
0000
0000
0000
0000
0100
0000
0000
0000
0000
0000
0000
0000
0011
0000
0000
0000
0001
0000
0000
0000
1000
0000
0000
0100
0000
0000
0000
0000
,
1100
0000
0000
0000
100M
2000
3010
0020
0200
0030
M301
0000
MMMM
0000
0000
0000
,
0102
0000
0000
0000
0000
0000
0000
0000
0013
0000
0000
0000
0100
0000
0100
0000
1000
0000
0000
1000
0100
0000
0100
0000
0001
0000
0000
0001
0100
0000
0000
0000
,
2000
0000
0000
0000
0000
0000
0000
0000
3010
0000
0000
0000
0100
0000
0100
0000
0001
0000
0000
0001
0100
0000
0100
0000
1000
0000
0000
1000
0100
0000
0000
0000
,
0002
0000
0000
0000
0000
0000
0000
0000
1003
0000
0000
0000
0001
0000
0000
0000
1000
0000
0000
0010
0000
0000
0010
0000
0100
0000
0000
0100
0001
0000
0000
0000
,
0010
0000
0000
0010
1000
0000
1000
0000
0010
0000
0000
0010
0100
0000
0100
0000
1000
0000
0000
0010
0000
0000
0100
0000
0000
0000
0000
0100
0010
0000
0000
0000
,
0200
0000
0000
0000
1300
0000
0100
0100
0010
0000
0100
0000
0110
0000
0000
0000
,
0020
0000
0000
0000
0031
0000
0010
0010
0100
0000
0010
0000
0110
0000
0000
0000
,
0100
0000
0000
0000
0000
0000
0000
0000
0101
0000
0000
0000
0001
0000
0000
0000
0010
0000
0000
0100
0000
0000
0000
0000
1100
0000
0000
0000
0000
0000
0000
0000
,
010M
0100
0020
M13M
,
0MM0
0000
0000
0000
0000
0000
0000
0000
M11M
0000
0000
0000
0000
0000
0000
0000
1000
0000
0000
0000
0100
0000
M100
0000
0001
0000
0000
0001
0010
0000
0010
0000
,
0100
0000
0000
0100
2000
0000
0000
0000
0010
0000
0000
0000
30M0
0000
0000
0000
0001
0000
0000
0000
0100
0000
010M
0000
1000
0000
0000
1000
0100
0000
0100
0000
,
0010
0000
0000
0010
0002
0000
0000
0000
0100
0000
0000
0000
0M03
0000
0000
0000
1000
0000
0000
0000
0001
0000
0000
0000
1000
0000
0000
0010
0000
0000
0010
0000
,
0100
0000
0000
0100
0001
0000
0000
0000
0010
0000
0000
0010
0100
0000
0100
0000
0010
0000
0000
0010
0001
0000
0001
0000
1000
0000
0000
1000
0100
0000
0100
0000
,
0010
0000
0000
0010
0001
0010
0100
0000
2000
0000
0000
0000
0000
0000
0000
0000
3010
0000
0000
0000
M0M0
0000
0000
0000
0102
0000
0000
0000
0000
0000
0000
0000
,
0103
0M0M
1020
0000
1030
M0M0
0021
0000
,
0130
0000
0000
0000
00M0
0000
0000
0000
1000
0000
0000
0000
0100
0000
1000
0000
0010
0000
0000
0000
0100
0000
0001
0000
0010
0000
0000
0010
0100
0000
0100
0000
,
0010
0000
0000
0010
0100
0000
0100
0000
0020
0000
0000
0000
0000
0000
0000
0000
0000
0000
0000
0000
0000
0000
0000
0000
0000
0000
0000
0000
0000
0000
0000
0000
,
0130
MMMM
0210
1000
,
0320
0001
0230
2300
,
3002
0203
0320
1000
,
0230
0001
0320
2030
,
3002
0023
0230
0001
,
0320
1000
0230
2300
,
3002
0203
0320
0001
,
0230
1000
0300
0000
,
0000
0000
0220
0000
,
0000
0000
0000
0000
,
0000
0000
0000
0000
,
0000
0000
0000
0000
0000
0330
0000
0000
0000
0000
0000
0000
0000
0000
0000
0000
;
