#TITLE:Paper Witch;
#SUBTITLE:;
#ARTIST:Yu-dachi;
#TITLETRANSLIT:;
#SUBTITLETRANSLIT:;
#ARTISTTRANSLIT:;
#GENRE:;
#CREDIT:;
#BANNER:Paper Witch.png;
#BACKGROUND:Paper Witch-bg.png;
#LYRICSPATH:;
#CDTITLE:;
#MUSIC:Paper Witch.mp3;
#OFFSET:-0.981000;
#SAMPLESTART:113.570000;
#SAMPLELENGTH:20.000000;
#SELECTABLE:YES;
#BPMS:0.000000=130.000000
;
#STOPS:
;
#BGCHANGES:;
#KEYSOUNDS:;
#ATTACKS:;

//---------------dance-single - ----------------
#NOTES:
     dance-single:
     :
     Hard:
     14:
     0.589333,0.668967,0.257833,0.325684,0.505489,608.000000,570.000000,38.000000,48.000000,0.000000,0.000000,0.589333,0.668967,0.257833,0.325684,0.505489,608.000000,570.000000,38.000000,48.000000,0.000000,0.000000:
// measure 0
0000
0000
0000
0000
,  // measure 1
0000
0000
0000
0000
,  // measure 2
0000
0000
0000
0000
,  // measure 3
0000
0000
0000
0000
0000
0000
0000
0000
0001
1000
0000
0010
0000
1000
0000
0001
,  // measure 4
0020
0000
0000
0230
0000
0000
1300
0001
,  // measure 5
0101
0000
0000
0010
0000
0000
1002
0000
0000
0000
0000
0000
0013
0000
0100
0000
,  // measure 6
1000
0000
0000
0010
0000
0000
0210
0000
0000
0000
0000
0000
0301
0000
1000
0000
,  // measure 7
0100
0000
0010
0100
0000
1000
0002
0000
0000
0000
0000
0000
0000
0000
0000
0000
,  // measure 8
0003
0000
1000
0010
,  // measure 9
0100
0000
0001
0000
1000
0100
0000
0010
0000
0010
0000
0000
0001
0000
1000
0000
,  // measure 10
0010
0000
0100
0000
0001
1000
0000
0100
0000
0100
0000
0000
0010
0000
0100
0000
,  // measure 11
1000
0000
0001
0000
0100
0001
0000
0010
0000
0010
0000
0000
0100
0000
1000
0000
,  // measure 12
0001
0000
0100
0000
0010
1000
0000
0100
0000
0100
0000
0000
0010
0000
0001
0000
,  // measure 13
2000
0000
3020
0000
0130
0001
0010
0200
,  // measure 14
0000
1300
0100
0020
0000
0031
1000
0010
,  // measure 15
0100
0002
0000
0000
1003
0000
0100
0000
,  // measure 16
0010
0000
0100
0000
1000
0001
0000
0100
0000
0100
0000
0000
0010
0000
1000
0000
,  // measure 17
0002
0000
0023
0000
0130
1000
0010
0200
,  // measure 18
0000
0301
0100
0020
0000
1030
0001
0010
,  // measure 19
0100
0000
2000
0000
0000
0000
0000
0000
3001
0000
0000
0000
0100
0000
0010
0100
,  // measure 20
0010
0000
1000
0010
1000
0000
0001
1000
0001
0000
0010
0001
0010
0000
0100
1000
,  // measure 21
0001
0100
0101
0001
1000
0100
0110
0010
,  // measure 22
0001
1000
1010
0010
0100
0001
1001
1000
,  // measure 23
0100
0000
0010
0000
0011
0000
0001
0000
1000
0000
0010
0000
0100
0000
0001
1000
,  // measure 24
0100
0000
0010
0001
1000
0000
0010
0000
0100
0000
0001
0100
0001
0100
0010
0000
,  // measure 25
1000
0100
1100
1000
0001
0100
0110
0010
,  // measure 26
1000
0001
0011
0010
0100
1000
1001
0001
,  // measure 27
0100
0010
1010
1000
0001
0010
0100
1000
,  // measure 28
0001
0100
0010
1000
0000
0000
0010
1000
0001
0010
0000
0100
1000
0001
1000
0000
,  // measure 29
0002
0000
0000
0000
0000
0000
0103
0001
0100
0000
0001
0000
1000
0000
0100
0000
,  // measure 30
0110
0000
0000
0100
0000
0000
1100
0000
0000
0000
0000
0000
1000
0000
0002
0000
,  // measure 31
0000
0203
0000
0000
0320
0000
1030
0000
,  // measure 32
1100
0000
0000
0010
0000
0000
2002
0000
0000
0000
0000
0000
3003
0000
0000
0000
,  // measure 33
0001
0001
0100
0100
0010
1000
0100
0001
,  // measure 34
0100
0100
1000
1000
0010
0100
1000
0100
,  // measure 35
0001
1000
0100
0000
0010
0001
1000
0000
0001
0100
0010
1000
0100
1000
0001
0100
,  // measure 36
0010
0000
0000
0000
,  // measure 37
0120
2030
0001
3020
0000
0130
0001
1000
,  // measure 38
1100
0000
0000
0010
0000
0000
0021
0000
0000
0000
0000
0000
0130
0000
0000
0000
,  // measure 39
0120
0032
1000
0023
0000
0130
1000
0001
,  // measure 40
0101
0000
0000
0010
0000
0000
1020
0000
0000
0000
0000
0000
0130
0000
0000
0000
,  // measure 41
1002
0023
0100
0032
0000
1003
0010
0100
,  // measure 42
0101
0000
0000
0001
0000
0000
1001
0000
0000
0000
1000
0000
0100
0000
0010
0000
,  // measure 43
0011
0001
1000
0010
0100
0001
1000
0100
,  // measure 44
0110
0000
0000
0010
0000
0000
2002
0000
0000
0000
0000
0000
3003
0000
0000
0000
,  // measure 45
2010
0000
3002
0000
0010
0000
1003
0000
0001
0000
0100
0000
0010
1000
0100
0010
,  // measure 46
0001
0000
0000
0100
0000
0000
0201
0000
0000
0000
0000
0000
0301
0000
0000
0000
,  // measure 47
0012
0000
2003
0000
0010
0000
3001
0000
1000
0000
0100
0000
0010
0001
0100
0010
,  // measure 48
1000
0000
0000
0100
0000
0000
1200
0000
0000
0000
0000
0000
1300
0000
0000
0000
,  // measure 49
1200
0000
0320
0000
0001
0000
0130
0000
1000
0000
0001
0000
0100
0001
0010
0100
,  // measure 50
1000
0000
0000
0001
0000
0000
0201
0000
0000
0000
0310
0000
1000
0000
0001
0000
,  // measure 51
0010
0010
0100
0100
1000
0100
0010
0001
,  // measure 52
1000
0001
0100
0000
0001
1000
0010
0000
1000
0001
0100
0001
0010
0100
1000
0001
,  // measure 53
0100
0000
0000
0000
,  // measure 54
0010
0000
0000
0000
,  // measure 55
1000
0000
0100
0000
0010
0000
0001
0000
0100
0000
0010
0000
,  // measure 56
1000
0000
0001
0000
0100
0000
0210
0000
0000
0302
0000
0000
,  // measure 57
1003
0010
1000
0100
0001
0100
0010
0001
,  // measure 58
0100
0001
1000
0010
0001
0010
1000
0001
,  // measure 59
0010
0100
0010
0100
1000
0000
0001
0000
0100
0010
0100
0010
1000
0000
0001
0000
,  // measure 60
0010
0100
1000
0001
0100
0010
1000
0100
0020
0000
0000
0000
0230
0000
0000
0000
,  // measure 61
1300
0001
0100
0001
0000
0000
1000
0001
0100
0001
0000
1000
0100
0000
0010
0000
,  // measure 62
0001
0100
0010
0100
0000
0001
1000
0000
0001
0000
0010
0001
0010
0100
1000
0000
,  // measure 63
0001
1000
0100
1000
0000
0000
0001
1000
0100
1000
0000
0001
0100
0000
0010
0000
,  // measure 64
1000
0100
0010
0100
0000
1000
0100
0000
1000
0010
0100
0001
0010
0100
1000
0000
,  // measure 65
0001
0100
0010
1000
0000
0000
0001
0100
0010
1000
0000
0001
1000
0000
0100
0000
,  // measure 66
1000
0001
0010
0100
0000
1000
0001
0000
1000
0000
0010
1000
0010
0100
0001
0000
,  // measure 67
1000
0100
0010
0001
0000
0000
1000
0100
0010
0001
0000
1000
0001
0000
0100
0000
,  // measure 68
0001
1000
0010
0100
0000
0001
0010
0000
0001
1000
0000
0010
0000
0100
0010
0000
,  // measure 69
1000
0000
0100
0000
0010
0001
0100
0001
1000
0000
0010
0000
0100
0000
0001
0000
,  // measure 70
1000
0000
0100
0010
0000
0001
0010
0000
0001
0000
0100
0010
1000
0100
0010
0000
,  // measure 71
0100
0000
1000
0000
0001
0000
0100
0000
0010
0100
0001
1000
0100
0000
0010
0000
,  // measure 72
0001
0000
1000
0010
0000
0100
0001
0000
0100
0001
0010
0100
1000
0010
0100
0000
,  // measure 73
0001
0000
0010
0000
0100
1000
0010
1000
0001
0000
1000
0000
0100
0000
0010
0000
,  // measure 74
0001
0000
0100
0010
0000
1000
0100
0000
0010
0000
0100
1000
0010
0100
0001
0000
,  // measure 75
0100
0000
0000
0110
0000
0000
1000
0000
0000
1100
0000
0000
0100
0000
0010
0000
,  // measure 76
0001
0100
0010
0100
0000
0001
1000
0000
0100
0001
0000
0100
0000
1000
0010
0000
,  // measure 77
0200
0000
0000
0000
,  // measure 78
0000
0000
0000
0000
0000
0000
0000
0300
;
