#TITLE:Padam Padam;
#SUBTITLE:;
#ARTIST:Kylie Minogue;
#TITLETRANSLIT:;
#SUBTITLETRANSLIT:;
#ARTISTTRANSLIT:;
#GENRE:Pop;
#CREDIT:Melody Love;
#MUSIC:Padam Padam.ogg;
#BANNER:Padam Padam.png;
#BACKGROUND:Padam Padam-bg.png;
#CDTITLE:;
#SAMPLESTART:48.529;
#SAMPLELENGTH:16.873;
#SELECTABLE:YES;
#OFFSET:-0.252;
#BPMS:0.000=128.018
,96.000=64.009
,100.000=128.018
,200.000=64.009
,204.000=128.018
;
#STOPS:;
#JACKET:Padam Padam-jacket.png;
#BGCHANGES:-0.951=Padam Padam.avi=1.000=1=0=0=StretchNoLoop==CrossFade==,
99999.000=-nosongbg-=1.000=0=0=0=StretchNoLoop====
;
#FGCHANGES:;

//--------------- dance-single - Melody Love ----------------
#NOTES:
     dance-single:
     Melody Love:
     Beginner:
     3:
     0,0,0,0,0:
0000
0000
0000
0000
,
0000
0000
0000
0000
,
0000
0000
0000
0000
,
0000
0000
0000
0000
,
0000
0000
0000
0000
,
0000
0000
0000
0000
,
0000
0000
0000
0000
,
0000
0000
0000
0000
,
0100
0000
0000
0000
,
0100
0000
0000
0000
,
0010
0000
0000
0000
,
0010
0000
0000
0000
,
1000
0000
0000
0000
,
1000
0000
0000
0000
,
0001
0000
0000
0000
,
0001
0000
0000
0000
,
0100
0000
0000
0000
,
0100
0000
0000
0000
,
0010
0000
0000
0000
,
0010
0000
0000
0000
,
1000
0000
0000
0000
,
1000
0000
0000
0000
,
0001
0000
0000
0000
,
0001
0000
0000
0000
,
1001
0000
0000
0000
,
1001
0000
0000
0000
,
0100
0000
0100
0000
,
0010
0000
0000
0000
,
0100
0000
0100
0000
,
0001
0000
0000
0000
,
0100
0000
0100
0000
,
0010
0000
0000
0000
,
0100
0000
0001
0000
,
1000
0000
0000
0000
,
1000
0000
1000
0000
,
1000
0000
0000
0000
,
0001
0000
0001
0000
,
0001
0000
0000
0000
,
0100
0000
0100
0000
,
0100
0000
0000
0000
,
0010
0000
0010
0000
,
0010
0000
0000
0000
,
0010
0000
1000
0000
,
0010
0000
0000
0000
,
0100
0000
0001
0000
,
0100
0000
0000
0000
,
0010
0000
0100
0000
,
0010
0000
0000
0000
,
1000
0000
0001
0000
,
1000
0000
0000
0000
,
1001
0000
0100
0000
,
0010
0000
0000
0000
,
1000
0000
0001
0000
,
1000
0000
0000
0000
,
0010
0000
0100
0000
,
0010
0000
0000
0000
,
0100
0000
0001
0000
,
0100
0000
0000
0000
,
0010
0000
1000
0000
,
0010
0000
0010
0000
,
1000
0000
1000
0000
,
0100
0000
0100
0000
,
0010
0000
0010
0000
,
0001
0000
0001
0000
,
0100
0000
0100
0000
,
0010
0000
1000
0000
,
0001
0000
0000
0000
,
1001
0000
0000
0000
,
0000
0000
0000
0000
,
0100
0000
0100
0000
,
0100
0000
0100
0000
,
0001
0000
0001
0000
,
0001
0000
0001
0000
,
0010
0000
0010
0000
,
0010
0000
0010
0000
,
0100
0000
0000
0000
;

//--------------- dance-single - Melody Love ----------------
#NOTES:
     dance-single:
     Melody Love:
     Easy:
     6:
     0,0,0,0,0:
0000
0000
0000
0000
,
0000
0000
0000
0000
,
0000
0000
0000
0000
,
0000
0000
0000
0000
,
0000
0000
0000
0000
,
0000
0000
0000
0000
,
0000
0000
0000
0000
,
0000
0000
0000
0000
,
0020
0100
0130
0000
,
0200
0010
0310
0000
,
0020
1000
1030
0000
,
2000
0100
3100
0000
,
1100
0000
0100
0100
,
0020
0230
0320
0000
,
0000
0030
0000
0000
0010
0000
0010
0000
,
0200
0320
0230
0320
,
0031
0001
1000
1000
,
0100
0010
0100
0010
,
0001
0001
1000
1000
,
0010
0100
0010
0100
,
0110
0000
1000
1000
,
0002
2003
3002
0000
,
0000
0003
0000
0000
0001
0000
0001
0000
,
2000
0000
3002
0000
2003
0000
0000
3000
,
0100
0000
0010
0000
,
0110
0000
0110
0000
,
1000
0001
1000
0000
,
1001
0000
1001
0000
,
0100
0010
0100
0100
,
0010
0000
1001
0000
,
1000
0001
1000
0000
,
0110
0000
0110
0000
,
0010
0100
0010
0100
,
1001
0000
0000
0000
,
1000
1000
0100
1000
,
0001
0001
0010
0001
,
1000
1000
0010
1000
,
0001
0001
0100
0001
,
0101
0000
1000
1000
,
0010
1000
0020
0000
,
0030
0100
0100
0001
,
0100
0001
0100
0002
,
0013
0010
0100
0100
,
0010
0100
0010
0001
,
1000
1000
0001
0001
,
1000
0001
1000
0010
,
1010
0000
0001
0010
,
0100
1000
2000
0000
,
0000
3000
0000
0000
1000
0000
0100
0000
,
0010
0001
0002
0000
,
1003
1000
0001
1000
,
1001
0000
1001
0000
,
0100
0010
0100
0000
,
0110
0000
0110
0000
,
0100
0010
1000
0001
,
1000
0100
0010
0100
,
0010
0100
0010
0000
,
1001
0000
1001
0000
,
0100
0010
1000
0001
,
0200
0310
0020
0130
,
2000
3001
0002
1003
,
0200
0301
0002
1003
,
2000
3100
0200
0310
,
0020
0030
0110
0000
,
1000
0001
0200
0320
,
0130
0000
0110
0000
,
1000
0100
0010
0100
,
0110
0100
1000
1000
,
1000
1000
1000
1000
,
1001
0100
0001
0001
,
0001
0001
0001
0001
,
0101
0010
0100
0100
,
0100
0100
0100
0100
,
0110
1000
0010
0010
,
0010
0010
0010
0020
,
0030
0000
0000
0000
;

//--------------- dance-single - Melody Love ----------------
#NOTES:
     dance-single:
     Melody Love:
     Medium:
     10:
     0,0,0,0,0:
0000
0000
0000
0000
,
0000
0000
0000
0000
,
0000
0000
0000
0000
,
0000
0000
0000
0000
,
0000
0000
0000
0000
,
0000
0000
0000
0000
,
0000
0000
0000
0000
,
0000
0000
0000
0000
,
0000
0000
0001
0000
0000
1000
0000
0000
,
0010
0000
0000
0100
0000
0001
0100
0010
,
0000
0000
1000
0000
0000
0001
0000
0000
,
0010
0000
0000
0100
0000
0000
1000
1100
,
0000
0000
0000
1000
0100
1000
0100
0000
,
0200
0320
0032
0000
,
0000
0003
0000
0000
0001
0010
0001
0000
,
0002
0023
0230
2300
,
3000
0000
0010
0000
0000
0100
0000
0000
,
0010
0000
0100
0001
0000
1000
0010
1000
,
0000
0000
0100
0000
0000
0010
0000
0000
,
0100
0000
0000
0010
0000
0001
0000
0011
,
0000
0000
0000
0001
0010
0001
0010
0000
,
0020
0230
2300
0000
,
0000
3000
0000
1000
0100
1000
0100
0000
,
0200
0000
0320
0000
0032
0000
0000
1003
,
2000
3000
0000
0000
0000
0000
0000
0000
0010
0000
0000
0000
0000
0000
0000
0000
,
0002
0103
0020
0130
0002
0103
0010
0000
,
1000
0001
1000
0000
1001
0000
0000
0000
,
2000
3010
0200
0310
2000
3010
0100
0000
,
0001
1000
0001
0000
0011
0000
0100
0000
,
1100
0000
0000
1000
0100
0000
0000
0010
,
0100
0010
0100
0000
0020
0000
0030
0000
,
0002
1003
0200
1300
0002
1003
0100
0000
,
1000
0100
0010
0000
0001
0010
0200
0000
,
0310
0000
0000
0000
,
0100
0010
0000
0010
0000
0100
0010
0000
,
0001
0010
0000
0010
0000
0001
0010
0000
,
0001
1000
0000
1000
0000
0001
1000
0000
,
0010
1000
0000
1000
0000
0010
0000
0101
,
0000
0000
0000
0001
0100
0001
0010
0001
,
0020
0230
2300
0000
,
3000
0000
1000
0100
1000
0010
1000
0000
,
0200
0320
0032
0203
,
0310
0100
0010
0000
0000
0200
0000
0300
,
0001
1000
0001
0000
0000
2000
0000
3000
,
0100
0010
0100
0000
0000
0020
0000
0030
,
0001
1000
0001
2000
0000
3200
0000
0320
,
0000
0030
0000
0100
0010
0100
0010
0000
,
0002
2003
3002
0000
,
0000
0003
0000
1000
0001
1000
0001
0000
,
0020
0000
0230
0000
0310
0020
0000
0000
,
0130
0000
0000
0000
0100
0000
0000
0000
0010
0000
0100
0000
0010
0100
0010
0000
,
0200
1300
0020
1030
0200
1300
0010
0000
,
0100
0010
0100
0000
0110
0000
0000
0000
,
0002
0103
0020
0130
0002
0103
0010
0000
,
0100
0010
0100
0000
1010
0000
0100
0000
,
0101
2000
3002
0103
,
0010
0100
0010
0000
0200
0000
0300
0000
,
0002
0103
0020
0130
0002
0103
0010
0000
,
2000
3200
0320
0230
,
2300
3100
0020
0031
2000
3100
0020
0030
,
0002
0013
0200
1300
0002
0013
0200
0300
,
2000
3010
0200
0301
2000
3010
0200
0300
,
0002
0103
0020
1030
0200
0000
0320
0000
,
0032
0000
0003
1000
0100
0000
0000
0010
,
0100
0010
0200
0000
0310
0100
0020
0000
,
0032
0103
0020
1030
0002
0103
0010
0000
,
2000
3100
0020
0031
2000
3100
0010
0000
,
0110
0000
0010
0001
0010
0100
0010
0000
,
0100
1000
0100
0010
0100
0000
0010
0000
,
1001
0000
1000
0010
1000
0100
1000
0000
,
0001
0100
0001
0010
0001
0000
1000
0000
,
0110
0000
0100
0001
0100
0010
0100
0000
,
0010
1000
0010
0100
0010
0000
0100
0000
,
1001
0000
0001
0100
0010
0100
0001
0000
,
1000
0010
0100
0010
1000
0000
2020
0000
,
0000
0000
0000
3030
;

//--------------- dance-single - Melody Love ----------------
#NOTES:
     dance-single:
     Melody Love:
     Hard:
     12:
     0,0,0,0,0:
0000
0000
0000
0000
,
0000
0000
0000
0000
,
0000
0000
0000
0000
,
0000
0000
0000
0000
,
0000
0000
0000
0000
,
0000
0000
0000
0000
,
0000
0000
0000
0000
,
0000
0000
0000
0000
,
0100
0100
0100
0100
,
0020
0030
2000
3002
0003
0100
0010
0100
,
0010
0010
0010
0010
,
0200
0300
0002
2003
3000
0000
1000
0101
,
0000
0000
0000
0100
0010
0100
1000
0100
,
0020
2030
3200
0000
,
0000
0300
0000
0000
0010
0001
0010
0100
,
0020
0032
0203
0320
,
1030
0100
1000
0001
0100
0001
1000
0100
,
0020
0000
0130
0200
0000
0010
0010
0310
,
0000
0001
0100
0001
1000
0100
1000
0001
,
0100
0002
0000
2003
0000
3200
0000
0320
,
0000
0030
0000
0010
0001
0010
1000
0010
,
0002
0203
0320
0000
,
0000
0030
0000
0100
0001
0100
1000
0100
,
0002
0000
0023
0000
0230
0000
0000
1300
,
2000
0000
3000
0000
0000
0000
0000
0000
0000
0000
0000
0000
0000
0000
0000
0100
0200
0000
0300
0000
0000
0000
0000
0000
0000
0000
0000
0000
0000
0000
1000
0000
,
1100
1000
0001
1000
1100
0000
1000
0000
,
0100
0001
0100
1000
0100
0000
0010
0001
,
0011
0001
1000
0001
0011
0000
1000
0000
,
0010
0001
0010
1000
0020
0000
2030
0000
,
3001
0000
0001
1000
1010
0000
1000
0001
,
0101
0001
0100
0010
1010
0000
1000
0001
,
0101
0001
1000
0001
0101
0000
1000
0010
,
0100
0001
0100
0010
1000
0010
0100
0000
,
0110
0000
0000
0000
,
1000
0001
1000
0000
1000
0000
0100
0000
,
0100
0010
0100
0010
0000
0100
0010
0100
,
0010
0001
0010
0000
0010
0000
0001
0000
,
0001
1000
0001
1000
0000
1000
0000
0101
,
0000
0000
0000
0001
0010
0001
1000
0001
,
0010
0020
0130
0200
0300
0010
0001
1000
,
0010
0010
1000
0010
1000
0100
1000
0001
,
0100
0100
0010
0020
0030
1000
0001
0001
,
0100
0010
0100
0001
0100
0010
1000
0100
,
0010
0100
0010
1000
0010
0100
0010
0001
,
0100
0010
0100
0001
0100
0010
1000
0100
,
0010
0200
0000
0302
0000
0203
0000
2300
,
0000
3001
0001
0100
0010
0100
1000
0100
,
0020
0230
0302
0000
,
0010
0013
0000
0010
0100
0010
0001
0010
,
0200
0000
2300
0000
3010
0020
0000
0130
,
0110
0000
0000
0100
0110
0000
0000
0100
0110
0000
0110
0000
0100
0010
0100
0110
,
1010
1000
0001
0100
0101
0000
1000
0000
,
0100
0001
0100
1000
0100
0000
0010
0001
,
0011
0001
1000
0100
1100
0000
1000
0000
,
0010
0001
0010
1000
0020
0000
2030
0000
,
3001
0000
0002
1003
2010
0000
3010
0100
,
0101
0001
0100
0010
1010
0000
1000
0001
,
0101
0001
1000
0100
1100
0000
1000
0010
,
0100
0001
0100
0010
1000
0001
0100
0010
,
1010
1000
0100
0010
0011
0001
0010
0100
,
1100
1000
0010
0100
0101
0001
0100
0010
,
1010
1000
0100
0010
0011
0001
0010
0100
,
1100
1000
0010
0100
0101
0000
1001
0000
,
1010
0000
0010
0100
0110
0000
0001
0100
,
0102
0023
0230
1300
2100
3200
0320
0031
,
0011
0001
1000
0010
1010
0000
1000
0001
,
0101
0100
0002
0000
0023
0000
0130
0000
,
0011
1000
1100
0200
0310
0200
1300
0200
,
0310
0200
1300
0200
0310
0200
1300
0010
,
0200
0301
0200
0310
0200
0301
0200
0310
,
0200
0301
0200
0310
0200
0301
0010
0100
,
1000
0020
0130
0020
1030
0020
0130
0020
,
1030
0020
0130
0020
1030
0020
0130
0001
,
0020
0130
0020
0031
0020
0130
0020
0031
,
0020
0130
0020
0031
0020
0130
2000
0002
,
0000
0000
0000
3003
;
