#VERSION:0.83;
#TITLE:POTENTIAL;
#SUBTITLE:;
#ARTIST:TAG;
#TITLETRANSLIT:;
#SUBTITLETRANSLIT:;
#ARTISTTRANSLIT:;
#GENRE:;
#CREDIT:;
#MUSIC:POTENTIAL.ogg;
#BANNER:POTENTIAL.png;
#BACKGROUND:POTENTIAL-bg.png;
#CDTITLE:cdtitle.png;
#SAMPLESTART:95.599;
#SAMPLELENGTH:10.350;
#SELECTABLE:YES;
#OFFSET:-0.074;
#BPMS:0.000=100.000
,16.000=95.000
,18.000=90.000
,19.000=85.000
,20.000=80.000
,22.000=100.000
,24.000=200.000
,156.000=150.000
,220.000=155.000
,224.000=160.000
,228.000=165.000
,232.000=170.000
,236.000=180.000
,240.000=185.000
,244.000=190.000
,248.000=195.000
,252.000=200.000
,260.000=400.000
,270.000=200.000
,304.000=100.000
,307.500=200.000
;
#STOPS:48.000=0.300
,301.750=0.150
,302.750=0.150
,307.500=0.150
,391.500=0.150
;
#TIMESIGNATURES:127.000=7=4,
148.000=4=4
;
#DISPLAYBPM:80.000:200.000;
#JACKET:POTENTIAL-jacket.png;
#BGCHANGES:;
#FGCHANGES:;

//--------------- dance-single - MEGAtive ----------------
#NOTEDATA:;
#STEPSTYPE:dance-single;
#DESCRIPTION:MEGAtive;
#DIFFICULTY:Beginner;
#METER:8;
#RADARVALUES:0,0,0,0,0;
#NOTES:
0000
0000
0000
0000
,
0000
0000
0000
0000
,
0000
0000
0000
0000
,
0000
0000
0000
0000
,
0002
0000
0203
0000
,
0320
0000
2030
0000
,
0000
0000
0000
0000
,
3000
0000
0000
0000
,
1001
0000
0000
0000
,
0000
0000
0000
0000
,
0000
0000
0000
0000
,
0000
0000
0000
0000
,
0000
1001
0000
0000
0000
0000
0000
0000
,
0000
0000
0000
1001
,
0000
1000
0000
0000
1000
0000
0000
1000
,
0000
0000
0000
0001
0010
0000
0100
0000
,
0100
0010
0001
1000
,
0001
0100
0010
1000
,
0001
1000
0100
0100
,
1000
0001
1000
0010
,
0010
0100
0001
1000
,
0001
0010
0100
1000
,
1000
0001
0001
0200
,
0000
0000
0000
0310
,
1000
0001
1000
0100
,
0010
0001
1000
0001
,
0000
1001
0000
1000
0000
0001
0000
0100
,
0010
1000
0001
1000
,
0100
0010
0100
1000
,
0001
0010
0100
1000
,
0001
0100
0010
0100
,
0001
0000
1000
0000
0010
0000
0100
0001
,
0000
1000
0000
0001
0000
1000
0000
0001
,
0000
0001
1000
0000
1000
0001
0000
1000
,
0000
0001
0000
1000
0000
0001
0000
0001
,
0010
0000
0100
0010
0000
0100
0000
0010
,
0000
0100
0000
0010
0000
0010
0100
0000
,
0100
0010
0000
0100
0000
0010
0000
0100
,
2000
0000
0000
0000
,
3001
0000
0000
0000
,
0000
0000
0000
0000
,
0000
0000
0000
0000
,
0000
0000
0000
0000
,
2000
0000
0000
0000
,
3020
0000
0000
0000
,
0230
0000
0000
0000
,
0302
0000
0000
0000
,
1003
0100
0010
0001
,
1000
0001
0100
0010
,
1000
0001
0010
0100
,
1000
0001
1000
0010
,
0100
0001
0010
0100
,
1000
0001
1000
0010
,
0100
0010
1000
0001
,
0010
0100
1000
0001
,
1000
1000
0001
0001
,
0100
0100
0010
1000
,
0100
0100
0010
0010
,
0001
0001
1000
0100
,
0010
0001
0010
0001
,
1000
0010
1000
0010
,
0100
0001
0010
0100
,
1000
1000
0001
0001
,
1000
0000
0000
0000
,
0000
0000
0000
0000
,
0000
0000
0000
0000
,
0000
0000
0000
0000
,
0000
0000
0000
0000
,
0000
0001
0010
0100
,
1000
0010
1000
0100
,
1000
0001
1000
0100
,
0010
0001
0100
0001
,
0010
0100
1000
0001
,
0010
0100
1000
0010
,
0100
0001
0010
0100
,
1000
0010
0010
0010
,
2000
0000
0000
0000
0000
0000
0000
3000
,
0001
0010
0100
1000
,
0010
1000
0100
0010
,
0002
0000
0000
0000
,
0000
0000
0000
0000
,
0203
0000
0320
0000
,
1030
0000
0000
0000
,
0001
0000
0000
0001
0000
0000
0001
0000
,
0000
0001
0000
0000
0001
0000
0010
0000
,
0100
0000
0000
0100
0000
0000
0100
0000
,
0000
0100
0000
0000
0100
0000
1000
0000
,
0010
0000
0000
0010
0000
0000
0010
0000
,
0000
0010
0000
0000
0010
0000
1000
0000
,
0001
0000
0000
0001
0000
0000
0001
0000
,
2002
0000
0000
0000
,
3003
0000
0000
0000
,
0000
0000
0000
0000
,
0000
0000
0000
0000
,
0000
0000
0000
0000
,
0001
0000
0010
0000
0001
1000
0000
0010
,
0000
0100
0000
0010
1000
0001
0000
1000
,
0100
0000
0010
0000
0001
1000
0000
0010
,
1000
0001
1000
0002
0000
0003
0000
0000
;

//--------------- dance-single - MEGAtive ----------------
#NOTEDATA:;
#STEPSTYPE:dance-single;
#DESCRIPTION:MEGAtive;
#DIFFICULTY:Easy;
#METER:11;
#RADARVALUES:0,0,0,0,0;
#NOTES:
0000
0000
0000
0000
,
0000
0000
0000
0000
,
0000
0000
0000
0000
,
0000
0000
0000
0000
,
2000
0000
3002
0000
,
0203
0000
0020
0000
,
0000
0000
0000
0000
,
0330
0000
0000
0000
,
1001
0000
0000
0000
,
0000
0000
0000
0000
,
0000
0000
0000
0000
,
0000
0000
0000
0000
0000
0000
0001
0010
,
0100
0110
0000
0000
0000
0000
0000
0000
,
0000
0000
0000
0000
1000
0000
1000
0010
,
0000
0100
0001
0000
1000
0100
0000
0010
,
0001
0000
0000
0100
0010
0000
1001
0000
,
0001
0000
1000
0100
0000
0010
0000
0010
,
0000
0100
1000
0010
0000
0100
0001
0000
,
0001
0000
0010
0100
0000
1000
0000
1000
,
0000
0001
0010
0100
0000
1000
0001
0000
,
1000
0000
0001
0100
0000
0010
0000
0010
,
0000
0100
0001
0010
0000
0100
1000
0000
,
1000
0000
0010
0100
0000
0001
0000
0001
,
0000
1000
0010
0100
0002
0000
1003
0000
,
0100
0010
0100
0000
1000
0001
0100
0000
,
0010
1000
0001
1000
0001
0000
0010
0000
,
0100
0100
0000
0010
0000
0002
0000
1000
,
1003
0020
0230
0302
,
1000
0010
1000
0100
,
2003
3200
0320
0032
,
1000
0100
1000
0023
,
0100
0000
0001
0000
0100
0000
0031
1000
,
0000
1100
0000
0010
0000
0001
0000
0010
,
0100
1000
0001
0000
0100
0010
0000
0101
,
0000
1000
0000
0001
0000
1000
0001
0100
,
0010
1000
0001
0010
0000
0011
0000
0100
,
0000
1000
0000
0001
1000
0100
0010
0000
,
0100
1000
0000
0101
0000
0001
0000
1000
,
1000
0000
0010
0000
0100
0000
0001
0000
0010
0000
0100
0000
,
2000
0000
0000
0000
,
3200
0000
0000
0000
,
0320
0000
0000
0000
,
0032
0000
0000
0000
,
1003
1000
0001
0001
,
0100
0100
0010
0010
,
1000
0001
0100
0000
0001
1000
0100
0000
,
0010
0000
0000
0010
0000
0000
0001
0000
0100
0000
0000
0100
0000
0000
0010
0000
,
1000
0000
0001
0000
0010
0000
0000
0100
0000
0010
0000
0000
0001
0000
1000
0000
,
0010
0000
0100
0000
0001
0000
0000
1000
0000
0010
0000
0000
0100
0000
0001
0000
,
1000
0000
0001
0000
0010
0000
0000
0100
0000
1000
0000
0000
0001
0000
1000
0000
,
0010
0000
0100
0000
0001
0000
0000
1000
0000
0100
0000
0000
1000
0000
0001
0000
,
0010
0000
1000
0000
0010
0000
0000
0001
0000
1000
0000
0000
0001
0000
0100
0000
,
0010
0000
0001
0000
0010
0000
0000
1000
0000
0100
0000
0000
0010
0000
0001
0000
,
1000
0000
0001
0000
0100
0000
0000
0001
0000
1000
0000
0000
0100
0000
0010
0000
,
0001
0000
0000
0001
0000
0000
1000
0000
0000
1000
0000
0000
0100
0000
0010
0000
,
0001
0000
0011
0000
1000
0000
1010
0010
,
0100
0110
0001
0101
,
1000
0000
1100
0000
0001
0000
0011
0010
,
0100
0110
1000
1100
,
0001
0010
0100
0000
1000
0001
1000
0000
,
0001
0100
0010
0000
1000
0001
1000
0000
,
0001
0010
0100
1000
0001
0010
0100
1000
,
0001
0001
1000
1000
,
0002
0000
0000
0000
,
0000
0000
0000
0000
,
0003
0000
0000
0000
,
0000
0000
0000
0000
,
0000
0000
0000
0000
,
0000
0000
1000
0100
0010
0000
0001
1000
,
0001
1000
0020
0000
0230
0000
0302
0000
,
2003
0000
3100
0000
0010
0100
0000
0010
,
0100
0000
1000
0000
0001
0100
0010
0000
,
2000
0000
3001
0000
0010
0100
0000
0010
,
0001
0000
1000
0000
0010
0100
0000
0010
,
1000
0000
0001
0000
1000
0100
0000
0010
,
0100
0000
1000
0000
0002
0003
0000
0000
2002
3003
0000
0000
2000
3000
0000
0000
,
1002
0000
0000
0000
0203
0000
0000
0300
,
1001
0000
1000
0100
0000
0010
0001
0000
,
1000
0000
0001
0100
0001
0000
1000
0000
,
0002
0000
0000
0000
,
0000
0000
0000
0000
,
1003
0100
0010
0001
1000
0100
0010
0001
,
2000
0000
0000
0010
0000
0010
0000
0000
,
3002
0000
0003
0020
0000
0030
0200
0000
,
0300
2000
0000
3000
0002
0000
1000
0000
,
2003
0000
3000
0020
0000
0030
0200
0000
,
0300
0002
0000
0003
2000
0000
0001
0000
,
3002
0000
0003
0020
0000
0030
0200
0000
,
0300
2000
0000
3000
0002
0000
1000
0000
,
2003
0000
3000
0002
0000
0003
0200
0000
,
0020
0000
0000
0330
,
2002
0000
0000
0000
,
0000
0000
0000
0000
,
0000
0000
0000
0000
,
0000
0000
0000
3003
,
0001
0010
0001
0010
0100
1000
0001
1000
,
0100
0010
0001
1000
0001
0010
0100
1000
,
0001
0100
0010
1000
0001
1000
0100
0010
,
0001
1000
0001
2000
0000
3000
0000
0000
;

//--------------- dance-single - Frondal x MEGAtive ----------------
#NOTEDATA:;
#STEPSTYPE:dance-single;
#DESCRIPTION:Frondal x MEGAtive;
#DIFFICULTY:Medium;
#METER:15;
#RADARVALUES:0,0,0,0,0;
#NOTES:
0000
0000
0000
0000
,
0000
0000
0000
0000
,
0000
0000
0000
0000
,
0000
0000
0000
0000
,
0002
1000
0023
0100
,
0032
2003
0020
0000
,
0000
0000
0000
0000
,
0000
0000
0000
3030
,
0001
0000
1000
0000
0100
0010
0001
0000
,
1000
0001
0000
0010
0001
0000
1000
0001
,
0100
0000
0010
1000
0000
0001
1000
0000
,
0010
1000
0000
0001
1000
0000
0010
0100
,
0001
2001
0000
3001
0010
0000
0100
0010
,
0000
0001
0010
0000
0100
0010
0001
0001
,
0000
0100
0100
0000
0010
0010
0000
1000
,
2000
0000
0000
3001
0011
0000
1000
0010
,
0100
0001
0010
0100
0000
0100
1000
0010
,
0100
0001
0010
0100
0000
0001
0100
1000
,
0010
0100
1000
0100
0000
0101
0000
1001
,
0000
1100
0100
0010
0001
1000
0001
0100
,
0001
1000
0010
0100
0000
0100
0001
0010
,
0100
1000
0001
0010
0000
1000
0010
0100
,
1000
0000
0010
0000
0100
0000
0100
0000
0001
1000
0001
0000
0020
0000
0230
0000
,
0320
0000
0230
0000
1300
0000
0010
0000
0100
0001
0100
0001
2000
0000
0000
0000
,
3001
1000
0100
0010
0100
0002
0000
0103
,
0010
0100
1000
0001
0100
0010
1000
1000
,
0001
0010
0000
0110
0000
1002
0000
0103
,
0100
0010
1000
0001
0010
0001
1000
0100
,
1000
0010
0100
0001
1000
0100
0010
0001
,
1000
0001
0100
0010
0100
0001
0010
0100
,
0010
0001
1000
0001
0100
0001
0010
0100
,
1000
0000
0001
0000
1000
0000
0010
0000
1000
0001
1000
0000
0010
0000
1010
0000
,
0000
1100
0000
0101
0000
1100
0000
0001
,
0010
0100
1002
0000
0103
0101
0000
1010
,
0000
0011
0000
1010
0000
0001
0100
0010
,
1000
1000
0001
0011
0000
1010
0000
1001
,
0000
0000
1100
0000
0000
0000
0101
0000
0001
0000
1000
0000
0010
0000
0100
0001
,
1000
1100
0000
0101
0000
1001
0000
0011
,
1010
0000
1000
0000
1000
0000
0001
0000
0001
0000
0001
0000
,
2100
0000
0000
0000
,
3002
0000
0000
0000
,
0203
0000
0000
0000
,
0320
0000
0000
0000
,
1030
0001
1000
0001
1000
0001
1000
0001
,
0010
0100
0010
0100
0010
0100
0010
0100
,
1000
0100
1000
0000
0001
0100
0001
0000
1000
0010
1000
0000
0001
0010
0001
0000
,
1000
0000
0000
1100
0000
0000
0001
0000
1001
0000
0000
0110
0000
0000
1001
0000
,
1000
0100
0010
1000
0010
0100
0001
0100
,
1000
0010
0100
1000
0100
0010
0001
0010
,
1000
0001
0010
1000
0010
0001
0100
0010
,
1000
0001
0100
1000
0100
0010
0001
0010
,
1000
0000
0001
0000
0010
0000
0100
1000
0000
1000
0000
0010
0100
0000
0001
0000
,
1000
0000
0010
0000
0100
0000
0001
0010
0000
0010
0000
0100
1000
0000
0010
0000
,
0100
0000
0001
0000
1000
0000
0010
0100
0000
0100
0000
0001
0010
0000
0100
0000
,
0100
0000
1000
0001
0000
0010
0001
0000
0100
1000
0000
0100
0010
0000
1000
0000
,
0001
0010
0000
0100
1000
0000
0010
0000
1000
0100
0000
0010
0001
0000
1000
0000
,
0001
0100
0000
0010
1000
0000
0100
0000
1000
0010
0000
0100
0001
0000
0000
0000
,
1000
0100
0000
0001
0100
0000
0010
0000
0001
0100
0000
1000
0100
0000
0110
0000
,
0001
0010
0000
1000
0010
0000
0100
0000
1000
0010
0000
0001
0010
0000
0100
0000
,
0001
1000
0010
1000
0100
0010
0100
1000
,
0001
0100
1000
0100
0001
0010
0001
0100
,
0010
0000
1000
0100
0000
1000
0100
0000
0010
0000
0001
0100
0000
0001
0100
0000
,
0010
1000
0010
0001
0010
1000
0001
0002
,
0000
0000
0000
0000
,
0000
0000
0000
0000
,
0003
0000
0000
0000
,
0000
0000
0000
0000
,
0000
0000
0000
0000
0000
1000
0100
0010
,
0001
0000
0001
0200
1000
0000
0310
0100
,
0001
1000
0200
0000
0001
0000
1000
0000
,
0001
0000
1300
0001
0100
0010
1000
0100
,
0010
0001
0200
0000
0301
0200
1000
0000
,
0310
0100
0100
0001
1000
0100
0010
0001
,
0100
1000
0100
0010
1000
0100
0010
0001
,
0100
0010
1000
0001
1000
0010
1000
0100
,
0010
0000
0010
0000
0022
0033
0000
0000
2002
3003
0000
0000
2020
3030
0000
0000
,
1002
0000
0000
0000
0000
0000
0000
0000
0000
0000
0000
0000
0000
0000
0000
0000
1003
0000
0000
1010
0000
0000
0010
0000
0100
0000
0001
0000
1001
0000
0000
0000
,
1000
0001
0010
0100
1000
0010
0100
0001
,
0020
0000
0031
0020
1000
0000
0130
1000
,
2000
0000
0000
0010
0000
0010
0000
0001
,
0000
3001
1000
0100
0010
0001
0010
0100
,
1000
1000
0001
0100
0100
0010
1000
1000
,
0002
0000
0010
0000
0100
0000
0010
0003
,
1001
0001
0000
1100
1000
0000
1001
0001
,
0000
0101
0100
0000
0010
1000
0100
1000
,
1010
0010
0000
1001
1000
0000
0011
0001
,
0000
1001
1000
0000
0001
0100
0010
1000
,
0001
0010
0100
0000
0000
0000
0100
1000
0010
0000
0000
0000
1000
0010
0100
0000
,
0000
0000
0100
0001
0010
0000
0000
0000
0100
0000
0001
0000
0100
0000
1000
0000
,
0010
0100
0001
0000
0010
0000
0100
1000
0010
0000
0100
0000
0001
1000
0001
1000
,
0010
0000
1010
0000
1001
0000
0100
0000
0101
0000
1001
0000
,
2100
0000
3002
0000
,
0203
0000
0320
0000
,
2030
0000
3200
0000
,
0320
0000
0032
1003
,
1020
0000
0001
0000
0130
0010
1000
0200
,
0000
0001
0000
1300
0100
0020
0000
1000
,
1000
0000
0001
0000
0130
2000
0000
0010
,
0001
3001
0100
0202
0000
0303
0000
0000
;

//--------------- dance-single - Frondal x MEGAtive ----------------
#NOTEDATA:;
#STEPSTYPE:dance-single;
#DESCRIPTION:Frondal x MEGAtive;
#DIFFICULTY:Hard;
#METER:17;
#RADARVALUES:0,0,0,0,0;
#NOTES:
0000
0000
0000
0000
,
0000
0000
0000
0000
,
0000
0000
0000
0000
,
0000
0000
0000
0000
,
2000
0000
0010
0000
3002
0000
0103
0010
2000
0000
0001
0000
3200
0000
0310
0001
,
2000
0000
0100
0000
3002
0000
0103
0010
2002
0000
0000
0000
0000
0000
0000
0000
,
0000
0000
0000
0000
,
0000
0000
0000
3003
,
0001
0010
0100
1000
0100
0010
0001
0100
,
0010
1000
0010
0100
0001
1000
0100
1000
,
0010
0000
1000
0100
1000
0010
0100
0001
,
1000
0000
0100
0000
1000
0000
0010
0000
0100
0000
0001
0000
0010
0100
0010
0100
,
2000
3000
1001
0000
0000
0000
0001
0000
0100
0000
0000
0000
0001
0000
0010
0000
,
0100
0000
1000
0000
0010
0000
0100
0000
0010
1000
0001
1000
0100
0000
1100
0000
,
0000
0010
0011
0000
1000
1010
0000
0001
,
0101
0000
0000
0000
1000
0000
0001
0000
0011
0000
0000
0000
1000
0000
0001
0010
,
0001
0000
1000
0000
0010
0100
0010
0000
1000
0000
0001
0000
0010
0000
0100
1000
,
0100
0000
0010
0000
0001
0100
0001
0000
1000
0000
0010
0000
0100
0000
0001
0010
,
0001
0000
1000
0000
0010
0100
0010
0000
1000
0000
0001
0010
0000
0000
0010
1000
,
0000
0000
1000
0010
0001
0000
1000
0000
0100
0000
0100
0000
1000
0000
0010
0100
,
0010
0000
0001
0000
0010
0100
0010
0000
1000
0000
0001
0000
0010
0000
0100
1000
,
0100
0000
0010
0000
0100
0001
0100
0000
0010
0000
0100
0000
1000
0000
0000
1000
,
0001
0000
0100
0000
0010
0000
0010
0000
1000
0001
1000
0001
0010
0000
0100
0000
,
0100
0000
0100
0000
1000
0000
0001
0000
1000
0100
0010
0000
0012
0000
0000
0000
,
1003
0000
0100
1000
0010
0000
0100
0000
0010
0000
0002
0000
0000
0000
1003
0000
,
0100
0010
0100
0000
0001
1000
0100
0000
0010
0001
0010
0001
1000
0000
0100
0010
,
0001
0011
0000
1001
0000
2010
0000
3001
,
0100
0010
0100
0001
1000
0000
1000
0000
0100
0000
0100
0000
1100
0000
1000
0000
,
0010
0000
0001
0000
0010
0000
0100
0000
0010
0100
0001
0000
1000
0001
1000
0000
,
0100
0010
0100
0000
0010
0001
1000
0000
0100
0000
0010
0000
1000
0000
0010
0000
,
0100
0010
0001
1000
0001
0100
1000
0100
,
0010
0000
0100
0000
0001
0000
1000
0000
0010
0100
0001
1000
0100
0000
1100
0000
,
0000
0011
0000
1100
0000
0011
0000
1100
,
1000
0001
0101
0000
1000
1010
0000
0101
,
0000
1010
0000
0101
0000
1010
0010
0100
,
0010
0001
0010
0110
0000
1001
0000
1100
,
0000
1001
0000
0101
0100
0010
1010
0000
,
0001
0011
0000
1100
0000
0110
0000
0001
,
0021
0000
1000
0000
0001
0000
1000
0000
0001
0000
1030
0000
,
0011
0000
0000
0001
0000
0000
1000
0000
0010
0000
0000
1000
0000
0000
0100
0000
,
1100
0000
0000
1000
0000
0000
0001
0000
0010
0000
0000
0001
0000
0000
0100
0000
,
0101
0000
0000
0001
0000
0000
0100
0000
0001
0000
0000
1000
0000
0000
0010
0000
,
1010
0000
0000
1000
0000
0000
0100
0000
0010
0000
0000
0001
0000
0000
0100
0000
,
0001
0000
0010
0000
0001
0100
0010
0100
0001
0000
1000
0000
0001
0010
0100
0000
,
1100
0000
0100
0000
1000
0100
0010
0100
1000
0000
0010
0000
1000
0100
0010
0000
,
0010
0001
0010
0100
1000
0100
0010
0001
1000
0010
1000
0001
0100
0001
1000
0100
,
0020
1000
0000
0031
0000
0000
0011
0000
1010
0000
0000
0101
0000
0000
1100
0000
,
1000
0000
0010
0000
0010
0000
1000
0020
0000
0001
0000
1030
0020
0000
0001
0000
,
0130
0000
0001
0000
0001
0000
1000
0200
0000
0001
0000
1300
0200
0000
0310
0001
,
1000
0000
0100
0000
0100
0000
1000
0200
0000
0001
0000
1300
0200
0000
0001
0000
,
0310
0000
0001
0000
0001
0000
1000
0020
0000
0001
0000
1030
0020
0000
0130
0001
,
0010
0000
0100
0000
0100
0000
0020
1000
0000
0130
0000
0020
1000
0000
0031
0000
,
1000
0000
0010
0000
0010
0000
0200
1000
0000
0310
0000
0200
1000
0000
0301
1000
,
0100
0000
0010
0000
0010
0000
0200
0001
0000
0310
0000
0200
0001
0000
1300
0000
,
0001
0000
0100
1000
0000
0100
0001
0000
0100
1000
0000
0100
0010
0000
1001
0000
,
1000
0100
0000
0010
0001
0000
0100
0010
0100
0001
0000
1000
0010
0000
0100
0001
,
0010
0100
0000
0010
0001
0000
1000
0001
0100
0010
0000
1000
0010
0000
0001
0010
,
1000
0010
0000
0100
0001
0000
0010
0100
0010
0001
0000
1000
0100
0000
0010
0100
,
1000
0001
0000
0100
0010
0000
1000
0001
0010
0100
0000
1000
0100
0000
0010
0001
,
0100
0100
0010
0010
1000
1000
0001
0001
,
1001
1000
0100
0100
0010
0010
0001
0001
,
1000
0100
1000
0100
1000
0100
1000
0000
0001
0100
0001
0100
0001
0100
0001
0000
,
1000
0000
0001
0100
0010
0000
1000
0100
0010
0000
0001
0100
0010
0000
1000
0100
,
0020
0000
0000
0000
,
0000
0000
0000
0000
,
0230
0000
0000
0000
,
0000
0000
0000
0000
,
0000
0000
0000
0000
0300
1000
0000
1000
,
0010
0000
0100
0000
0001
0010
0100
0000
1000
0000
0001
0010
0100
0000
1000
0000
,
0010
0200
1000
0000
0010
0000
0301
0000
,
0011
0000
0000
0000
1000
0000
0010
0100
0001
0000
1000
0000
0010
0100
0001
0000
,
0010
0000
0100
1000
0010
0000
0001
0000
1000
0000
0100
0000
0001
0000
0010
0000
,
1000
0000
0001
0100
1000
0000
0010
0100
0010
0000
0001
0000
0010
0100
0010
0000
,
1000
0000
0001
1000
0001
0000
0010
0100
0010
0000
1000
0000
0010
0100
0010
0000
,
0001
0000
1000
0001
1000
0000
0010
0100
0001
0000
0010
0000
0100
1000
0010
0000
,
0100
0001
0100
0001
0010
0100
2000
3000
0010
0100
0002
0003
1000
0010
0001
0010
,
1000
0000
0000
0000
1000
0000
0100
0000
0000
0000
0001
0000
0010
0000
0000
0000
1010
0000
0000
0101
0000
0000
0011
0000
0100
0000
0100
0000
2000
0000
0000
0000
,
3001
0000
1000
0100
0010
0000
1000
0000
0010
0100
1000
0000
0001
0000
1000
0010
,
0100
0000
0001
0000
0010
0000
0010
0000
0100
0000
1000
0000
0010
0000
1000
0100
,
1000
0001
0010
0100
0000
0100
0010
0000
,
0001
1000
0010
0100
0000
0100
0001
0000
,
1000
0001
1000
0001
0010
0001
1000
0001
1000
0001
0100
0001
1000
0001
1000
0001
,
0100
0010
0100
0100
1000
0100
0001
0010
,
0001
0100
0001
0100
0001
0000
1000
0100
1000
0100
1000
0000
0010
0100
0010
0100
,
0010
0000
1000
0001
1000
0001
1000
0000
0001
0010
0001
0000
1000
0010
1000
0000
,
0001
0010
0001
0010
0001
0000
1000
0010
1000
0010
1000
0000
0100
0010
0100
0010
,
0100
0000
1000
0001
1000
0001
1000
0000
0010
0100
0001
0000
1000
0100
0010
0000
,
0001
0010
0001
1000
0001
0000
1000
0010
1000
0001
1000
0000
0100
0010
0100
1000
,
0100
0000
0010
0001
0010
0100
0010
0000
0100
1000
0010
0000
0100
0001
0010
0000
,
0100
1000
0100
0010
0100
0000
1000
0100
1000
0001
1000
0000
0010
0100
0010
1000
,
0020
0000
0001
0000
1000
0000
0001
0000
1000
0000
0031
0000
,
1010
0000
0000
0010
1000
0001
2000
0000
0000
3001
1000
0001
,
0020
0000
0000
0130
1000
0001
2000
0000
0000
3001
1000
0001
,
0200
0000
0000
0310
1000
0001
0020
0000
0000
0130
0010
0001
,
2000
0000
0000
0000
0000
0000
3010
0000
1000
0000
0001
0000
0010
0000
0000
0010
0000
0000
1001
0000
0000
0000
0000
0000
,
0001
0000
1000
0100
1000
0000
0010
0000
0100
0001
0100
0000
0001
1000
0001
0000
,
0001
0100
0001
0000
1000
0100
1000
0000
1000
0010
0100
0000
0001
0010
0100
1000
,
0001
0100
0001
0100
0010
1000
0010
1000
0100
0010
0100
0010
0001
1000
0001
0000
,
0001
0010
0100
2002
0000
0000
0000
0000
,
3003
0000
0000
0000
;

//--------------- dance-single - Frondal x MEGAtive ----------------
#NOTEDATA:;
#STEPSTYPE:dance-single;
#DESCRIPTION:Frondal x MEGAtive;
#DIFFICULTY:Challenge;
#METER:19;
#RADARVALUES:0,0,0,0,0;
#NOTES:
0000
0000
0000
0000
,
0000
0000
0000
0000
,
0000
0000
0000
0000
,
0000
0000
0000
0000
,
0001
0000
1000
0000
0010
0000
1000
0000
0100
0000
0000
0000
0100
0000
0010
0000
0001
0000
1000
0010
1000
0000
0100
0000
0010
0000
0001
0000
0000
0000
0001
0000
,
0100
0010
1000
0001
0010
0100
1000
0001
0201
0000
0000
0000
0000
0000
0000
0000
,
0000
0000
0000
0000
,
0300
0000
0000
0000
,
1002
0000
0000
0000
,
0000
0000
0000
0000
,
0003
0000
1000
0100
0000
0010
0100
0000
,
1000
0000
0010
0000
0000
0000
0100
0000
0010
0000
0001
0000
0010
1000
0100
1000
,
0100
0120
0000
0000
0000
0000
0000
0000
,
0000
0000
0000
0000
0000
0000
0000
0000
0031
1000
0001
1000
0020
0030
0021
0030
,
0000
0000
0002
0003
0102
0003
0000
0000
0200
0300
1200
0300
0000
0000
2000
3000
,
2010
3000
0000
0000
0010
0000
0100
0000
0002
0000
0000
0000
1003
0000
0001
0100
,
0010
0000
1000
0100
0001
0100
0010
0000
0100
0000
0010
0001
0100
0000
0010
0100
,
0001
0000
0010
0100
0001
0100
1000
0000
0001
0000
0100
0010
1000
0000
0001
0010
,
0100
0000
1000
0010
0001
0010
0100
0000
0010
0000
0100
0001
0010
0000
0100
1000
,
0010
0000
0100
1000
0100
0010
0100
0000
0010
0000
0010
1000
0001
0000
1000
0100
,
0010
0000
0001
0100
1000
0100
0010
0000
0100
0000
0010
1000
0100
0000
0010
0100
,
1000
0000
0010
0100
1000
0100
0001
0000
1000
0000
0010
0100
0001
0000
0010
0200
,
1000
0000
0310
0000
0011
0000
0100
2000
3001
1000
0010
0100
0001
0000
0100
0000
,
1000
0000
0100
0000
0010
0000
0001
0000
0010
0100
0010
0100
0001
0000
1000
0000
,
0000
0000
1000
0100
0001
0000
0100
0000
0010
0000
0001
0000
1000
0000
0010
0100
,
0001
0010
0001
0100
0010
1000
0100
1000
0010
0100
0001
0010
0100
0001
0100
1000
,
0020
0030
0021
0030
0000
0000
0201
0300
0000
0000
1200
0300
0000
0000
1000
0100
,
0001
0100
0010
0001
0100
0000
0100
0000
1000
0100
0010
1000
0002
0000
0010
0000
,
1003
0000
0010
0000
0100
0000
0001
0010
0100
1000
0010
1000
0100
0010
0100
0010
,
0001
0100
0010
1000
0100
0010
0100
1000
0020
0000
0001
0000
1030
0000
0001
0000
,
0100
0010
0001
0010
0100
0001
0010
0100
,
0010
0000
1000
0000
0001
0000
0001
0000
0100
1000
0010
0200
1000
0000
0301
0010
,
1000
1100
0000
0011
0000
1001
0000
1010
,
0110
0000
0101
0000
0001
0010
0100
0020
1000
0000
0031
0100
1000
0000
1010
0000
,
0000
0101
0000
0011
0000
1100
1001
0011
,
1010
0000
0110
0000
1002
0000
0013
1000
0001
0000
0011
0000
0000
0000
1100
0000
,
0000
0000
1010
0000
0000
0000
0101
0000
0011
0000
1100
0000
1020
0000
0130
0001
,
0010
0000
0001
0010
1000
0000
1100
0000
0000
0000
0011
0000
0000
0000
1001
0000
,
1100
0000
0101
0000
1100
0000
0011
0000
1010
0000
0011
0000
,
0102
0000
0000
0000
,
2003
0000
0000
0000
,
3020
0000
0000
0000
,
0230
0000
0000
0000
,
0301
0100
0010
1000
0100
0010
0100
1000
,
0001
0010
0100
1000
0001
0100
0010
0100
,
0001
0100
0001
1000
0001
0010
0100
1000
0010
1000
0010
0100
0010
1000
0001
0010
,
0100
0000
0000
1100
0000
0000
0011
0000
1001
0000
0000
1010
0000
0000
0101
0000
,
1000
0000
0100
0000
0010
0000
0100
1000
0000
1000
0000
0010
0001
0000
0010
0000
,
0100
0000
0001
0000
0010
0000
0100
0001
0000
1000
0000
0010
0001
0000
1000
0000
,
0020
0000
0100
0000
0130
0000
0001
0010
0000
0010
0000
0100
1000
0000
1020
0000
,
0230
0000
0010
0000
0310
0000
0100
0001
0000
0010
0000
0100
1000
0000
1200
0000
,
0310
0000
0001
0000
0100
0000
0010
0001
0000
0001
0000
0010
1000
0000
0001
0000
,
0010
0000
0100
0000
0100
0000
0010
1000
0000
1000
0000
0010
0001
0000
0100
0000
,
0010
1000
0001
0000
0001
0000
0010
0100
0000
1100
0000
1000
0001
0000
0101
0000
,
1001
0000
1000
0010
0000
0010
0100
1000
0100
0000
0001
0010
0100
0001
1000
0010
,
0001
0100
0000
0010
0100
0000
1000
0100
0010
1000
0000
0001
0010
0000
1000
0010
,
0100
0000
0000
1000
0000
0000
0000
0000
0000
0001
0000
0000
0100
0000
0000
0000
0000
0000
1000
0000
0000
0100
0000
0000
0010
0000
0000
1000
0000
0000
0000
0000
0000
0001
0000
0000
0010
0000
0000
0000
0000
0000
0100
0000
1000
0000
0001
0000
,
1000
0010
0000
0100
0010
0000
0001
0010
0100
0001
0000
1000
0100
0000
0001
0100
,
0010
0001
0000
1000
0010
0000
0001
0010
0100
0001
0000
1000
0100
0000
0010
0001
,
1000
0001
0100
0001
1000
0001
0010
0001
1000
0001
0100
0001
1000
0001
0010
0100
,
1000
0001
1000
0010
1000
0001
1000
0100
1000
0001
1000
0010
1000
0001
0010
0100
,
0010
0001
1000
0001
0100
0010
1000
0001
1000
0100
0010
0001
0100
0010
1000
0100
,
0010
0000
0000
0000
0000
0000
0100
0000
1000
0000
0100
0000
1000
0000
0000
0000
0000
0000
0001
0000
0100
0000
0001
0000
0100
0000
0000
0010
0000
0000
1000
0000
0000
0001
0000
0000
0010
0000
0000
0000
0000
0000
0100
0000
0000
0010
0000
0000
,
2000
0000
0000
0000
,
0000
0000
0000
0000
0000
0000
0000
3000
,
MMMM
0000
MMMM
0000
,
MMMM
0000
MMMM
0000
,
MMMM
0000
0000
0000
0000
0000
0000
0000
MMMM
0000
0001
1000
0001
0000
0010
0000
,
0100
0000
1000
0000
0010
0001
0010
0000
0100
0000
0010
0001
0010
0000
1000
0000
,
0100
0000
0010
0000
1000
0000
0010
0100
1000
0000
0010
0100
1000
0000
0100
0001
,
1000
0000
0100
0001
1000
0000
0010
0001
0100
0000
0010
0000
0001
0010
1000
0000
,
0001
0000
1000
0100
0001
0000
0001
0100
0010
0000
0001
0100
1000
0000
1000
0100
,
0010
0000
0100
1000
0001
0000
0010
1000
0001
0000
0100
0000
0010
1000
0001
0000
,
0010
0000
0100
0001
1000
0000
0010
0001
1000
0000
0100
0000
0010
0001
1000
0000
,
0010
0000
0100
0001
0010
0000
1000
0001
0100
0000
0010
0000
1000
0001
0100
1000
,
0010
0100
0010
0100
1000
0100
0001
0010
0010
0100
0001
1000
1000
0010
0001
0100
,
001M
0000
0000
0000
0000
0000
1000
0000
0000
0000
0000
0000
0000
0000
0000
0000
0000
0000
1000
0000
0100
0000
0010
0000
0001
0000
0000
1000
0000
0000
0001
0000
0000
0000
0000
0000
0100
0000
0000
0000
0000
0000
0001
0000
0010
0000
0100
0000
1000
0000
0000
0000
0000
0000
0000
0000
0000
1000
0000
0000
0000
0000
0000
0000
0000
0000
0101
0000
0000
0000
0000
0000
0011
0000
0000
0000
0000
0000
0010
0000
0000
0100
0000
0000
200M
0000
0000
0000
0000
0000
0000
0000
0000
0000
0000
0000
,
3010
0000
0100
1000
0100
0000
0010
0000
0100
1000
0100
0000
0001
0000
1000
0100
,
0001
0000
1000
0010
0100
0000
0120
0000
1030
0000
0001
0100
0010
0000
0010
0001
,
0000
0000
2000
3000
0000
0000
0020
0030
0000
0000
0200
0300
0000
0000
0002
0003
,
0010
0100
1000
0100
0010
0001
0100
0001
0010
0100
1000
0010
0100
0001
0010
0001
,
0100
1000
0100
0010
1000
0100
0010
1000
0010
0100
0010
0001
0100
0010
0001
0010
,
1000
0000
0001
0010
1000
0000
0001
0100
1000
0100
0001
0000
1000
0010
0001
1000
,
0001
0010
0001
0010
0100
0000
0M01
1000
0001
1000
0010
0000
00M1
1000
0001
1000
,
0100
0000
0M01
1000
0001
1000
0010
0000
00M1
1000
0100
0010
0001
0100
0010
0000
,
1000
0001
1000
0001
0010
0000
10M0
0001
1000
0001
0100
0000
1M00
0001
1000
0001
,
0010
0000
10M0
0001
1000
0001
0100
0000
1M00
0001
0010
0001
0100
0010
1000
0000
,
0100
1000
0100
1000
0001
0000
001M
1000
0010
1000
0001
0000
010M
1000
0100
1000
,
0001
0000
001M
1000
0010
1000
0001
0000
010M
1000
0010
0100
0001
0010
0100
0000
,
1000
0010
1000
0010
0100
0000
1M00
0001
1000
0001
0010
0000
10M0
0001
1000
0001
,
0100
0000
0110
0000
1001
0000
0011
0000
0110
0000
1100
0000
,
1002
0000
0000
0103
0010
0100
0002
0000
0000
0013
0100
1000
,
0002
0000
0000
1003
0010
0100
0020
0000
0000
0130
0001
0010
,
0200
0000
0000
0310
1000
0010
0002
0000
0000
0103
1000
0100
,
0020
0000
0000
0000
0000
0000
1030
0000
0100
0000
0001
0000
0100
0000
0000
1000
0000
0000
2001
0000
0000
0000
0000
0000
,
3010
0100
0001
1000
0100
0010
0001
0100
1000
0100
0010
1000
0001
0010
0100
1000
,
0001
1000
0010
0100
0001
1000
0100
0010
1000
0001
0100
1000
0010
0001
0010
0100
,
0001
1000
0100
0010
0001
1000
0010
0100
1000
0001
0010
0100
0001
0010
0100
0000
,
1100
0110
0011
2002
0000
0000
3003
0000
;

//--------------- dance-double - Challenge Remixed by Frondal ----------------
#NOTEDATA:;
#STEPSTYPE:dance-double;
#DESCRIPTION:Challenge Remixed by Frondal;
#DIFFICULTY:Edit;
#METER:1;
#RADARVALUES:0,0,0,0,0;
#NOTES:
00000000
00000000
00000000
00000000
,
00000000
00000000
00000000
00000000
,
00000000
00000000
00000000
00000000
,
00000000
00000000
00000000
00000000
,
00010000
00000000
10000000
00000000
00100000
00000000
10000000
00000000
01000000
00000000
00000000
00000000
01000000
00000000
00100000
00000000
00010000
00000000
01000000
00001000
01000000
00000000
00010000
00000000
00100000
00000000
00000100
00000000
00000000
00000000
00000100
00000000
,
00000010
00000001
00001000
00000010
00010000
00100000
01000000
00001000
00012000
00000000
00000000
00000000
00000000
00000000
00000000
00000000
,
00000000
00000000
00000000
00000000
,
00000000
00000000
00000000
00000000
,
00103000
00000000
00000000
00000000
,
00000000
00000000
00000000
00000000
,
00000000
00000000
01000000
10000000
00000000
00100000
01000000
00000000
,
00100000
00000000
00010000
00000000
00000000
00000000
00100000
00000000
10000000
00000000
01000000
00000000
00100000
00001000
01000000
00001000
,
00020000
00030000
00021000
00000000
00000000
00000000
00000000
00000000
00000000
00000000
00000000
00000000
00000000
00000000
00000000
00000000
,
00000000
00000000
00000000
00000000
00000000
00000000
00000000
00000000
00031000
00010000
00000100
00010000
00000002
00000003
00000012
00000003
,
00000000
00000000
00000200
00000300
00000201
00000300
00000000
00000000
00002000
00003000
00002010
00003000
00000000
00000000
00000020
00000030
,
00001020
00000030
00000000
00000000
00000000
00000000
00000001
00000000
00000010
00000000
00010000
00000000
10000000
00000000
00010000
01000000
,
00100000
00000000
10000000
00010000
01000000
00001000
00010000
00000000
01000000
00000000
00100000
00001000
01000000
00000000
00010000
01000000
,
00001000
00000000
00010000
00000100
00001000
00000010
00010000
00000000
00000001
00000000
00000010
00000100
00001000
00000000
00000010
00010000
,
00001000
00000000
00100000
00001000
00010000
00000100
00000010
00000000
00000100
00000000
00010000
00000000
00100000
00000000
00010000
00000000
,
00001000
00000000
00100000
00000000
10000000
00000000
00100000
00000000
01000000
00000000
01000000
00010000
00001000
00000000
00000100
00000001
,
00000010
00000000
00001000
00010000
00100000
00010000
00001000
00000000
01000000
00000000
00100000
10000000
01000000
00000000
00100000
00001000
,
01000000
00000000
00100000
01000000
10000000
01000000
00001000
00000000
00100000
00000000
00001000
00010000
00000010
00000000
00000100
00000001
,
00000010
00000000
00001000
00000000
00012000
00000000
01003000
00100000
10000000
00010000
10000000
00000000
00001000
00000000
00000100
00000000
,
00000001
00000000
00000100
00000000
00010000
00000000
01000000
00000000
00100000
10000000
01000000
00100000
00010000
00000000
10000000
00000000
,
00000000
00000000
10000000
00100000
01000000
00000000
00001000
00000000
00000100
00000000
00000010
00000000
00000000
00000000
00000010
00000100
,
00000001
00000010
00000100
00010000
00001000
00100000
00010000
01000000
00100000
00010000
00000010
00001000
01000000
00000000
10000000
00010000
,
00200000
00300000
10200000
00300000
00000000
00000000
00022000
00033000
00000000
00000000
00000201
00000300
00000000
00000000
00000001
00000100
,
00001000
00000100
00000010
00010000
00000100
00000000
00000100
00000000
00001000
01000000
00100000
00010000
02000000
00000000
00000000
00000000
,
00000000
00000000
03002000
00000000
00000000
00000000
00013000
00001000
01000000
00100000
01000000
00001000
00010000
00000100
00000010
00000100
,
00001000
00000010
00010000
00001000
01000000
00100000
00010000
00100000
02000000
00000000
00000000
00000000
03010000
00000000
10000000
00000000
,
01000000
00100000
00001000
00000010
00001000
00000000
00010000
01000000
,
10000000
00000000
00100000
00000000
00010000
00000000
00000100
00000000
00000100
00000001
00000010
00010000
00100000
00000000
00010000
00000100
,
00000010
00001001
00000000
00000011
00000000
00010010
00000000
00110000
,
00010000
00000000
10000000
00000000
00010000
00100000
01000000
00200000
10000000
00000000
00310000
00000100
00000010
00000000
00001001
00000000
,
00000000
00000101
00000000
00010100
00000000
01010000
10000000
10000000
,
01100000
00000000
00011000
00000000
00000110
00000000
00000001
00000010
00010000
00000000
10010000
00000000
00000000
00000000
11000000
00000000
,
00000000
00000000
01001000
00000000
00000000
00000000
00001100
00000000
00001000
00000000
00000001
00000000
00000200
00000000
00001300
00000100
,
00000001
00000000
00000010
00001000
00100000
00000000
10010000
00000000
00000000
00000000
10100000
00000000
00000000
00000000
00101000
00000000
,
00011000
00000000
01010000
00000000
11000000
00000000
00011000
00000000
00001010
00000000
00000011
00000000
,
00020000
00000000
00000000
00000000
,
00032000
00000000
00000000
00000000
,
00203000
00000000
00000000
00000000
,
00300020
00000000
00000000
00000000
,
00010030
00001000
00010000
00100000
00010000
00001000
00000100
00001000
,
00010000
00001000
00100000
10000000
00100000
00001000
00000100
00000001
,
00000010
00000100
00000010
00000001
00001000
00000010
00010000
00000100
00100000
00001000
01000000
00010000
10000000
01000000
00100000
00010000
,
01000000
00000000
00000000
01100000
00000000
00000000
10010000
00000000
00011000
00000000
00000000
00001100
00000000
00000000
00001001
00000000
,
00000001
00000000
00000010
00000000
00000100
00000000
00010000
00001000
00000000
00001000
00000000
00100000
00010000
00000000
10000000
00000000
,
01000000
00000000
00010000
00000000
01000000
00000000
00100000
00001000
00000000
00001000
00000000
00100000
00000010
00000000
00010000
00000000
,
00001000
00000000
00100000
00000000
00100000
00000000
00010000
10000000
00000000
01100000
00000000
10000000
01000000
00000000
10010000
00000000
,
00011000
00000000
00000100
00000000
00000100
00000000
00001000
00000001
00000000
00000110
00000000
00001000
00000100
00000000
00001001
00000000
,
00000001
00000000
00000010
00000000
00001000
00000000
00100000
10000000
00000000
10000000
00000000
00100000
00010000
00000000
00001000
00000000
,
00000001
00000000
00000100
00000000
00010000
00000000
01000000
10000000
00000000
10000000
00000000
01000000
00010000
00000000
00001000
00000000
,
10000000
00000000
01000000
00000000
00010000
00000000
00000100
00000010
00000000
00000101
00000000
00000010
00010000
00000000
00011000
00000000
,
00001000
00000000
00100000
01000000
00000000
01000000
00100000
10000000
00100000
00000000
00001000
01000000
00100000
00001000
00100000
01000000
,
00010000
10000000
00000000
01000000
00100000
00000000
10000000
00100000
01000000
10000000
00000000
00010000
00100000
00000000
00001000
00010000
,
00000001
00000000
00000000
00000100
00000000
00000000
00000000
00000000
00000000
00000001
00000000
00000000
00000010
00000000
00000000
00000000
00000000
00000000
00001000
00000000
00000000
00000010
00000000
00000000
00000100
00000000
00000000
00001000
00000000
00000000
00000000
00000000
00000000
00000001
00000000
00000000
00000100
00000000
00000000
00000000
00000000
00000000
00000100
00000000
00000001
00000000
00000010
00000000
,
00000100
00001000
00000000
00000010
00000100
00000000
00001000
00000100
00000010
00010000
00000000
00000001
00000010
00000000
00000100
00010000
,
01000000
10000000
00000000
01000000
00100000
00000000
10000000
00100000
01000000
10000000
00000000
00001000
01000000
00000000
00001000
00000000
,
10000000
00010000
01000000
00010000
10000000
00010000
00100000
00010000
10000000
00010000
01000000
00010000
10000000
01000000
00010000
00000100
,
00001000
00000001
00001000
00000010
00001000
00000001
00001000
00000100
00001000
00000001
00001000
00000010
00001000
00000001
00000010
00000100
,
00100000
00010000
10000000
00010000
01000000
00100000
00010000
00001000
00000010
00000001
00000010
00000100
01000000
00100000
00000100
00000010
,
00010000
00000000
00000000
00000000
00000000
00000000
00000010
00000000
00100000
00000000
00000010
00000000
00100000
00000000
00000000
00000000
00000000
00000000
00000100
00000000
01000000
00000000
00000100
00000000
01000000
00000000
00000000
00001000
00000000
00000000
00000000
00000000
00000000
00010000
00000000
00000000
00000010
00000000
00000000
00000000
00000000
00000000
00001000
00000000
00000000
02000000
00000000
00000000
,
10000000
00000000
00000000
00000000
,
00000000
00000000
00000000
00000000
00000000
00000000
00000000
03000000
,
MMMM0000
00000000
MMMM0000
00000000
,
0000MMMM
00000000
0000MMMM
00000000
,
MMMM0000
00000000
00000000
00000000
00000000
00000000
00000000
00000000
0000MMMM
00000000
00010000
10000000
00010000
00000000
00100000
00000000
,
00001000
00000000
00010000
00000000
00000010
00000001
00000010
00000000
00000100
00000000
00000010
00000001
00000010
00000000
00000100
00000000
,
00010000
00000000
00001000
00000000
00000010
00000000
00010000
00001000
01000000
00000000
00001000
00010000
00000100
00000000
00100000
01000000
,
00010000
00000000
01000000
10000000
00010000
00000000
00000100
00010000
01000000
00000000
00000100
00000000
00010000
00001000
00000010
00000000
,
00001000
00000000
10000000
00010000
00100000
00000000
00100000
00001000
00000010
00000000
00000001
00001000
00000010
00000000
00000010
00010000
,
00100000
00000000
01000000
10000000
00010000
00000000
00001000
00100000
00010000
00000000
01000000
00000000
00001000
00100000
00010000
00000000
,
01000000
00000000
00000100
00000001
00001000
00000000
00010000
00000100
00001000
00000000
00000010
00000000
00010000
00000100
00001000
00000000
,
00000010
00000000
01000000
10000000
00001000
00000000
00010000
10000000
01000000
00000000
00010000
00000000
00000100
00000001
00001000
00000000
,
00001000
00100000
01000000
10000000
00010000
01000000
00200000
10000000
00301000
00000100
00000020
00000001
00010030
00100000
00000100
00001000
,
MMMM0001
00000000
00000000
00000000
00001000
00000000
00000100
00000000
00000000
00000000
00000100
00000000
00001000
00000000
00100000
00000000
10010000
00000000
00000000
11000000
00000000
00000000
01010000
00000000
10000000
00000000
01000000
00000000
0020MMMM
00300000
00000000
00000000
,
00010000
00000000
01000000
10000000
01000000
00000000
00010000
00000000
01000000
10000000
01000000
00000000
00010000
00000000
00100000
00001000
,
00000010
00000000
00000001
00000100
00001000
00000000
00010000
00000000
00000100
00000000
00100000
00000000
01000000
00000000
21000000
30000000
,
00000000
00000000
00020000
00030000
00000000
00000000
02000000
03000000
00000000
00000000
00002000
00003000
00000000
00000000
00020000
00030000
,
00000000
00000000
00000020
00000030
00000000
00000000
00000200
00000300
00000000
00000000
00000002
00000003
00000000
00000000
00000020
00000030
,
00000100
00010000
00001000
01000000
00001000
00010000
00000010
00010000
00001000
00100000
10000000
00100000
00001000
00000010
00000001
00000010
,
00001000
00000000
00010000
01000000
10000000
00000000
00010000
00001000
00000010
00001000
00010000
00000000
00000100
00000001
00000100
00010000
,
00001000
00100000
00001000
00100000
00010000
00000000
MMMM0010
00000100
00000010
00000100
00010000
00000000
MMMM0010
00001000
00000010
00001000
,
00100000
00000000
MMMM0100
00001000
00000100
00001000
01000000
00000000
MMMM0001
00000010
00000100
00010000
00001000
00100000
01000000
00000000
,
00100000
00000010
00100000
00000010
00000100
00000000
0010MMMM
00010000
00100000
00010000
00000100
00000000
0100MMMM
00010000
01000000
00010000
,
00000010
00000000
1000MMMM
00010000
10000000
00010000
00000100
00000000
1000MMMM
01000000
00100000
00001000
00010000
00000100
00000010
00000000
,
00000001
00000100
00000010
00100000
00010000
00000000
MMMM0001
00000010
00000100
01000000
00010000
00000000
MMMM0010
00001000
00100000
01000000
,
00010000
00000000
MMMM0010
00001000
00000001
00000010
00010000
00000000
MMMM0100
00001000
00000010
00000100
00010000
10000000
01000000
00000000
,
10000000
00100000
01000000
00000100
00001000
00000000
1000MMMM
01000000
00010000
00000100
00000010
00000000
0000MMMM
00000000
00010000
00000010
,
00000100
00000000
00000101
00000000
00001100
00000000
00011000
00000000
11000000
00000000
01010000
00000000
,
20000000
00000000
32000000
00000000
,
03020000
00000000
00032000
00000000
,
00003200
00000000
00000000
00100300
10000000
00100000
02000000
00000000
00000000
03000100
00000001
00000100
,
00200000
00000000
00000000
00000000
00000000
00000000
00301000
00000000
00000010
00000000
00000001
00000000
00000010
00000000
00000000
00000010
00000000
00000000
00020000
00000000
00000000
00000000
00000000
00000000
,
00130000
00000100
00001000
00000001
00000100
00000010
00001000
00100000
00001000
00000100
00000010
00000100
00010000
00000010
00100000
00001000
,
10000000
00100000
01000000
00010000
00100000
01000000
10000000
01000000
00001000
00000100
00000010
00000001
00000100
00000010
00010000
00001000
,
01000000
00000100
00010000
00001000
00100000
00000010
00010000
00001000
00000100
00010000
01000000
00100000
10000000
01000000
00001000
00000000
,
00000011
00011000
10100000
00202000
00000000
00000000
00303000
00000000
;
