#VERSION:0.83;
#TITLE:PONPONPON;
#SUBTITLE:;
#ARTIST:きゃりーぱみゅぱみゅ;
#TITLETRANSLIT:;
#SUBTITLETRANSLIT:;
#ARTISTTRANSLIT:Kyary Pamyu Pamyu;
#GENRE:;
#CREDIT:;
#MUSIC:PONPONPON.ogg;
#BANNER:PONPONPON.png;
#BACKGROUND:PONPONPON-bg.png;
#CDTITLE:;
#SAMPLESTART:40.797;
#SAMPLELENGTH:15.000;
#SELECTABLE:YES;
#OFFSET:0.433;
#BPMS:0.000=128.000;
#STOPS:;
#DISPLAYBPM:128.000;
#BGCHANGES:0.200=PONPONPON.mp4=1.000=0=0=0=StretchNoLoop====,
99999.000=-nosongbg-=1.000=0=0=0=StretchNoLoop====
;
#FGCHANGES:;

//--------------- dance-single - forcednature ----------------
#NOTEDATA:;
#STEPSTYPE:dance-single;
#DESCRIPTION:forcednature;
#CREDIT:forcednature;
#DIFFICULTY:Beginner;
#METER:1;
#RADARVALUES:0,0,0,0,0;
#OFFSET:0.433;
#BPMS:0.000=128.000;
#NOTES:
0000
0000
0000
0000
,
0000
0000
0000
0000
,
0000
0000
0000
0000
,
0000
0000
0000
0000
,
0000
0000
0000
0000
,
0000
0000
0000
0000
,
0000
0000
0000
0000
,
0000
0000
0000
0000
,
0000
0000
0000
0000
,
0000
0000
0000
0000
,
0001
0000
0000
0000
,
0000
0000
0000
0000
,
0000
0000
0000
0000
,
0000
0000
0000
0000
,
1000
0000
0000
0000
,
0000
0000
0000
0000
,
0000
0000
0000
0000
,
0000
0000
0000
0000
,
0010
0000
0000
0000
,
0000
0000
0000
0000
,
0000
0000
0000
0000
,
0000
0000
0000
0000
,
1000
0000
0000
0000
,
0000
0000
0000
0000
,
0100
0000
0000
0000
,
0000
0000
0000
0000
,
0010
0000
0000
0000
,
0000
0000
0000
0000
,
0001
0000
0000
0000
,
0000
0000
0000
0000
,
1000
0000
0000
0000
,
0000
0000
0000
0000
,
0010
0000
0000
0000
,
0000
0000
0000
0000
,
0100
0000
0000
0000
,
0000
0000
0000
0000
,
0001
0000
0000
0000
,
0000
0000
0000
0000
,
1000
0000
0000
0000
,
0000
0000
0000
0000
,
0000
0000
0000
0000
,
0000
0000
0000
0000
,
0100
0000
0000
0000
,
0000
0000
0000
0000
,
0010
0000
0000
0000
,
0000
0000
0000
0000
,
0001
0000
0000
0000
,
0000
0000
0000
0000
,
0100
0000
0000
0000
,
0000
0000
0000
0000
,
0010
0000
0000
0000
,
0000
0000
0000
0000
,
1000
0000
0000
0000
,
0000
0000
0000
0000
,
0001
0000
0000
0000
,
0000
0000
0000
0000
,
0010
0000
0000
0000
,
0000
0000
0000
0000
,
0100
0000
0000
0000
,
0000
0000
0000
0000
,
1000
0000
0000
0000
,
0000
0000
0000
0000
,
0010
0000
0000
0000
,
0000
0000
0000
0000
,
0000
0000
0000
0000
,
0000
0000
0000
0000
,
0100
0000
0000
0000
,
0000
0000
0000
0000
,
0000
0000
0000
0000
,
0000
0000
0000
0000
,
0000
0000
0000
0000
,
0000
0000
0000
0000
,
1001
0000
0000
0000
;

//--------------- dance-single - forcednature ----------------
#NOTEDATA:;
#STEPSTYPE:dance-single;
#DESCRIPTION:forcednature;
#CREDIT:forcednature;
#DIFFICULTY:Easy;
#METER:3;
#RADARVALUES:0,0,0,0,0;
#OFFSET:0.433;
#BPMS:0.000=128.000;
#NOTES:
0000
0000
0000
0000
,
0000
0000
0000
0000
,
0000
0000
0000
0000
,
0000
0000
0000
0000
,
0000
0000
0000
0000
,
0000
0000
0000
0000
,
0000
0000
0000
0000
,
0000
0000
0000
0000
,
0000
0000
0000
0000
,
0000
0000
0000
0000
,
0001
0000
0000
0000
,
0000
0000
0000
0000
,
1000
0000
0000
0000
,
0000
0000
0000
0000
,
1001
0000
0000
0000
,
0000
0000
0000
0000
,
0001
0000
0000
0000
,
0000
0000
0000
0000
,
0100
0000
0000
0000
,
0100
0000
0000
0000
,
0010
0000
0000
0000
,
1000
0000
0000
0000
,
0010
0010
0000
0000
,
0100
0000
0000
0000
,
0001
0001
0000
0000
,
1000
0000
0000
0000
,
0100
0100
0000
0000
,
0010
0000
0000
0000
,
0001
0001
0000
0000
,
1000
0000
0000
0000
,
0001
1000
0000
0000
,
0001
0000
0000
0000
,
1000
0001
0000
0000
,
1000
0000
0000
0000
,
0100
0010
0000
0000
,
0100
0000
0000
0000
,
0010
0100
0000
0000
,
0010
0000
0000
0000
,
0001
0000
0000
0000
,
0100
0000
0000
0000
,
0010
0000
0000
0000
,
1000
0000
0000
0000
,
0001
0000
0000
0000
,
0010
0000
0000
0000
,
0100
0000
0100
0000
,
0100
0000
0000
0000
,
1000
0001
0000
0000
,
0010
0000
0000
0000
,
0001
1000
0000
0000
,
0010
0000
0000
0000
,
1000
0001
0000
0000
,
0100
0000
0000
0000
,
0001
0000
1000
0000
,
0100
0000
0000
0000
,
1000
0001
0000
0000
,
0001
0000
1000
0000
,
0001
1000
0000
0000
,
1000
0000
0001
0000
,
0100
0010
0000
0000
,
0010
0000
0100
0000
,
0010
0100
0000
0000
,
0010
0000
0000
0000
,
1000
0000
0000
0000
,
0100
0000
0000
0000
,
1000
0000
0000
0000
,
0001
0000
0000
0000
,
0100
0000
0000
0000
,
0001
0000
0000
0000
,
0010
0000
0000
0000
,
0100
0000
0000
0000
,
0000
0000
0000
0000
,
0000
0000
0000
0000
,
2002
0000
0000
0000
,
0000
0000
0000
0000
,
0000
3003
0000
0000
0000
0000
0000
0000
;

//--------------- dance-single - forcednature ----------------
#NOTEDATA:;
#STEPSTYPE:dance-single;
#DESCRIPTION:forcednature;
#CREDIT:forcednature;
#DIFFICULTY:Medium;
#METER:7;
#RADARVALUES:0,0,0,0,0;
#OFFSET:0.433;
#BPMS:0.000=128.000;
#NOTES:
0000
0000
0000
0000
,
0000
0000
0000
0000
,
0000
0000
0000
0000
,
0000
0000
0000
0000
,
0000
0000
0000
0000
,
0000
0000
0000
0000
,
0000
0000
0000
0000
,
0000
0000
0000
0000
,
0000
0000
0000
0000
,
0000
0000
0000
0000
,
0000
1000
0000
1000
,
0000
0001
0000
0001
,
0000
0001
0000
0001
,
0000
1000
0000
1000
,
0010
0000
0010
0010
,
0010
0000
0100
0001
,
1000
0000
1000
1000
,
1000
0000
0100
0010
,
0001
0000
0001
0100
,
0001
0000
0001
0010
,
0100
0000
0100
0000
1000
0000
0000
1001
,
0000
0010
0010
0000
,
1001
1001
0100
0000
,
0001
1000
0001
0000
,
1001
1001
0100
0000
,
1000
0001
1000
0000
,
0110
0110
1000
0000
,
0010
0100
0010
0000
,
0110
0110
0001
0000
,
0010
0100
0010
0000
,
0110
0110
0010
0000
,
1000
0001
1000
0000
,
0110
0110
0100
0000
,
0001
1000
0001
0000
,
0110
0110
1000
0000
,
0001
1000
0001
0000
,
0110
0110
0001
0000
,
1000
0001
1000
0000
,
0100
1000
0020
0030
,
0100
0001
0020
0030
,
0100
1000
0001
0010
,
0001
1000
0200
0300
,
1000
0001
0200
0300
,
0001
1000
0200
0300
,
1001
0000
0110
0000
,
2002
0000
3003
0000
,
1001
0110
1000
0000
,
0010
0100
0001
1000
,
1001
0110
0001
0000
,
0010
0100
1000
0001
,
1001
0000
0100
0100
,
1001
0000
0100
0100
,
1001
0000
0110
0000
,
0001
0000
1000
0000
0001
1000
0001
0000
,
1001
0110
0001
1000
,
0010
0000
0100
0000
0001
1000
0001
0000
,
1001
0110
1000
0001
,
0010
0000
0100
0000
1000
0001
1000
0000
,
0110
1001
0010
0100
,
0100
0000
0010
0000
1000
0001
1000
0000
,
0110
1001
0010
0100
,
0001
0000
1000
1000
,
0001
0010
0100
1000
,
0100
0010
0002
0003
,
1000
0010
0100
0001
,
0100
0010
2000
3000
,
0100
0010
0100
1000
,
0010
0100
0020
0030
,
0100
0001
0010
0100
,
0010
0000
0001
1000
0001
0000
0100
0000
,
0010
0000
0000
0000
,
0000
0000
0000
0000
,
2002
0000
0000
0000
,
0000
0000
0000
0000
,
0000
3003
0000
0000
0000
0000
0000
0000
;

//--------------- dance-single - forcednature ----------------
#NOTEDATA:;
#STEPSTYPE:dance-single;
#DESCRIPTION:forcednature;
#CREDIT:forcednature;
#DIFFICULTY:Hard;
#METER:10;
#RADARVALUES:0,0,0,0,0;
#OFFSET:0.433;
#BPMS:0.000=128.000;
#NOTES:
0000
0000
0000
0000
,
0000
0000
0000
0000
,
0000
0000
0000
0000
,
0000
0000
0000
0000
,
0000
0000
0000
0000
,
0000
0000
0000
0000
,
0000
0000
0000
0000
,
0000
0000
0000
0000
,
0000
0000
0000
0000
,
0000
0000
0000
0000
,
0000
0001
0000
0001
,
0000
1000
0000
1000
,
0000
0010
0000
0010
,
0000
0000
0100
0000
0000
0100
0010
0000
,
1001
0000
0001
0010
0000
0100
0000
0010
,
0000
0001
0001
1000
0000
1000
0001
0000
,
1001
0000
1000
0010
0000
0100
0000
0010
,
0000
1000
1000
0001
0000
0001
1000
0000
,
1001
0000
0001
0100
0010
0100
0000
0001
,
0010
0000
0100
0010
0100
0010
0100
0000
,
1001
0000
1000
0100
1001
0000
0001
0100
,
0000
0000
0001
0000
0100
0000
1000
0000
0100
0000
0000
0100
0010
0000
0000
0000
,
1000
0001
0000
0000
0001
1000
0000
0000
0100
0000
0010
0000
0100
0000
0000
0000
,
1000
0010
0100
0001
0100
0010
1000
0000
,
0001
1000
0000
0000
1000
0001
0000
0000
0100
0000
0010
0000
0100
0000
0000
0000
,
0001
0010
0100
1000
0100
0010
0001
0000
,
1000
0100
0000
0000
1000
0010
0000
0000
0100
0000
0001
0000
0100
0000
0000
0000
,
0001
0010
0100
0001
0100
0010
0001
0000
,
0001
0100
0000
0000
0001
0010
0000
0000
0100
0000
1000
0000
0100
0000
0000
0000
,
1000
0010
0100
1000
0200
0010
0301
0000
,
0001
0010
0000
0000
1000
0010
0000
0000
0100
0000
0010
0000
1001
0000
0000
0000
,
1000
0100
0010
0100
0001
0100
1000
0000
,
0001
0010
0000
0000
1000
0010
0000
0000
0100
0000
0010
0000
1001
0000
0000
0000
,
0001
0100
0010
0100
1000
0100
0001
0000
,
1000
0100
0000
0000
0001
0100
0000
0000
1000
0000
0001
0000
0110
0000
0000
0000
,
0001
0010
1000
0001
0100
1000
0001
0000
,
0001
0100
0000
0000
1000
0100
0000
0000
0001
0000
1000
0000
0110
0000
0000
0000
,
1000
0000
0010
1000
0010
0000
0100
0000
0001
0000
1000
0000
1001
0000
0000
0000
,
0001
0010
0100
1000
1020
0000
0100
0000
,
1030
0010
0100
0001
0021
0000
0100
0000
,
0031
0000
0100
0000
0010
0000
1000
0000
0100
0000
0000
0100
0010
0000
0000
0010
,
0001
0100
1000
0100
0220
0000
0000
0330
,
0100
0001
0010
0100
1200
0000
0001
0300
,
0100
1000
0010
0100
0201
0000
1000
0300
,
0110
0000
1001
0000
,
0210
0010
0310
1001
,
1000
0100
0000
0000
0001
0100
0000
0000
0010
0000
0100
0000
0110
0000
0000
0000
,
0001
0010
1000
0001
0100
1000
0001
0000
,
0001
0100
0000
0000
1000
0100
0000
0000
0010
0000
0010
0000
0110
0000
0000
0000
,
1000
0010
0001
0010
1000
0100
0001
0000
,
2100
0010
0100
3010
,
0102
0010
0100
0013
,
0210
0000
0301
0000
0110
0100
0100
0000
,
0001
0010
1000
0010
0100
1000
0001
0000
,
0100
0010
0000
0000
1000
0001
0000
0000
0010
0000
0100
0000
0110
0000
0000
0000
,
0010
0001
0100
1000
0100
0001
0011
0000
,
0100
1000
0000
0000
0001
0100
0000
0000
0010
0000
0010
0000
0110
0000
0000
0000
,
0100
1000
0100
0001
0010
0100
1100
0000
,
0010
0100
0000
0000
0001
1000
0000
0000
0100
0000
0010
0000
0110
0000
0000
0000
,
0100
0001
0100
1000
0010
0100
1001
0000
,
0001
0010
0000
0000
1000
0010
0000
0000
0100
0000
0100
0000
0110
0000
0000
0000
,
0001
0100
1000
0010
0001
0100
1001
0000
,
1000
0000
0000
1000
0010
0000
0000
0010
0100
0000
0000
0100
0001
0000
0010
0000
,
0100
0010
0001
1000
0020
0000
0030
0100
,
0001
0000
0000
0001
0010
0000
0000
0010
0100
0000
0000
0100
1000
0000
0001
0000
,
0100
0010
1000
0100
0020
0000
0030
0000
,
0001
0000
0000
0001
0100
0000
0000
0100
0010
0000
0000
0010
1000
0000
0001
0000
,
0010
0001
0100
0010
2000
0000
3000
0100
,
0010
0000
0000
0010
0001
0000
0000
0001
1000
0000
0010
0000
0100
0000
0001
0000
,
0010
0100
1000
0010
0001
0010
0100
0001
,
1000
0000
0000
0000
,
0000
0000
0000
0000
,
2002
0000
0000
0000
,
0000
0000
0000
0000
,
0000
3003
0000
0000
0000
0000
0000
0000
;

//--------------- dance-single - forcednature ----------------
#NOTEDATA:;
#STEPSTYPE:dance-single;
#DESCRIPTION:forcednature;
#CREDIT:forcednature;
#DIFFICULTY:Challenge;
#METER:17;
#RADARVALUES:0,0,0,0,0;
#OFFSET:0.433;
#BPMS:0.000=128.000
,280.000=16.000
,281.000=1024.000
,349.000=128.000
;
#TIMESIGNATURES:0.000=4=4,
280.000=1=4,
281.000=4=4
;
#NOTES:
0000
0000
0000
0000
,
0000
0000
0000
0000
,
0000
0000
0000
0000
,
0000
0000
0000
0000
,
0000
0000
0000
0000
,
0000
0000
0000
0000
,
0000
0000
0000
0000
,
0000
0000
0000
0000
,
0000
0000
0000
0000
,
0000
0000
0000
0000
,
0000
0101
0000
0101
,
0000
1100
0000
1100
,
0000
0011
0000
0011
,
0000
0000
1010
0000
0000
1000
0010
0001
,
0010
0100
0001
0100
0010
1000
0000
1100
,
0000
1000
1000
0002
0010
1000
0100
1000
,
0013
0100
1000
0100
0010
0001
0000
0101
,
0000
0010
0010
2000
0100
0001
3010
1000
,
1001
0001
0100
1000
0100
0001
0000
0010
,
1001
0000
1000
0000
0001
0000
0100
0010
1000
0000
0001
0000
0010
0000
0100
0000
,
0110
0000
0110
0100
1001
0000
0010
0110
,
0000
0000
0100
0000
1001
0000
0100
0000
1001
0000
0010
0100
0001
0000
0000
0000
,
1000
0100
1000
0100
0000
0000
0010
0001
0010
0001
0000
0000
0100
0000
0000
0110
0000
0000
1001
0000
0000
0000
0000
0000
,
0001
0100
0010
0000
1000
0100
0010
0000
0100
0000
0110
0000
1001
0000
0000
0000
,
0001
0100
0001
0100
0000
0000
0010
1000
0010
1000
0000
0000
0100
0000
0000
1010
0000
0000
0011
0000
0000
0000
0000
0000
,
1000
0010
0100
0000
0001
0010
0100
0000
0010
0000
0101
0000
1100
0000
0000
0000
,
0001
0100
0010
1000
0000
0000
1000
0010
0100
0001
0000
0000
0011
0000
0000
0110
0000
0000
1100
0000
0000
0000
0000
0000
,
0001
0100
1000
0000
1000
0100
0001
0000
0010
0000
0110
0000
1001
0000
0000
0000
,
1000
0100
0010
0001
0000
0000
0001
0010
0100
1000
0000
0000
1010
0000
0000
0110
0000
0000
0101
0000
0000
0000
0000
0000
,
1000
0000
0000
0100
0000
0000
0001
0000
0000
0000
0000
0000
0001
0000
0000
0100
0000
0000
1000
0000
0000
0000
0000
0000
0110
0000
0000
0000
0000
0000
0001
0000
1000
0000
0001
0000
1000
0000
0000
0000
0000
0000
0100
0000
0000
0000
0000
0000
,
1000
0010
1000
0100
0000
0000
1000
0010
1000
0100
0000
0000
0010
0000
0000
0101
0000
0000
1100
0000
0000
0000
0000
0000
,
0001
0010
0100
1000
0100
0010
0001
0000
0101
0000
0110
0000
1010
0000
0000
0000
,
0001
0010
0001
0100
0000
0000
0001
0010
0001
0100
0000
0000
0010
0000
0000
1100
0000
0000
0101
0000
0000
0000
0000
0000
,
1000
0010
0100
0001
0100
0010
1000
0000
1100
0000
0110
0000
0011
0000
0000
0000
,
0010
0000
0001
0000
0100
0000
0010
0000
0000
0000
0000
0000
0100
0000
0010
0000
1000
0000
0100
0000
0000
0000
0000
0000
1000
0000
0000
0010
0000
0000
0100
0000
0000
0000
0000
0000
1100
0000
0000
0000
0000
0000
0000
0000
0000
0000
0000
0000
,
0001
0100
1000
0100
0001
0000
0010
0100
1000
0000
0110
0000
1001
0000
0000
0000
,
0010
0000
1000
0000
0100
0000
0010
0000
0000
0000
0000
0000
0100
0000
0010
0000
0001
0000
0100
0000
0000
0000
0000
0000
0001
0000
0000
0010
0000
0000
0100
0000
0000
0000
0000
0000
0101
0000
0000
0000
0000
0000
0000
0000
0000
0000
0000
0000
,
1000
0000
0000
0100
0000
0000
0001
0000
0000
0100
0000
0000
1000
0000
0000
0000
0000
0000
1000
0000
0010
0000
0100
0000
0001
0000
0000
0000
0000
0000
0001
0000
0000
0010
0000
0000
0100
0000
0000
0000
0000
0000
0110
0000
0000
0000
0000
0000
,
1001
0000
1000
0010
0001
0000
0001
0010
0200
0000
0001
0010
0000
1000
0010
0300
,
0001
0000
0001
0100
1000
0000
1000
0100
0020
0000
1000
0100
0000
0001
0100
0030
,
1000
0000
1000
0100
0001
0000
0001
0100
1000
0000
0110
0000
0001
0000
0110
0000
,
1000
0100
1000
0010
0100
0001
0010
0001
0200
0000
0001
0010
0000
1000
0310
0000
,
1001
0000
0001
0010
1000
0000
1000
0010
0200
0000
1000
0010
0000
0001
0010
0300
,
1000
0000
1000
0100
0001
0000
0001
0100
0020
0000
0001
0100
0000
1000
0130
0000
,
1001
MMMM
0110
MMMM
,
1001
0000
MMMM
0001
0100
1000
0110
0000
,
0001
0100
1000
0100
0000
0000
0001
0100
1000
0100
0000
0000
0011
0000
0000
0110
0000
0000
1100
0000
0000
0000
0000
0000
,
0001
0010
0100
0001
0100
0010
0001
0000
0100
0000
0110
0000
1001
0000
0000
0000
,
1000
0100
0001
0100
0000
0000
1000
0100
0001
0100
0000
0000
1010
0000
0000
0110
0000
0000
0101
0000
0000
0000
0000
0000
,
1000
0010
0100
1000
0100
0010
1000
0000
0100
0000
0110
0000
1001
0000
0000
0000
,
0021
1030
0021
1030
0110
0110
1001
0000
,
1020
0032
2003
3200
0302
0013
0220
0330
,
0201
1300
0201
1300
1001
1001
1001
0000
,
0002
0203
2300
3020
0031
0110
1001
0000
,
1000
0100
1000
0100
0010
0000
0001
0000
1000
0100
1000
0100
0010
0000
0001
0000
0100
0000
0000
0000
0010
0000
0100
0000
1001
0000
0000
0000
0000
0000
0000
0000
,
0001
0100
1000
0100
0001
0100
1000
0000
1100
0000
0101
0000
0011
0000
0000
0000
,
0001
0100
0001
0100
0010
0000
1000
0000
0001
0100
0001
0100
0010
0000
1000
0000
0100
0000
0000
0000
0100
0000
0010
0000
0110
0000
0000
0000
0000
0000
0000
0000
,
1000
0100
0001
0100
1000
0100
0001
0000
0101
0000
1100
0000
1010
0000
0000
0000
,
0001
0010
0100
1000
0100
0000
0010
0000
0001
0010
0100
1000
0100
0000
0010
0000
0001
0000
0000
0000
1000
0000
0010
0000
0101
0000
0000
0000
0000
0000
0000
0000
,
0001
0010
1000
0001
0100
1000
0001
0000
0101
0000
0011
0000
1010
0000
0000
0000
,
1000
0010
0100
0001
0100
0000
0010
0000
1000
0010
0100
0001
0100
0000
0010
0000
1000
0000
0000
0000
0001
0000
0010
0000
1100
0000
0000
0000
0000
0000
0000
0000
,
2000
0000
0100
0000
0001
0000
0010
0000
3100
0000
0110
0000
1001
0000
0001
0200
,
1000
0000
0000
0000
0000
0000
0000
0000
1000
0000
0000
0300
0200
0000
0000
0000
0001
0000
0000
0000
0000
0000
0000
0000
0001
0000
0000
0300
0200
0000
0000
0000
1000
0000
0000
0000
0000
0000
0000
0000
1000
0000
0000
0300
0100
0000
0000
0000
0001
0000
0000
0000
1000
0000
0000
0000
0001
0000
0000
0000
0010
0000
0000
0000
,
0100
0000
0000
1000
0000
0000
0100
0000
0000
0010
0000
0000
0001
0000
0100
0000
0010
0000
1000
0000
0000
0000
0000
0000
1001
0000
0000
0000
0000
0000
0110
0000
0000
0000
0000
0000
1001
0000
0000
0000
0000
0000
1000
0000
0000
0200
0000
0000
,
0001
0000
0000
0000
0000
0000
0000
0000
0001
0000
0000
0300
0200
0000
0000
0000
1000
0000
0000
0000
0000
0000
0000
0000
1000
0000
0000
0300
0200
0000
0000
0000
0001
0000
0000
0000
0000
0000
0000
0000
0001
0000
0000
0300
0100
0000
0000
0000
1000
0000
0000
0000
0001
0000
0000
0000
1000
0000
0000
0000
0010
0000
0000
0000
,
0100
0000
0000
0001
0000
0000
0100
0000
0000
0010
0000
0000
1000
0000
0100
0000
0010
0000
0001
0000
0000
0000
0000
0000
1001
0000
0000
0000
0000
0000
0110
0000
0000
0000
0000
0000
1001
0000
0000
0000
0000
0000
0001
0000
0000
0020
0000
0000
,
1000
0000
0000
0000
0000
0000
0000
0000
1000
0000
0000
0030
0020
0000
0000
0000
0001
0000
0000
0000
0000
0000
0000
0000
0001
0000
0000
0030
0020
0000
0000
0000
1000
0000
0000
0000
0000
0000
0000
0000
1000
0000
0000
0030
0010
0000
0000
0000
0001
0000
0000
0000
0200
0300
0000
0000
0200
0300
0000
0000
1000
0000
0000
0000
,
0001
0000
0000
0000
0000
0000
0000
0000
0000
0000
0000
0000
0020
0000
0000
0030
0000
0000
0000
0000
0000
0000
0000
0000
0020
0000
0000
0030
0000
0000
0000
0000
0000
0000
0000
0000
1000
0000
0000
0000
0000
0000
0000
0000
0000
0000
0000
0000
0001
0000
0000
0000
0000
0000
0000
0000
0010
0000
0000
0000
0000
0000
0000
0000
0001
0000
0000
0000
0000
0000
0000
0000
0100
0000
0000
0000
0000
0000
0000
0000
0000
0000
0000
0000
0000
0000
0000
0000
0000
0000
0000
0000
0000
0000
0000
0000
1010
0000
0000
0000
0000
0000
0000
0000
0000
0000
0000
0000
0000
0000
0000
0000
0000
0000
0000
0000
0000
0000
0000
0000
0011
0000
0000
0000
0000
0000
0000
0000
0000
0000
0000
0000
0000
0000
0000
0000
0000
0000
0000
0000
0000
0000
0000
0000
1001
0000
0000
0000
0000
0000
0000
0000
0000
0000
0000
0000
0000
0000
0000
0000
0000
0000
0000
0000
0000
0000
0000
0000
1000
0000
0000
0000
0000
0000
0000
0000
0000
0000
0000
0000
0020
0000
0000
0000
0000
0000
0000
0000
0000
0000
0000
0000
,
0001
0000
0000
0000
0000
0000
0000
0000
0001
0000
0000
0030
0020
0000
0000
0000
1000
0000
0000
0000
0000
0000
0000
0000
1000
0000
0000
0030
0020
0000
0000
0000
0001
0000
0000
0000
0000
0000
0000
0000
0001
0000
0000
0030
0010
0000
0000
0000
1000
0000
0000
0000
0200
0300
0000
0000
0200
0300
0000
0000
0001
0000
0000
0000
,
1000
0000
0000
0000
0020
0030
0000
0000
0020
0030
0000
0000
0001
0000
0000
0000
0200
0300
0000
0000
0200
0300
0000
0000
1000
0000
0000
0000
0001
0000
0000
0000
0010
0000
0000
0000
0000
0000
0000
0000
0110
0000
0000
0000
0000
0000
0000
0000
0110
0000
0000
0000
0000
0000
0000
0000
1001
0000
0000
0000
0000
0000
0000
0000
,
0010
2002
0000
0000
,
0000
0000
0000
0000
,
0000
0000
0000
0000
,
0000
0000
0000
0000
,
0000
0000
0000
0000
,
0000
0000
0000
0000
,
0000
0000
0000
0000
,
0000
0000
0000
0000
,
0000
0000
0000
0000
,
0000
0000
0000
0000
,
0000
0000
0000
0000
,
0000
0000
0000
0000
,
0000
0000
0000
0000
,
0000
0000
0000
0000
,
0000
0000
0000
0000
,
0000
0000
0000
0000
,
0000
0000
0000
0000
,
0000
3003
0000
0000
;

//--------------- dance-double - forcednature ----------------
#NOTEDATA:;
#STEPSTYPE:dance-double;
#DESCRIPTION:forcednature;
#CREDIT:forcednature;
#DIFFICULTY:Easy;
#METER:3;
#RADARVALUES:0,0,0,0,0;
#OFFSET:0.433;
#BPMS:0.000=128.000;
#NOTES:
00000000
00000000
00000000
00000000
,
00000000
00000000
00000000
00000000
,
00000000
00000000
00000000
00000000
,
00000000
00000000
00000000
00000000
,
00000000
00000000
00000000
00000000
,
00000000
00000000
00000000
00000000
,
00000000
00000000
00000000
00000000
,
00000000
00000000
00000000
00000000
,
00000000
00000000
00000000
00000000
,
00000000
00000000
00000000
00000000
,
00001000
00000000
00000000
00000000
,
00000000
00000000
00000000
00000000
,
00010000
00000000
00000000
00000000
,
00000000
00000000
00000000
00000000
,
00011000
00000000
00000000
00000000
,
00000000
00000000
00000000
00000000
,
01000000
00000000
00000000
00000000
,
00000000
00000000
00000000
00000000
,
00010000
00000000
00000000
00000000
,
00010000
00000000
00000000
00000000
,
10000000
00000000
00000000
00000000
,
10000000
00000000
00000000
00000000
,
01000000
01000000
00000000
00000000
,
00100000
00000000
00000000
00000000
,
00010000
00010000
00000000
00000000
,
10000000
00000000
00000000
00000000
,
00100000
00100000
00000000
00000000
,
01000000
00000000
00000000
00000000
,
00010000
00010000
00000000
00000000
,
00100000
00000000
00000000
00000000
,
00001000
00001000
00000000
00000000
,
00010000
00000000
00000000
00000000
,
00010000
00010000
00000000
00000000
,
00001000
00000000
00000000
00000000
,
00010000
00010000
00000000
00000000
,
00000100
00000000
00000000
00000000
,
00001000
00001000
00000000
00000000
,
00000001
00000000
00000000
00000000
,
00000100
00000000
00000000
00000000
,
00000010
00000000
00000000
00000000
,
00001000
00000000
00000000
00000000
,
00000100
00000000
00000000
00000000
,
00010000
00000000
00000000
00000000
,
00001000
00000000
00000000
00000000
,
01000000
00000000
01000000
00000000
,
01000000
00000000
00000000
00000000
,
00010000
00010000
00000000
00000000
,
00100000
00000000
00000000
00000000
,
00001000
00001000
00000000
00000000
,
00010000
00000000
00000000
00000000
,
00000010
00000010
00000000
00000000
,
00001000
00000000
00000000
00000000
,
00000100
00000000
00000100
00000000
,
00000100
00000000
00000000
00000000
,
00010000
00010000
00000000
00000000
,
00001000
00000000
00010000
00000000
,
00001000
00001000
00000000
00000000
,
00010000
00000000
00001000
00000000
,
01000000
01000000
00000000
00000000
,
00100000
00000000
01000000
00000000
,
00100000
00100000
00000000
00000000
,
01000000
00000000
00000000
00000000
,
00010000
00000000
00000000
00000000
,
10000000
00000000
00000000
00000000
,
01000000
00000000
00000000
00000000
,
10000000
00000000
00000000
00000000
,
00010000
00000000
00000000
00000000
,
01000000
00000000
00000000
00000000
,
00001000
00000000
00000000
00000000
,
00010000
00000000
00000000
00000000
,
00000000
00000000
00000000
00000000
,
00000000
00000000
00000000
00000000
,
00022000
00000000
00000000
00000000
,
00000000
00000000
00000000
00000000
,
00000000
00033000
00000000
00000000
00000000
00000000
00000000
00000000
;

//--------------- dance-double - forcednature ----------------
#NOTEDATA:;
#STEPSTYPE:dance-double;
#DESCRIPTION:forcednature;
#CREDIT:forcednature;
#DIFFICULTY:Medium;
#METER:7;
#RADARVALUES:0,0,0,0,0;
#OFFSET:0.433;
#BPMS:0.000=128.000;
#NOTES:
00000000
00000000
00000000
00000000
,
00000000
00000000
00000000
00000000
,
00000000
00000000
00000000
00000000
,
00000000
00000000
00000000
00000000
,
00000000
00000000
00000000
00000000
,
00000000
00000000
00000000
00000000
,
00000000
00000000
00000000
00000000
,
00000000
00000000
00000000
00000000
,
00000000
00000000
00000000
00000000
,
00000000
00000000
00000000
00000000
,
00000000
00010000
00000000
00010000
,
00000000
00001000
00000000
00001000
,
00000000
00010000
00000000
00010000
,
00000000
00001000
00000000
00001000
,
01000000
00000000
01000000
01000000
,
01000000
00000000
00010000
00000000
,
00100000
00000000
00100000
00100000
,
00100000
00000000
00001000
00010000
,
00000010
00000000
00000010
00000010
,
00000010
00000000
00001000
00000000
,
00000100
00000000
00000100
00000000
00000100
00000000
00000000
00000010
,
00000000
00000100
00000100
00000000
,
00001001
00001001
00000100
00000000
,
00001000
00000001
00001000
00000000
,
00011000
00011000
01000000
00000000
,
00010000
10000000
00010000
00000000
,
10010000
10010000
00010000
00000000
,
01000000
00100000
01000000
00000000
,
00011000
00011000
00010000
00000000
,
00000100
00001000
00000100
00000000
,
00001001
00001001
00000010
00000000
,
00010000
00001000
00010000
00000000
,
00011000
00011000
00001000
00000000
,
01000000
00100000
01000000
00000000
,
10010000
10010000
00010000
00000000
,
01000000
00001000
01000000
00000000
,
00011000
00011000
00001000
00000000
,
00010000
00000100
00010000
00000000
,
00001000
00100000
00002000
00003000
,
00010000
00000010
00020000
00030000
,
00001000
01000000
00010000
01000000
,
00001000
00010000
00000020
00000030
,
00001000
00000100
00020000
00030000
,
00001000
01000000
00020000
00030000
,
10010000
00000000
01100000
00000000
,
20020000
00000000
30030000
00000000
,
10010000
01100000
00010000
00000000
,
01000000
00001000
00010000
00001000
,
00011000
00010100
00000100
00000000
,
00001000
00000010
00000100
00000001
,
00001001
00000000
00010000
00001000
,
00011000
00000000
10000000
00010000
,
10010000
00000000
01100000
00000000
,
00010000
00000000
10000000
00000000
00010000
10000000
00010000
00000000
,
10010000
01100000
00010000
01000000
,
00001000
00010000
00000100
00001000
,
00001001
00000110
00000001
00000010
,
00000100
00001000
00000010
00001000
,
00011000
01001000
01000000
00010000
,
00010000
00100000
01000000
10000000
,
01100000
10010000
00010000
01000000
,
00001000
00000000
00010000
00010000
,
00000100
00001000
00000100
00010000
,
00001000
00100000
00020000
00030000
,
01000000
00010000
01000000
00001000
,
00010000
00000010
00002000
00003000
,
00000100
00010000
00001000
00100000
,
00001000
00010000
00000200
00000300
,
01000000
00001000
00010000
00000010
,
00010000
00001000
01000000
00010000
,
00100000
00000000
00000000
00000000
,
00000000
00000000
00000000
00000000
,
20020000
00000000
00000000
00000000
,
00000000
00000000
00000000
00000000
,
00000000
30030000
00000000
00000000
00000000
00000000
00000000
00000000
;

//--------------- dance-double - forcednature ----------------
#NOTEDATA:;
#STEPSTYPE:dance-double;
#DESCRIPTION:forcednature;
#CREDIT:forcednature;
#DIFFICULTY:Hard;
#METER:10;
#RADARVALUES:0,0,0,0,0;
#OFFSET:0.433;
#BPMS:0.000=128.000;
#NOTES:
00000000
00000000
00000000
00000000
,
00000000
00000000
00000000
00000000
,
00000000
00000000
00000000
00000000
,
00000000
00000000
00000000
00000000
,
00000000
00000000
00000000
00000000
,
00000000
00000000
00000000
00000000
,
00000000
00000000
00000000
00000000
,
00000000
00000000
00000000
00000000
,
00000000
00000000
00000000
00000000
,
00000000
00000000
00000000
00000000
,
00000000
00001000
00000000
00001000
,
00000000
00010000
00000000
00010000
,
00000000
00100000
00000000
00100000
,
00000000
00000000
10000000
00000000
00000000
10000000
01000000
00000000
,
01100000
00000000
00100000
00001000
00000000
00010000
00000000
00000100
,
00000000
00000010
00000010
00000100
00000000
00000100
00000010
00000000
,
00001001
00000000
00000001
00000100
00000000
00000010
00000000
00010000
,
00000000
00001000
00001000
01000000
00000000
01000000
00100000
00000000
,
10010000
00000000
10000000
01000000
00100000
01000000
00000000
00100000
,
00001000
00000000
00010000
00000100
00001000
00000100
00000010
00000000
,
00000110
00000000
00000100
00010000
00001000
00000000
01000000
00010000
,
00000000
00000000
01000000
00000000
10000000
00000000
01000000
00000000
00010000
00000000
00000000
00010000
00100000
00000000
00000000
00000000
,
01000000
10000000
00000000
00000000
01000000
00100000
00000000
00000000
00001000
00000000
00010000
00000000
00000100
00000000
00000000
00000000
,
00001000
00000010
00000100
00000001
00000100
00000010
00001000
00000000
,
00000001
00000010
00000000
00000000
00000100
00000010
00000000
00000000
00000100
00000000
00010000
00000000
00001000
00000000
00000000
00000000
,
01000000
00010000
00100000
00010000
01000000
00100000
10000000
00000000
,
01000000
00100000
00000000
00000000
00010000
00100000
00000000
00000000
01000000
00000000
00010000
00000000
00001000
00000000
00000000
00000000
,
00000010
00000100
00010000
00001000
00010000
00000100
00000010
00000000
,
00000001
00000100
00000000
00000000
00000001
00000010
00000000
00000000
00000100
00000000
00010000
00000000
00001000
00000000
00000000
00000000
,
01000000
00010000
00100000
01000000
20000000
00100000
30010000
00000000
,
10000000
01000000
00000000
00000000
00010000
01000000
00000000
00000000
00100000
00000000
00001000
00000000
00010000
00000000
00000000
00000000
,
00000010
00000100
00001000
00000100
00000001
00000010
00000100
00000000
,
00000010
00000001
00000000
00000000
00000010
00001000
00000000
00000000
00010000
00000000
00000100
00000000
00001000
00000000
00000000
00000000
,
00000010
00000100
00001000
00010000
00100000
01000000
00010000
00000000
,
10000000
01000000
00000000
00000000
00010000
01000000
00000000
00000000
00100000
00000000
00001000
00000000
00010000
00000000
00000000
00000000
,
00100000
01000000
00001000
00010000
00000010
00000100
00000001
00000000
,
00000010
00001000
00000000
00000000
00000010
00000001
00000000
00000000
00000100
00000000
00001000
00000000
00010000
00000000
00000000
00000000
,
00100000
00000000
01000000
00100000
01000000
00000000
00010000
00000000
10000000
00000000
01000000
00000000
01100000
00000000
00000000
00000000
,
00100000
00001000
00010000
00000100
00001000
00010000
00100000
00001000
,
00010000
00000010
00001000
00010000
01000000
00001000
00010000
00000010
,
00001000
00000100
00000010
00001000
00010000
01000000
00100000
00010000
,
01000000
10000000
01000000
00010000
00200000
00000000
00000000
00300000
,
01000000
00010000
00001000
00000010
00000100
00010000
00001000
00100000
,
00010000
01000000
00100000
00010000
00001000
00000100
00000010
00001000
,
00001001
00000000
00011000
00000000
,
20020000
00000000
30030000
00000000
,
10000000
01000000
00000000
00000000
00010000
01000000
00000000
00000000
00100000
00000000
00001000
00000000
00101000
00000000
00000000
00000000
,
00001000
00010000
00100000
01000000
00001000
00010000
00100000
00000000
,
00010000
00001000
00000000
00000000
00000010
00001000
00000000
00000000
00010000
00000000
00010000
00000000
00010100
00000000
00000000
00000000
,
00000100
00000010
00000001
00000100
00000010
00010000
00000100
00000000
,
00020000
00000010
00001000
01030000
,
00002000
00100000
00010000
00003100
,
00021000
00000000
00030010
00000000
00011000
00001000
00100000
00000000
,
01000000
00010000
00001000
00000100
00001000
00010000
00100000
00000000
,
10000000
01000000
00000000
00000000
00100000
00010000
00000000
00000000
01000000
00000000
00001000
00000000
00011000
00000000
00000000
00000000
,
00010000
00000100
00000010
00001000
00000010
00000100
00010100
00000000
,
00010000
00000010
00000000
00000000
00001000
00000010
00000000
00000000
00000100
00000000
00000001
00000000
00000011
00000000
00000000
00000000
,
00000010
00000100
00010000
00001000
00100000
01000000
11000000
00000000
,
10000000
00100000
00000000
00000000
01000000
00010000
00000000
00000000
00100000
00000000
01000000
00000000
01100000
00000000
00000000
00000000
,
00100000
00001000
00000010
00001000
00010000
00000010
00010000
00000000
,
00001000
00000100
00000000
00000000
00001000
00010000
00000000
00000000
00000100
00000000
00000100
00000000
00000110
00000000
00000000
00000000
,
00000001
00000100
00001000
00010000
01000000
10000000
10100000
00000000
,
00100000
01000000
10000000
01000000
00010000
00100000
01000000
00010000
,
00001000
00000010
00000100
00001000
00000002
00000000
00000003
00000100
,
00001000
00000100
00000001
00000010
00000100
00010000
00001000
00100000
,
01000000
00010000
01000000
10000000
00200000
00000000
00300000
00000000
,
01000000
10000000
01000000
00010000
00100000
01000000
00100000
00001000
,
00010000
00000100
00010000
00001000
00000020
00000000
00000030
00000100
,
00001000
00000010
00000001
00000010
00000100
00001000
00010000
01000000
,
00100000
00001000
00010000
00100000
10000000
01000000
00010000
00001000
,
00000010
00000000
00000000
00000000
,
00000000
00000000
00000000
00000000
,
00002002
00000000
00000000
00000000
,
00000000
00000000
00000000
00000000
,
00000000
00003003
00000000
00000000
00000000
00000000
00000000
00000000
;

//--------------- dance-double - forcednature ----------------
#NOTEDATA:;
#STEPSTYPE:dance-double;
#DESCRIPTION:forcednature;
#CREDIT:forcednature;
#DIFFICULTY:Challenge;
#METER:17;
#RADARVALUES:0,0,0,0,0;
#OFFSET:0.433;
#BPMS:0.000=128.000
,280.000=16.000
,281.000=1024.000
,349.000=128.000
;
#TIMESIGNATURES:0.000=4=4,
280.000=1=4,
281.000=4=4
;
#NOTES:
00000000
00000000
00000000
00000000
,
00000000
00000000
00000000
00000000
,
00000000
00000000
00000000
00000000
,
00000000
00000000
00000000
00000000
,
00000000
00000000
00000000
00000000
,
00000000
00000000
00000000
00000000
,
00000000
00000000
00000000
00000000
,
00000000
00000000
00000000
00000000
,
00000000
00000000
00000000
00000000
,
00000000
00000000
00000000
00000000
,
00000000
01001000
00000000
01001000
,
00000000
00010100
00000000
00010100
,
00000000
00101000
00000000
00101000
,
00000000
00000000
00010010
00000000
00000000
00000010
00000100
00001000
,
00010000
00100000
01000000
00100000
10000000
01000000
00000000
01100000
,
00000000
00100000
00100000
00002000
00010000
01000000
00010000
00103000
,
00001000
00010000
00001000
00000010
00000100
00001000
00000000
00001010
,
00000000
00000010
00000010
00020000
00000100
00001000
00030010
00010000
,
00011000
00001000
01000000
10000000
01000000
00010000
00000000
00100000
,
10010000
00000000
10000000
00000000
01000000
00000000
00010000
00001000
00010000
00000000
00000100
00000000
00001000
00000000
00000010
00000000
,
00000110
00000000
00000110
00000100
00001001
00000000
00000010
00000110
,
00000000
00000000
00010000
00000000
00001100
00000000
00010000
00000000
00001100
00000000
00000010
00000001
00000001
00000000
00000000
00000000
,
00000100
00001000
00010000
00000000
01000000
00010000
00001000
00000000
00000010
00000000
00000110
00000000
00001001
00000000
00000000
00000000
,
00001000
00000000
00000010
00000000
00000100
00001000
00010000
00000000
00100000
00000000
01000000
00000000
01100000
00000000
00000000
00000000
,
00100000
00010000
00001000
00000000
00000010
00001000
00010000
00000000
01000000
00000000
01100000
00000000
10010000
00000000
00000000
00000000
,
00010000
00000000
01000000
00000000
00100000
00010000
00001000
00000000
00000100
00000000
00000010
00000000
00000110
00000000
00000000
00000000
,
00000010
00001000
00010000
00000000
00100000
00010000
00001000
00000000
00000100
00000000
00000110
00000000
00001001
00000000
00000000
00000000
,
00001000
00000000
00000100
00000000
00000010
00001000
00010000
00000000
01000000
00000000
00100000
00000000
01100000
00000000
00000000
00000000
,
01000000
00010000
00001000
00000000
00000100
00001000
00010000
00000000
00100000
00000000
01100000
00000000
10010000
00000000
00000000
00000000
,
00010000
00000000
00000000
00000000
00000000
00000000
00100000
00000000
00000000
00000000
00000000
00000000
01000000
00000000
00000000
00010000
00000000
00000000
00001000
00000000
00000000
00000000
00000000
00000000
00000010
00000000
00000000
00000000
00000000
00000000
00000100
00000000
00001000
00000000
00000001
00000000
00000100
00000000
00000000
00000000
00000000
00000000
00000000
00000000
00000000
00000000
00000000
00000000
,
00000001
00000100
00001000
00000000
00010000
01000000
10000000
00000000
00100000
00000000
10100000
00000000
11000000
00000000
00000000
00000000
,
01000000
00100000
01000000
00010000
00001000
00000000
00010000
00000000
00100000
00000000
01100000
00000000
10010000
00000000
00000000
00000000
,
10000000
01000000
00010000
00000000
00001000
00000100
00000001
00000000
00000010
00000000
00000011
00000000
00000101
00000000
00000000
00000000
,
00000100
00000010
00000100
00001000
00010000
00000000
00001000
00000000
00000010
00000000
00000110
00000000
00001001
00000000
00000000
00000000
,
00000001
00000010
00001000
00000000
00010000
00100000
10000000
00000000
01000000
00000000
11000000
00000000
10100000
00000000
00000000
00000000
,
00100000
01000000
00100000
00010000
00001000
00000000
00010000
00000000
01000000
00000000
01100000
00000000
10010000
00000000
00000000
00000000
,
10000000
00100000
00010000
00000000
00001000
00000010
00000001
00000000
00000100
00000000
00000101
00000000
00000011
00000000
00000000
00000000
,
00000010
00000000
00000000
00000100
00000000
00000000
00001000
00000000
00000000
00000100
00000000
00000000
00000010
00000000
00000000
00000000
00000000
00000000
00000001
00000000
00000100
00000000
00000010
00000000
00001000
00000000
00000000
00000000
00000000
00000000
00001000
00000000
00000000
00000100
00000000
00000000
00010000
00000000
00000000
00000000
00000000
00000000
00001000
00000000
00000000
00000000
00000000
00000000
,
00011000
00000000
00010000
00001000
01000000
00000000
00010000
00000000
00200000
00000000
10000000
00000000
00010000
00000000
00301000
00000000
,
00100000
00000000
00001000
00010000
00000100
00000000
00001000
00000000
00000020
00000000
00000001
00000000
00001000
00000000
00010030
00000000
,
00000010
00000000
00010000
00001000
00100000
00000000
00010000
00000000
01010000
00000000
00001000
00000000
00110000
00000000
00001000
00000000
,
00100000
00010000
01000000
00001000
00010000
00000100
00001000
00000010
00000200
00000000
00001000
00001000
00000000
00000001
00000301
00000000
,
00000100
00000000
00001000
00010000
00100000
00000000
00100000
10000000
02000000
00000000
10000000
00000000
00010000
00000000
03001000
00000000
,
01000000
00000000
00010000
00001000
00000010
00000000
00000010
00000001
00000200
00000000
00000001
00000000
00001000
00000000
00010300
00000000
,
00011000
MMMMMMMM
01100000
MMMMMMMM
,
00000110
00000000
MMMMMMMM
00000001
00001000
00010000
10000000
00000000
,
10000000
01000000
00100000
00010000
00000000
00000000
00001000
00000100
00000010
00000001
00000000
00000000
00000101
00000000
00000000
00001010
00000000
00000000
00000101
00000000
00000000
00000000
00000000
00000000
,
00000001
00000010
00000100
00000010
00000100
00010000
00001000
00100000
01000000
00000000
00010000
00000000
00011000
00000000
00000000
00000000
,
00000001
00000100
00000010
00001000
00000000
00000000
00010000
01000000
00100000
10000000
00000000
00000000
11000000
00000000
00000000
00110000
00000000
00000000
11000000
00000000
00000000
00000000
00000000
00000000
,
10000000
00100000
01000000
00100000
01000000
00001000
00010000
00000010
00000100
00000000
00001000
00000000
00011000
00000000
00000000
00000000
,
00201000
01300000
00210000
00301000
01100000
01010000
00011000
00000000
,
00000200
00020300
02030000
03200000
00302000
00003200
00000302
00000003
,
00010020
00000130
00001020
00010030
00000110
00001100
00011000
00000000
,
00020000
02030000
23000000
30200000
00320000
00030200
00000320
00000030
,
00000001
00000000
00000100
00000000
00001000
00000000
00010000
00000000
00000000
00100000
00000000
00000000
00010000
00000000
00001000
00000000
00000100
00000000
00000001
00000000
00000000
00000010
00000000
00000000
00000100
00000000
00000000
00000000
00000000
00000000
00000110
00000000
00000000
00000000
00000000
00000000
00002001
00000000
00000000
00000000
00000000
00000000
00000000
00000000
00000000
00000000
00000000
00000000
,
00013000
00100000
00010000
01000000
00100000
00010000
00001000
00000000
00011000
00000000
01001000
00000000
01100000
00000000
00000000
00000000
,
10000000
00000000
01000000
00000000
00010000
00000000
00001000
00000000
00000000
00000010
00000000
00000000
00001000
00000000
00010000
00000000
01000000
00000000
10000000
00000000
00000000
00100000
00000000
00000000
01000000
00000000
00000000
00000000
00000000
00000000
01100000
00000000
00000000
00000000
00000000
00000000
10020000
00000000
00000000
00000000
00000000
00000000
00000000
00000000
00000000
00000000
00000000
00000000
,
00031000
00000010
00001000
00000100
00000010
00001000
00010000
00000000
00011000
00000000
00010100
00000000
00000110
00000000
00000000
00000000
,
00000001
00000000
00000010
00000000
00000100
00000000
00001000
00000000
00000100
00000000
00010000
00000000
00001000
00000000
00100000
00000000
00010000
00000000
00100000
00000000
01000000
00000000
10000000
00000000
00010000
00000000
00000000
00100000
00000000
00000000
00010000
00000000
00000000
00001000
00000000
00000000
00000100
00000000
00000000
00000000
00000000
00000000
00000000
00000000
00000000
00000000
00000000
00000000
,
00000010
00000100
00010000
00000010
00000100
00001000
00010000
00100000
01000000
00000000
01100000
00000000
10010000
00000000
00000000
00000000
,
10000000
00000000
00100000
00000000
01000000
00000000
00010000
00000000
01000000
00000000
00001000
00000000
00010000
00000000
00000010
00000000
00001000
00000000
00000010
00000000
00000100
00000000
00000001
00000000
00001000
00000000
00000000
00000010
00000000
00000000
00001000
00000000
00000000
00010000
00000000
00000000
01000000
00000000
00000000
00000000
00000000
00000000
00000000
00000000
00000000
00000000
00000000
00000000
,
00200000
20300000
32000000
03020000
00030200
00000320
00000032
00000003
,
00000200
00000000
00020300
00000000
20030000
00000000
30020000
00000000
00030200
00000000
00020300
00000000
10030000
00010000
00100000
01000000
,
00100000
00000000
00000000
00001000
00000000
00000000
00010000
00000000
00000000
00000100
00000000
00000000
00001000
00000000
00000001
00000000
00001000
00000000
00000010
00000000
00000000
00000000
00000000
00000000
00000100
00000000
00000000
00000000
00000000
00000000
00001000
00000000
00000000
00000000
00000000
00000000
00010000
00000000
00000000
00000000
00000000
00000000
00100000
00000000
00000000
10000000
00000000
00000000
,
02000000
00000000
03002000
00000000
00003002
00000000
00002003
00000000
02003000
00000000
03002000
00000000
00003001
00001000
00000010
00000100
,
00000010
00000000
00000000
00010000
00000000
00000000
00001000
00000000
00000000
01000000
00000000
00000000
00010000
00000000
10000000
00000000
00010000
00000000
00100000
00000000
00000000
00000000
00000000
00000000
01000000
00000000
00000000
00000000
00000000
00000000
00010000
00000000
00000000
00000000
00000000
00000000
00001000
00000000
00000000
00000000
00000000
00000000
00000010
00000000
00000000
00000100
00000000
00000000
,
00000002
00000000
00002003
00000000
00203000
00000000
00302000
00000000
00003002
00000000
00002003
00000000
00103000
00010000
01000000
00100000
,
00010000
00000000
00000000
00001000
00000000
00000000
00000100
00000000
00000000
00000010
00000000
00000000
00001000
00000000
00000100
00000000
00000010
00000000
00000001
00000000
00000000
00000000
00000000
00000000
00000100
00000000
00000000
00000000
00000000
00000000
00001000
00000000
00000000
00000000
00000000
00000000
00010000
00000000
00000000
00000000
00000000
00000000
00100000
00000000
00000000
01000000
00000000
00000000
,
20000000
00000000
30020000
00000000
00030020
00000000
00020030
00000000
20030000
00000000
30020000
00000000
00030010
00001000
00000100
00000010
,
00001000
00000000
00000000
00010000
00000000
00000000
01000000
00000000
00000000
00100000
00000000
00000000
00010000
00000000
01000000
00000000
00100000
00000000
10000000
00000000
00100000
00000000
01000000
00000000
00010000
00000000
00000000
00000000
00000000
00000000
00110000
00000000
00000000
00000000
00000000
00000000
00011000
00000000
00000000
00000000
00000000
00000000
01010000
00000000
00000000
00000000
00000000
00000000
,
00200000
00000200
00000000
00000000
,
00000000
00000000
00000000
00000000
,
00000000
00000000
00000000
00000000
,
00000000
00000000
00000000
00000000
,
00000000
00000000
00000000
00000000
,
00000000
00000000
00000000
00000000
,
00000000
00000000
00000000
00000000
,
00000000
00000000
00000000
00000000
,
00000000
00000000
00000000
00000000
,
00000000
00000000
00000000
00000000
,
00000000
00000000
00000000
00000000
,
00000000
00000000
00000000
00000000
,
00000000
00000000
00000000
00000000
,
00000000
00000000
00000000
00000000
,
00000000
00000000
00000000
00000000
,
00000000
00000000
00000000
00000000
,
00000000
00000000
00000000
00000000
,
00000000
00300300
00000000
00000000
;
