#TITLE:PLANET OF THE BASS;
#SUBTITLE:-KSM's HYPERRAVE MIX-;
#ARTIST:Kyle Gordon ft. DJ Crazy Times and Bilijana Electronica;
#TITLETRANSLIT:;
#SUBTITLETRANSLIT:;
#ARTISTTRANSLIT:;
#GENRE:;
#CREDIT:KAYSTAR;
#MUSIC:planet of the bass ksm hyperrave mix.ogg;
#BANNER:planet of the bass ksm hyperrave mix bn.png;
#BACKGROUND:planet of the bass ksm hyperrave mix bg.png;
#CDTITLE:;
#SAMPLESTART:52.407;
#SAMPLELENGTH:10.000;
#SELECTABLE:YES;
#OFFSET:0.000;
#BPMS:0.000=40.500
,4.000=162.000
,61.500=81.000
,61.750=40.500
,62.000=162.000
,122.000=81.000
,124.000=162.000
,156.000=81.000
,157.000=162.000
,187.000=81.000
,190.000=162.000
,230.000=40.500
,232.000=81.000
,264.000=162.000
;
#STOPS:24.000=1.111
,61.000=0.185
,61.500=0.185
,61.750=0.093
,61.813=0.093
,61.875=0.093
,61.938=0.093
,190.000=0.093
,190.250=0.093
,190.500=0.093
,190.750=0.093
,205.000=0.370
,230.000=1.481
;
#DISPLAYBPM:162.000;
#BGCHANGES:0.000=planet of the bass ksm hyperrave mix.avi=1.000=1=0=0=StretchNoLoop==CrossFade==;
#FGCHANGES:;

//--------------- dance-single - KAYSTAR ----------------
#NOTES:
     dance-single:
     KAYSTAR:
     Beginner:
     4:
     0,0,0,0,0:
0000
0000
0000
0000
,
0000
0000
0000
0000
,
0000
0000
0000
0000
,
2000
0000
0000
0000
,
3000
0000
0000
0000
,
0002
0003
2000
3000
,
0000
0000
0001
0000
,
0001
0000
1000
1000
,
0000
0010
0000
0010
,
0000
0100
0000
0000
,
0000
0001
0000
0001
,
0000
1000
0000
0000
,
0000
0100
0000
0100
,
0000
1000
0000
0000
,
0000
0001
0000
0001
,
0000
0000
0000
0000
,
0100
0000
0010
0000
,
1000
0000
0001
0001
,
0001
0000
0010
0010
,
0010
0000
0100
0000
,
1000
0000
0001
0000
,
0100
0000
0010
0010
,
0010
0000
1000
1000
,
1000
0000
0100
0000
,
0100
0000
0100
0000
,
0010
0010
0100
0000
,
0100
0000
0100
0000
,
0010
0010
0001
0000
,
1000
0000
0001
0000
,
1000
1000
0010
0000
,
0100
0000
0002
0003
,
0010
0000
0010
0000
,
0001
0001
0001
0000
,
1000
0000
1000
0000
,
0010
0010
0010
0000
,
1000
0000
1000
0000
,
0100
0100
0100
0000
,
0010
0000
0010
0000
,
0001
0001
0001
0000
,
0000
0000
0000
0100
,
0100
0010
0000
1000
,
0000
0001
0000
0010
,
0010
0100
0000
1000
,
1000
0001
0000
0001
,
0000
0001
0000
0000
0001
0000
0001
0000
,
0000
0100
0000
0010
,
0010
0010
0010
1000
,
0000
0000
0000
0100
,
0000
1000
1000
0001
,
0000
0100
0100
0001
,
0000
1000
1000
0100
,
0000
0010
0000
0001
,
0001
0100
0000
0010
,
0000
1000
0000
0001
,
0001
0001
0000
0010
,
0002
0000
2003
0000
,
3100
0100
0010
0010
,
0100
0020
0200
0000
,
0330
0000
0000
0000
,
1000
0000
0000
0000
1000
1000
0000
0000
,
0001
0000
0000
0000
0001
0001
0000
0000
,
0010
0000
0000
0000
0010
0010
0000
0000
,
0100
0000
0000
0000
0100
0100
0000
0000
,
1000
0000
0000
0000
0010
0010
0000
0000
,
0001
0000
0000
0000
0010
0010
0000
0000
,
1000
0000
0000
0000
0100
0100
0000
0000
,
0000
0000
0000
0000
,
0000
0000
0000
0000
,
1000
1000
0001
0001
,
1000
0001
2002
0000
,
0000
0000
0000
0000
,
3003
0000
0000
0000
;

//--------------- dance-single - KAYSTAR ----------------
#NOTES:
     dance-single:
     KAYSTAR:
     Easy:
     9:
     0,0,0,0,0:
0000
0000
0000
0000
,
0000
0000
0000
0000
,
0000
0000
0000
0000
,
0000
1000
0000
1000
,
0000
0001
0000
0001
,
1000
0100
1000
0000
0001
0100
0001
0000
,
0000
1100
0000
0011
,
0000
1010
0101
1001
,
0000
0000
0010
1000
0000
0001
0000
0010
,
0000
0100
0000
0001
0000
0100
0000
0010
,
0000
0001
1000
0001
0000
0100
0000
0010
,
0000
0001
0000
0010
0000
0100
0000
0001
,
0000
1000
0001
1000
0000
0010
0000
0100
,
0000
1000
0000
0100
0000
0010
0000
1000
,
0000
0001
1000
0001
0000
0010
0000
0100
,
0000
1000
0000
0000
0001
0000
0100
0001
,
0000
1000
0100
1000
0000
0010
0000
0100
,
0000
0000
0000
0000
0001
0010
0001
0000
,
1000
0010
0000
0100
0000
0001
0000
0000
,
0000
0000
0000
0000
1000
0010
1000
0000
,
0001
0000
0010
0001
0000
0100
0000
0010
,
0000
0000
0000
0000
1000
0001
1000
0000
,
0001
0000
0100
0010
0000
1000
0000
0100
,
0000
0001
0000
0000
0200
0000
1300
0000
,
0002
0103
2000
3100
,
0012
0000
0103
0000
0001
0000
1000
1000
,
0000
0000
0100
0100
0000
0000
1000
1000
,
0000
0000
0001
0001
2000
0000
3100
0000
,
0002
0103
2000
3010
,
0102
0000
0013
0000
0001
1000
0001
1000
,
0001
1000
0100
0000
2000
0000
0000
0000
,
3010
0000
0100
0001
0000
1000
0100
0000
,
1000
0000
0010
1000
0000
0001
0010
0000
,
0001
1000
0001
0000
1000
0000
0100
0000
,
1000
0001
1000
0000
0001
0000
0100
0000
,
1000
0000
0100
0000
0000
0010
1000
0000
,
0001
0000
0010
0100
0000
0010
0100
0000
,
1000
0001
0010
0000
0001
0000
1000
0000
,
0001
0100
0001
1000
0100
1000
0001
0010
,
0000
0000
0000
0001
,
1000
0010
0000
1000
0100
0000
1000
0001
,
0100
0000
0001
0000
0010
0000
0001
1000
,
0100
0000
1000
0000
0010
0000
1000
0001
,
1001
0000
0000
1000
0100
0000
0002
0000
,
0000
0203
0000
0000
0320
0000
0031
0000
,
0000
0000
2000
0000
3020
0000
0130
0010
,
0100
0010
1000
0001
0100
0001
2000
0000
,
3000
0000
0000
1100
,
0000
0001
0010
0000
0001
0000
0100
0000
,
0010
0000
1000
0010
1000
0000
0101
0000
,
0000
1000
0010
0000
1000
0000
0001
1000
,
0001
1001
1000
0010
,
1000
0001
0100
0000
0001
0000
0010
0000
,
0100
1000
0001
0000
0100
0000
1000
0000
,
0010
0001
1000
1001
,
0001
0010
0001
0010
0100
1000
0100
1000
,
0010
0100
0001
1000
0100
0010
0001
1000
,
0010
0100
0001
0010
0200
0000
0000
0000
,
0300
0000
0000
0000
,
1000
0000
0100
0000
0000
1000
0100
0000
,
0001
0000
0100
0000
0000
0001
0100
0000
,
1000
0000
0010
0000
0000
1000
0010
0000
,
0001
0000
0010
0000
0000
0001
0010
0100
,
1000
0000
0001
0000
1000
1000
0100
0000
,
0001
0000
1000
0000
0001
0001
0100
0000
,
0010
0000
1000
0000
0001
0010
0100
2000
,
0000
0000
0000
0000
,
3000
0000
0000
0000
,
0011
0000
1010
0000
,
0001
0100
0010
1000
0200
0000
0000
0000
,
0000
0000
0000
0000
,
0300
0000
0000
0000
;

//--------------- dance-single - KAYSTAR ----------------
#NOTES:
     dance-single:
     KAYSTAR:
     Medium:
     13:
     0,0,0,0,0:
0000
0000
0000
0000
,
0000
0000
0000
0000
,
0000
0000
0000
0000
,
0000
1000
0000
1000
,
0000
0001
0000
0001
,
1000
0010
1000
0000
0001
0100
0001
0000
1000
0100
1000
0000
0001
0010
0001
0000
,
0000
0000
2001
0000
3100
0000
1002
1000
,
0103
1010
0101
1001
,
0000
0000
1000
0100
1000
0001
0100
0000
,
0010
1000
0001
2000
0000
3100
0000
0000
,
0100
1000
0010
1000
0001
0010
0100
0002
,
0000
0203
0000
2300
0000
3000
0000
0000
,
0001
1000
0001
0010
0001
0100
0000
0010
,
0100
2000
0000
3200
0000
0301
0000
0000
,
0100
0010
1000
0001
0010
0001
0100
0020
,
0000
1030
0000
0000
1000
0001
1000
0100
,
0000
1000
1000
0002
0000
0023
0000
0130
,
0000
0001
0100
0000
1000
0000
0001
1000
,
0010
0100
0001
0020
0000
0032
0000
0203
,
0000
0310
2000
0000
3001
0000
0100
0010
,
1000
0001
0010
0200
0000
2300
0000
3020
,
0000
0130
1000
0000
0100
0000
0001
1000
,
0010
0001
0010
0100
0000
0001
1000
0100
,
0001
0100
0010
0000
0002
0000
0103
0010
,
2000
0000
3100
0010
0002
0000
0103
0010
,
1000
0100
0001
0100
2000
0000
3010
0100
,
0002
0000
0013
0100
2000
0000
3010
0100
,
0001
1000
0100
0100
2000
0000
3010
0100
,
2000
0000
3100
0010
0002
0000
0013
0100
,
0001
1000
0010
1000
0100
0100
0010
0010
,
0001
1000
0010
0000
2002
0000
3003
0000
,
2000
0000
0000
0000
3100
1000
0100
0000
0000
0000
0010
0000
0001
0000
0100
0000
,
0002
0000
0000
0000
0103
0001
0100
0000
0000
0000
0010
0000
1000
0000
0100
0000
,
1000
0001
2000
0000
0000
0000
3001
1000
0001
0000
1000
0100
0000
1000
0100
0000
,
1000
0001
2000
0000
0000
0000
3001
1000
0001
0000
0100
0000
0010
0000
1000
0000
,
0001
0000
0110
0000
0001
1000
0010
0000
,
2000
0000
0000
0000
3010
1000
0010
0000
0000
0000
0100
0000
0001
0000
1000
0000
,
0100
0000
0010
0001
0000
0010
0001
0000
2000
0000
0000
0000
3010
0000
0100
0000
,
0001
1000
0001
0000
0010
0000
0001
1000
0001
0000
0010
0000
0100
0000
1000
0000
,
0020
0000
0130
0002
,
0103
0010
0100
0000
0000
0000
0001
0000
0010
0000
0100
0000
0001
0000
0200
0000
,
2300
0000
3002
0000
0003
0000
1000
0010
0000
1000
0010
0000
0100
0001
0100
0000
,
0010
1000
0100
0010
0100
1000
0001
0001
,
0200
0000
0310
1000
0100
1000
0020
0000
,
1030
0200
0000
0310
0002
0000
1003
0000
,
0010
0000
0100
0001
0100
0000
0000
0000
0001
0000
1000
0100
1000
0000
0001
0010
,
0001
0000
1000
0010
1000
0000
0001
0100
0001
0000
0010
0100
1000
0000
0000
0000
,
0000
0000
0000
0000
0001
0000
1000
0000
0100
0100
0100
0100
1000
0000
0000
0000
,
0101
0000
0001
0000
1000
0010
0000
0010
1000
0000
0000
0000
0001
0010
0000
0002
,
0000
0103
0010
1000
1100
0000
0210
0000
,
0301
0000
0100
0000
0010
0000
0001
0000
1000
0000
0000
0000
0010
0000
0100
0001
,
0000
0000
1000
0000
1100
0000
0000
0000
0012
0000
0000
0000
0103
0000
0010
1000
,
0000
1000
0100
0000
0020
0000
0000
0000
1030
0000
0010
0000
0100
0000
0010
0000
,
0001
1000
0010
0000
0001
0010
0100
0010
,
1000
0001
0010
0000
0001
1000
0001
0001
,
1000
0100
0001
0010
1000
0100
0001
0010
,
1000
0100
0001
0010
1000
0100
0001
0010
,
1000
0100
0001
0010
2000
0000
0000
0000
,
3000
0000
0000
0000
,
0002
0000
1000
0000
0100
0100
1003
0000
,
2000
0000
0001
0000
0100
0100
3001
0010
,
0001
1000
0010
1000
0100
0010
0001
0000
,
0001
0100
0001
1000
0100
1000
0001
0010
,
0200
0000
0001
0000
0010
0010
1300
0001
,
0200
0000
1000
0000
0010
0010
0301
1000
,
0010
1000
0100
1000
0001
0010
0001
0100
,
0002
0000
0000
0000
,
0003
0000
0000
0000
,
1000
0100
1000
0000
0001
0100
0001
0000
1000
0100
1000
0000
0001
0100
0001
0000
,
1000
0001
1000
0100
0010
0001
1000
0000
0020
0000
0000
0000
0000
0000
0000
0000
,
0000
0000
0000
0000
,
0030
0000
0000
0000
;

//--------------- dance-single - KAYSTAR ----------------
#NOTES:
     dance-single:
     KAYSTAR:
     Hard:
     16:
     0,0,0,0,0:
0000
0000
0000
0000
,
0000
0000
0000
0000
,
0000
0000
0000
0000
,
2000
0010
0000
3010
,
0002
0010
0000
0013
,
1000
0100
1000
0000
0001
0010
0001
0000
1000
0001
0100
0000
0010
1000
0100
0000
,
0000
0000
0000
0000
1001
0000
0000
0000
0020
0030
0000
0000
1001
0000
1000
0001
,
0020
0030
0000
0000
1001
0000
0010
0000
1000
0000
0100
0000
1001
0000
0000
0000
,
0000
0000
1000
0010
1000
0100
0001
0000
,
0100
0010
0002
0100
0000
1003
0000
0000
,
0001
0100
0001
0010
0001
0100
1000
0200
,
0000
0320
0000
2030
0000
3000
0000
0000
,
0001
0010
0001
1000
0100
0001
0000
0100
,
0010
0002
0000
0100
0000
1003
0000
0000
,
0001
1000
0010
0100
1000
0100
0001
0020
,
0000
0130
0000
0000
1000
0001
1000
0100
,
0000
0010
1000
0002
0000
0203
0000
2300
,
0000
3001
0100
0000
1001
0000
1000
0010
,
0001
0010
0100
0002
0000
2003
0000
3200
,
0000
0301
0200
0000
1300
0000
0100
0010
,
0001
0100
1000
0002
0000
0023
0000
2030
,
0000
3001
0010
0000
0100
1000
0001
0100
,
1000
0100
0010
1000
0001
0010
0100
1000
,
0010
0000
0100
0000
0001
0000
0010
0000
0000
0000
0000
0000
0002
0000
0000
1000
0000
0000
0103
0000
0000
0000
0000
0000
,
2000
0000
0001
0000
3100
0000
1000
0001
2000
0000
0010
0000
3100
0000
0000
0000
,
0002
0000
0010
0000
2003
0000
0100
0000
3010
0000
1000
0001
0100
0001
0000
0010
,
0000
0001
1000
0100
1000
0001
0000
0000
0010
0000
0001
1000
0010
1000
0001
0010
,
0000
0001
0100
0000
0010
1000
0010
0000
0200
0000
1000
0000
0310
0000
0100
0000
,
0002
0000
1000
0000
0013
0000
0100
0010
0200
0000
0001
0000
0310
0000
0001
0000
,
2000
0010
3002
0010
0103
0100
0010
0010
,
1000
0100
0110
0000
2002
0000
3003
0000
,
0001
0000
1000
0000
0100
0010
0100
0000
0001
0000
0100
0010
0100
0000
1000
0000
,
0001
0000
1000
0000
0010
0100
0010
0000
0001
0000
0010
0100
0010
0000
1000
0000
,
0001
0100
0001
0000
0010
0000
0001
0100
0001
0000
2000
0010
0000
3002
0010
0000
,
1003
0100
1000
0000
0010
0000
0100
0000
1000
0000
0100
0000
0010
0000
1000
0000
,
0100
0000
0000
0000
0011
0000
0000
0000
1000
0000
0001
0010
0001
0000
0010
0000
,
1000
0000
0010
0000
0100
0010
0100
0000
1000
0000
0010
0100
0010
0000
1000
0000
,
0001
0000
2000
0100
0000
3002
0100
0000
1003
0010
1000
0000
0001
0000
0010
0000
,
0001
0100
0001
0100
0010
0000
1000
0100
1000
0100
0010
0000
0100
0000
0001
0000
,
0200
0000
0000
0000
1300
0000
0001
0100
,
0010
0100
1000
0000
0100
0000
1000
0100
0010
0000
1000
0000
0001
0000
0020
0000
,
1000
0000
0130
0000
1000
0000
0002
0010
0000
2003
0010
0000
3001
0010
0002
0000
,
0203
0320
0032
0023
2030
3200
0310
0100
,
1001
0000
0000
0000
1000
0000
0100
0010
1000
0000
0010
0000
0210
0000
0000
0000
,
0301
0210
0000
1300
0001
0000
0201
0000
,
0310
0000
1000
0001
0020
0000
0000
0000
0130
0000
0001
0100
0020
0000
0100
0000
,
0032
0010
2003
0100
3020
0100
1030
0000
,
0000
0000
0000
0000
0000
0000
0000
0000
1000
0000
0001
0010
0001
0000
1000
0000
0010
0000
0010
0000
0010
0000
0010
0000
2000
0000
0000
0000
0010
0000
0000
0000
,
3100
0000
1000
0000
0001
0010
0000
1100
0000
0000
0001
0000
1000
0010
0000
0200
,
0000
1300
0100
0001
1001
0000
0002
0010
,
0103
0000
0001
0000
1000
0000
0010
0000
0101
0000
0000
0000
0001
0000
1000
0200
,
0000
0000
0301
0000
0110
0000
0000
0000
2000
0000
0100
0000
3010
0000
1000
0010
,
0000
0100
0010
0100
2000
0000
0000
0000
3100
0000
0010
0000
1000
0000
0001
0000
,
0010
0001
0101
0000
1000
0001
0010
1000
,
0010
0100
0110
0000
1000
0100
0001
0100
,
0010
0001
0010
0001
0010
0001
0010
0001
1000
0001
1000
0001
1000
0001
1000
0001
,
1000
0010
0100
0001
1000
0001
1000
0001
1000
0100
0010
0001
1000
0001
1000
0001
,
1000
0010
0100
0001
1000
0100
0010
0001
0200
0000
0000
0000
0000
0000
0000
0000
,
0300
0000
0000
0010
0100
0100
0001
0000
,
1000
0100
0010
0002
0000
0000
0000
0000
0100
0000
0100
0000
1003
0000
0000
0000
,
0001
0010
0100
2000
0000
0000
0000
0000
0100
0000
0100
0000
3001
0000
0100
0000
,
0010
0000
1000
0001
0010
0000
1000
0001
0010
0000
0001
0000
1000
0000
0000
0000
,
0100
0000
1000
0001
0100
0000
1000
0001
0100
0000
0010
0000
1000
0000
0100
0000
,
1000
0010
0100
2000
0000
0000
3100
0000
0010
0000
1000
0001
0000
0000
1000
0000
,
0001
0010
0100
0002
0000
0000
0103
0000
0010
0000
0001
0000
1000
0000
0010
0000
,
0100
0000
0001
1000
0100
0000
0001
1000
0100
0000
1000
0000
0010
0000
0100
0002
,
0000
0000
0000
0000
,
0003
0000
0000
0000
,
0010
0001
0010
0001
2000
0000
0100
0000
3010
1000
0010
1000
0002
0000
0100
0000
,
0013
0100
1000
0001
1000
0100
0010
0001
0200
0000
0000
0000
0000
0000
0000
0000
,
0000
0000
0000
0000
,
0300
0000
0000
0000
;

//--------------- dance-double - KAYSTAR ----------------
#NOTES:
     dance-double:
     KAYSTAR:
     Medium:
     13:
     0,0,0,0,0:
00000000
00000000
00000000
00000000
,
00000000
00000000
00000000
00000000
,
00000000
00000000
00000000
00000000
,
20000000
01000000
00000000
31000000
,
00020000
01000000
00000000
01030000
,
00002000
00023000
00030020
00000230
,
00000300
00000000
00001002
00000000
00000013
00000000
00002001
00000001
,
00003010
00000000
00001000
00000100
00010000
01000000
10000000
00000000
,
00000000
00000000
00100000
01000000
00010000
01000000
00200000
00000000
,
10300000
01000000
00100000
00002000
00000000
00013000
00000000
00000000
,
00001000
00010000
00000100
00000010
00000100
00001000
00000001
00000200
,
00000000
00002300
00000000
00013000
00000000
00000000
00000000
00000000
,
00001000
00000100
00000010
00001000
00000010
00000200
00000000
00000301
,
00000010
00000200
00000000
00020300
00000000
00031000
00000000
00000000
,
00001000
00100000
01000000
00100000
00010000
10000000
00100000
02000000
,
00000000
03010000
00000000
00000000
00100000
00001000
00010000
00000010
,
00000000
00000100
00000001
00002000
00000000
00003200
00000000
00010300
,
00000000
00001000
01000000
00000000
00200000
00000000
10300000
01000000
,
00100000
00010000
01000000
00002000
00000000
00023000
00000000
02030000
,
00000000
03100000
00001000
00000000
00010000
00000000
00000010
00010000
,
00001000
00100000
01000000
20000000
00000000
30200000
00000000
02300000
,
00000000
03001000
00010000
00000000
00000020
00000000
00001030
00000100
,
00000001
00000100
00001000
00000001
00000100
00000010
00010000
00001000
,
00000010
00000001
00000100
00000000
00002010
00000000
00003100
00000000
,
00020100
00031000
00120000
01030000
,
10100000
00000000
01010000
00000000
10000000
00010000
00100000
00100000
,
00001000
00000000
00010000
00000000
00000010
00000000
00000010
00000000
00010000
00000000
00001000
00000000
01000000
00000000
01000000
00010000
,
00000000
10000000
01000000
00000000
10000000
00000000
10000000
00000000
02000000
00000000
00000000
00000000
03010000
00000000
01000000
00000000
,
00200000
00000000
00301000
00010000
00000020
00000000
00000130
00001000
,
00020000
00000000
00032000
00000000
00103000
00100000
00010000
00010000
,
10000000
00100000
01100000
00000000
01002000
00000000
00000000
00000000
,
00013000
00001000
00000010
00001000
00010000
00001000
00100000
00100000
,
00010000
01000000
10000000
01000000
00010000
10000000
00100000
00100000
,
01000000
00000000
00001000
00000000
00010000
00000000
00000100
00000000
00010000
00000000
00001000
00010000
00000000
00010000
00001000
00000000
,
00100000
00001000
00010000
00000010
00010000
00001000
00100000
01000000
,
00020000
00000000
00031000
00000000
00000100
00000001
00000010
00000010
,
00000100
00000010
00001000
00000010
00000001
00000100
00000010
00000010
,
00001000
00000000
00000100
00010000
00000000
00001000
00010000
00000000
00001000
00000000
00100000
00000000
01000000
00000000
10000000
00000000
,
00010000
01000000
00010000
00000000
00000000
00000000
00010000
01000000
00010000
00000000
00100000
00000000
00001000
00000000
00010000
00000000
,
00000200
00000000
00000000
00000000
00000310
00000000
00000001
00000001
,
00000100
00001000
00001000
00000100
00000010
00000100
00000001
00000010
,
00001000
00000000
00010000
00000000
01000000
00000000
10000000
01000000
00000000
01000000
10000000
00000000
00010000
00000000
00100000
00000000
,
00001000
00010000
00100000
00010000
00001000
00000100
00000001
00000001
,
00001000
00000000
00000010
00000100
00001000
00010000
00200000
00000000
,
10300000
02000000
00000000
03010000
00002000
00000000
00013000
00000000
,
00000100
00012000
01003000
00200000
,
20300000
32000000
03020000
00031000
,
00000000
00000000
00000000
00000000
00000000
00000000
00000000
00000000
00010000
00010000
00010000
00010000
00000020
00000000
00000000
00000000
,
00000130
00000000
00000001
00000000
00001000
00000100
00000000
00000100
00010000
00000000
00001000
00000000
01000000
00010000
00000000
00010000
,
01000000
00100000
10000000
01000000
10000000
00000000
00020000
00000000
,
00130000
00000000
00001000
00000000
00010000
00000000
00000100
00000000
00001000
00000000
00000000
00000000
00000010
00000000
00000100
00000001
,
00000000
00000001
00000100
00000000
00000010
00000000
00000000
00000000
00002001
00000000
00000000
00000000
00003100
00000000
00010000
00001000
,
00000000
00001000
00100000
00000000
02000000
00000000
00000000
00000000
03010000
00000000
01000000
00000000
00100000
00000000
00001000
00000000
,
00010000
00000010
00000200
00000000
00001300
00000100
00000010
00010000
,
00001000
00100000
00010000
00000000
00100000
00100000
01000000
01000000
,
10000000
00100000
00010000
00001000
00000100
00000001
00000010
00001000
,
00010000
01000000
10000000
00100000
00010000
00001000
00000100
00000001
,
00000010
00001000
00010000
01000000
20000000
00000000
00000000
00000000
,
30000000
00000000
00000000
00000000
,
10000000
00000000
00010000
00000000
00100000
00100000
00010000
00000000
,
00001000
00000000
00000001
00000000
00000010
00000010
00000001
00000100
,
00000010
00001000
00000100
00010000
00001000
01000000
00100000
00000000
,
10000000
00010000
00100000
00001000
00010000
00000100
00000010
00000001
,
00002000
00000000
00003010
00000000
00010000
00010000
00001000
00000000
,
00002000
00000000
00103000
00000000
00010000
00010000
10000000
00000000
,
00100000
01000000
00010000
00100000
00001000
00010000
00000100
00000010
,
00000002
00000000
00000000
00000000
,
00000003
00000000
00000000
00000000
,
00000201
00000310
00020010
00031000
,
00100000
00000000
00010000
00000000
10000000
01000000
10000000
00000000
00200000
00000000
00000000
00000000
00000000
00000000
00000000
00000000
,
00000000
00000000
00000000
00000000
,
00300000
00000000
00000000
00000000
;

//--------------- dance-double - KAYSTAR ----------------
#NOTES:
     dance-double:
     KAYSTAR:
     Hard:
     16:
     0,0,0,0,0:
00000000
00000000
00000000
00000000
,
00000000
00000000
00000000
00000000
,
00000000
00000000
00000000
00000000
,
20000000
00100000
00000000
31000000
,
00200000
00010000
00000000
00301000
,
00010000
00000010
00001000
00000000
00000001
00000100
00000001
00000000
00001000
00000100
00010000
00000000
00001000
00100000
01000000
00000000
,
00000000
10020000
00130000
00021000
,
00030010
00001001
00011000
10010000
,
00000000
00000000
10000000
01000000
00100000
00010000
00002000
00000000
,
01003000
00100000
00020000
01000000
00000000
10030000
00000000
00000000
,
00010000
00100000
00001000
00010000
00001000
01000000
00100000
00020000
,
00000000
00032000
00000000
00003200
00000000
00000300
00000000
00000000
,
00000100
00000001
00000010
00000100
00001000
00020000
00000000
00030010
,
00000100
00002000
00000000
00000010
00000000
00003001
00000000
00000000
,
00001000
00000010
00010000
00001000
00100000
01000000
00010000
00002000
,
00000000
00013000
00000000
00000000
00000010
00000100
00000001
00000020
,
00000000
00000130
00010000
00002000
00000000
02003000
00000000
03200000
,
00000000
10300000
01000000
00000000
20000000
00000000
30010000
00100000
,
00001000
00010000
01000000
20000000
00000000
30200000
00000000
00320000
,
00000000
00031000
00000100
00000000
00000001
00000000
00000010
00000100
,
00000001
00000100
00001000
00000020
00000000
00020030
00000000
00032000
,
00000000
00103000
01000000
00000000
00020000
00000000
01030000
00100000
,
00001000
00010000
00000010
00000100
00001000
00000100
00000010
00010000
,
00001000
00000000
00010000
00000000
01000000
00000000
00100000
00000000
00000000
00000000
00000000
00000000
00020000
00000000
00000000
10000000
00000000
00000000
01030000
00000000
00000000
00000000
00000000
00000000
,
00002000
00100000
00013000
00001000
00020000
00001000
00030010
00000000
,
00002000
00000000
00000010
00000000
00003002
00000000
00000100
00000000
00000013
00000000
00000001
00001000
00000100
00001000
00000000
00000010
,
00000000
00010000
00001000
00010000
00000010
00001000
00000000
00000000
00000100
00000000
00010000
00001000
00100000
00010000
00100000
01000000
,
00000000
10000000
00010000
00000000
01000000
00100000
01000000
00000000
00020000
00000000
00100000
00000000
10030000
00000000
00010000
00000000
,
02000000
00000000
00001000
00000000
03010000
00000000
01000000
00001000
00020000
00000000
00000010
00000000
00031000
00000000
00010000
00000000
,
00000200
00000301
00000200
00001300
00000100
00000100
00010000
00010000
,
00001000
01000000
01010000
00000000
20200000
00000000
30300000
00000000
,
00010000
00000000
10000000
00000000
00100000
01000000
00100000
00000000
10000000
00000000
00010000
01000000
00010000
00000000
00100000
00000000
,
00001000
00000000
00010000
00000000
00000100
00001000
00000100
00000000
00000010
00000000
00000001
00001000
00000001
00000000
00000100
00000000
,
00000010
00001000
00000010
00000000
00010000
00000000
00001000
00100000
00001000
00000000
00020000
00000100
00000000
00032000
01000000
00000000
,
00013000
00001000
00010000
00000000
00000100
00000000
00000010
00000000
00001000
00000000
00000010
00000000
00000001
00000000
00000100
00000000
,
00002000
00000000
00000000
00000000
00013000
00000000
00000000
00000000
00100000
00000000
10000000
00010000
10000000
00000000
01000000
00000000
,
00010000
00000000
01000000
00000000
00100000
00010000
00100000
00000000
00001000
00000000
00010000
00001000
00010000
00000000
00000010
00000000
,
00010000
00000000
00002000
01000000
00000000
00023000
00000100
00000000
00031000
00010000
00001000
00000000
00010000
00000000
00000010
00000000
,
00000100
00000001
00000100
00000001
00001000
00000000
00000100
00001000
00000100
00001000
00000001
00000000
00000010
00000000
00000100
00000000
,
00002000
00000000
00000000
00000000
00013000
00000000
00100000
00010000
,
10000000
00100000
01000000
00000000
00010000
00000000
01000000
00001000
00010000
00000000
00001000
00000000
00000010
00000000
00000001
00000000
,
00000100
00000000
00001000
00000000
00010000
00000000
00002000
00100000
00000000
00023000
00000010
00000000
00031000
00010000
00002000
00000000
,
02003000
03200000
00320000
00032000
00003020
00000032
00000103
00000010
,
00000110
00000000
00000000
00000000
00001000
00000000
00000100
00010000
00001000
00000000
00100000
00000000
02000000
00000000
00000000
00000000
,
03010000
00002000
00000000
01003000
00010000
00000000
00102000
00000000
,
00013000
00000000
00001000
00010000
00000020
00000000
00000000
00000000
00000130
00000000
00000001
00001000
00000200
00000000
00001000
00000000
,
00010300
00001000
02000000
00010000
03001000
00010000
00011000
00000000
,
00000000
00000000
00000000
00000000
00000000
00000000
00000000
00000000
00001000
00000000
00100000
00010000
00100000
00000000
01000000
00000000
10000000
00000000
10000000
00000000
10000000
00000000
10000000
00000000
00100000
00000000
00000000
00000000
00000000
00000000
00000000
00000000
,
01010000
00000000
00010000
00000000
00100000
00001000
00000000
00010000
00000010
00000000
00001000
00000000
00000001
00000010
00000000
00000200
,
00000000
00000301
00000100
00001000
00001100
00000000
00020000
00000000
,
00031000
00000000
00100000
00000000
00010000
00000000
01000000
00000000
10000000
00000000
00000000
00000000
01000000
00000000
00100000
10000000
,
00000000
00000000
00000000
00000000
01010000
00000000
00000000
00000000
00002000
00000000
00000000
00000000
00003010
00000000
00000001
00001000
,
00000000
00000010
00001000
00000000
00020000
00000000
00000000
00000000
00130000
00000000
01000000
00000000
00010000
00000000
01000000
00000000
,
00100000
00001000
00011000
00000000
00001000
01000000
00100000
10000000
,
00100000
01000000
01010000
00000000
10000000
01000000
00100000
00001000
,
00010000
00001000
00010000
00001000
00010000
00001000
00010000
00001000
00010000
00001000
00010000
00001000
00010000
00001000
00010000
00001000
,
00100000
00001000
00010000
00000100
00010000
00001000
00010000
00001000
01000000
00001000
00010000
00000010
00010000
00001000
00010000
00001000
,
00100000
00001000
00010000
00000100
00001000
00000001
00000100
00000010
00002000
00000000
00000000
00000000
00000000
00000000
00000000
00000000
,
00003000
00000000
00000000
00000010
00001000
00000100
00010000
00000000
,
00001000
00100000
01000000
20000000
00000000
00000000
00000000
00000000
30100000
00000000
01000000
00000000
00001000
00000000
00000000
00000000
,
00010000
00000100
00000010
00000002
00000000
00000000
00000000
00000000
00000103
00000000
00000010
00000000
00001000
00000000
00000100
00000000
,
00010000
00000000
00001000
00010000
00000010
00000000
00001000
00010000
00000010
00000000
00000100
00000000
00001000
00000000
00000000
00000000
,
00001000
00000000
00010000
00001000
00100000
00000000
00010000
00001000
00100000
00000000
01000000
00000000
10000000
00000000
00100000
00000000
,
01000000
00001000
00010000
00000020
00000000
00000000
00000001
00000000
00000100
00000000
00000100
00000000
00001030
00000000
00000000
00000000
,
00000100
00010000
00001000
00200000
00000000
00000000
10000000
00000000
01000000
00000000
01000000
00000000
00310000
00000000
01000000
00000000
,
00001000
00000000
00010000
00000100
00001000
00000000
00010000
00000100
00001000
00000000
00000010
00000000
00000100
00000000
00000002
00002000
,
00000000
00000000
00000000
00000000
,
00003003
00000000
00000000
00000000
,
00000001
00000100
00000001
00000100
00000020
00000000
00000100
00000000
00001030
00000100
00001000
00000100
00020000
00000000
00000100
00000000
,
00031000
01000000
00010000
01000000
00100000
10000000
00010000
00100000
02000000
00000000
00000000
00000000
00000000
00000000
00000000
00000000
,
00000000
00000000
00000000
00000000
,
03000000
00000000
00000000
00000000
;
