#VERSION:0.83;
#TITLE:PARARRHYTHMiA;
#SUBTITLE:;
#ARTIST:Z-I-v Sound Team "Karl with a K";
#TITLETRANSLIT:;
#SUBTITLETRANSLIT:;
#ARTISTTRANSLIT:;
#GENRE:;
#ORIGIN:;
#CREDIT:;
#BANNER:PARARRYTHMiA banner.png;
#BACKGROUND:PARARRYTHMiA bg.png;
#PREVIEWVID:;
#JACKET:PARARRYTHMiA jk.png;
#CDIMAGE:;
#DISCIMAGE:;
#LYRICSPATH:;
#CDTITLE:;
#MUSIC:PARARRYTHMiA.ogg;
#OFFSET:-0.000000;
#SAMPLESTART:34.363636;
#SAMPLELENGTH:15.000000;
#SELECTABLE:YES;
#BPMS:0.000=55.000,
14.000=220.000,
70.000=55.000,
71.000=110.000,
73.000=220.000,
79.000=440.000,
303.000=110.000,
345.000=55.000,
360.000=110.000,
361.000=220.000,
363.000=440.000,
608.000=55.000;
#STOPS:543.000=0.409,
612.000=2.182;
#DELAYS:;
#WARPS:;
#TIMESIGNATURES:0.000=4=4;
#TICKCOUNTS:0.000=4;
#COMBOS:0.000=1;
#SPEEDS:0.000=1.000=0.000=0;
#SCROLLS:0.000=1.000;
#FAKES:;
#LABELS:0.000=Song Start;
#BGCHANGES:;
#KEYSOUNDS:;
#ATTACKS:
;

//---------------dance-single - XO- DS+ JA+ XMOD FL RH- STR[8@220] JU-----------------
#NOTEDATA:;
#CHARTNAME:;
#STEPSTYPE:dance-single;
#DESCRIPTION:XO- DS+ JA+ XMOD FL RH- STR[8@220] JU-;
#CHARTSTYLE:;
#DIFFICULTY:Challenge;
#METER:19;
#RADARVALUES:0.826205,2.070707,0.094700,0.514083,0.280716,855.000000,841.000000,14.000000,76.000000,0.000000,0.000000,0.000000,0.000000,0.000000,0.826205,2.070707,0.094700,0.514083,0.280716,855.000000,841.000000,14.000000,76.000000,0.000000,0.000000,0.000000,0.000000,0.000000;
#CREDIT:KLIMAXX OF KARL 440;
#NOTES:
0000
0000
0000
0000
,
0000
0000
0000
2000
,
0100
0100
0000
0000
0000
0000
0000
0100
0100
0000
3002
0000
0000
0100
0100
0000
,
0000
0000
0000
0000
0000
0000
0000
0000
0100
0000
0103
0000
0001
0100
0001
0100
0001
0000
0000
0000
0100
0000
0000
0000
0010
0000
0000
0000
1000
0000
0000
0000
,
0001
0000
1000
0100
1000
0000
0000
0000
1000
0000
0100
0000
0010
0000
0001
0000
,
0000
0000
0001
0100
0001
0000
0010
0000
0100
0000
0000
0000
0100
0000
0000
0000
,
0010
0000
0001
0000
1000
0000
0010
0100
0001
0000
1000
0000
0001
0010
0001
0000
,
1000
0000
0001
0000
1000
0000
0000
0000
1000
0000
0001
0010
0001
0000
0000
0000
,
0001
0000
0010
0000
0100
0000
1000
0001
0000
0000
1000
0010
1000
0000
0100
0000
,
0010
0000
0001
0000
1000
0000
0001
0000
0100
0000
0001
0000
1000
0000
0100
0010
,
0001
0000
0100
0000
0001
0100
0001
0000
1000
0000
0000
0000
1000
0000
0000
0000
,
0100
0100
0010
0010
,
0001
1000
1000
0010
,
0010
0100
0100
0001
,
1000
0100
1000
0100
0010
0001
0010
0001
,
1000
0000
0010
0000
1000
0000
0010
0000
0100
0000
0001
0000
1000
0010
1000
0000
,
0001
0100
0001
0000
1000
0100
0010
0000
0001
0010
0100
0000
1000
0001
0100
0010
,
1000
0001
0010
0100
1000
0001
0100
0001
2000
0000
0000
0000
0000
0000
0100
0000
,
0100
0000
0000
0000
,
0100
0100
3000
1001
,
1000
0010
1000
0100
,
0010
0100
1000
0000
0100
1000
0001
0000
,
1000
0001
0011
0000
,
0001
0100
0001
0000
0001
0000
1000
0000
,
0100
0010
0100
1000
,
0001
0000
0100
0000
0010
0000
0100
0010
,
1000
0001
0100
1001
,
0001
0010
0001
0100
,
0010
0100
0001
0000
0100
0001
1000
0000
,
0001
1000
1010
0000
,
1000
0100
1000
0000
1000
0000
0001
0000
,
0100
0010
0100
0001
,
1000
0000
0100
0000
0010
0100
0010
0000
,
0001
1000
0100
1001
,
1000
0000
0101
0000
,
0001
1000
0100
0000
0010
0000
0100
0000
,
0100
1000
1000
0001
,
1000
0001
1000
0000
0001
0000
0000
0000
,
1100
0000
0100
1000
,
0100
1000
0000
0000
0001
1000
0001
0000
,
0100
0010
1000
1001
,
0001
0000
1010
0000
,
1000
0001
0010
0000
0100
0000
0010
0000
,
0010
0001
0001
1000
,
0001
1000
0001
0000
1000
0000
0000
0000
,
0011
0000
0010
0001
,
1000
0000
0001
0000
0100
0010
0100
0000
,
1000
0100
0010
1000
,
0100
0010
0100
2000
,
3010
2000
0001
0000
0100
0000
3002
0000
,
0100
2003
3020
0100
,
1030
0001
1000
0000
0010
0000
0100
0000
,
0010
1000
0100
0010
,
0100
0000
1000
0000
0100
0010
0100
0000
,
0001
0100
1000
0001
,
0100
0010
0100
0002
,
0013
0002
1000
0000
0100
0000
2003
0000
,
0100
3002
0023
0100
,
0031
1000
0002
0000
0100
0000
2003
0000
,
0100
3002
0010
2003
,
0010
0000
3001
0000
0010
0100
0010
0000
,
1000
0010
0001
1000
,
0000
1000
0200
0000
0000
0000
0320
0000
,
0000
0000
0031
0000
0000
0001
2000
0000
,
0000
3020
0000
0130
,
0000
0100
0001
0000
0000
0001
0200
0000
,
0000
0320
0000
1030
,
0000
1000
0001
0000
0000
0001
0020
0000
,
0000
0230
0000
1300
,
1000
0010
0010
0100
,
0100
0001
0001
0010
,
0010
0100
0100
1000
,
1000
0000
0001
1000
0001
1000
0001
1000
,
0001
0000
0010
0100
0010
0100
0010
0100
,
0010
0000
0001
0100
0010
1000
0010
0100
,
0001
0010
0100
1000
0100
0010
0002
0000
,
0000
0000
0000
0000
0103
0000
0000
0000
0020
0000
0000
0000
0000
0000
0000
0000
0030
0000
0000
0000
0100
0020
0000
0000
0000
0000
0000
0000
2030
0000
0000
0000
,
0000
0000
3100
0000
0000
0000
1000
0001
0200
0000
0000
0000
0300
0000
0100
0000
,
0002
0000
0000
2003
0000
0000
3200
0000
0000
0000
0300
0000
0100
0000
0000
0000
,
1000
0000
0000
0000
0001
0000
0000
0000
0100
0000
0000
0000
0000
0000
0000
0000
0100
0000
0000
0000
0000
0000
0000
0000
0101
0000
0000
0000
1000
0000
0000
0001
,
1000
0000
0001
0100
0010
1000
0001
1000
0100
0000
1000
0000
0100
0000
1000
0000
,
0001
0020
0000
0000
0100
0000
0000
0000
0000
0000
0000
0000
0000
0000
0000
0000
0130
0000
0000
0000
1000
0000
0000
0000
0001
0000
0000
0000
1000
0020
0000
0000
,
0000
0000
0130
0000
0000
0000
0100
0000
0010
0000
0001
0010
1000
0000
2000
0000
,
3100
0001
0100
0200
1300
0010
0020
0100
,
0100
0000
0000
0000
0130
0001
0000
0000
1000
0000
1000
0000
1000
0000
0100
0000
,
0100
0000
0000
0000
0100
0000
0000
0000
0010
0000
0000
0000
0010
0000
0001
0000
1000
0000
0010
0000
0100
0000
0001
0000
1000
0000
0100
0000
0010
0001
0010
0001
,
1000
0010
1000
0010
0100
0001
1000
0100
0010
0000
0020
0000
0000
0000
0000
0000
0001
0000
0000
0000
0100
0000
0100
0000
0001
0000
0000
0000
0000
0000
0000
0000
,
0130
0020
0000
0000
0100
0000
0000
0000
0032
0000
0000
0000
0000
0000
0000
0000
2003
0000
0000
0000
0000
0000
0000
0000
3100
0000
0000
0000
1000
0000
0020
0000
1000
0000
0000
0000
0000
0000
0000
0000
0000
0000
0000
0000
0000
0000
0000
0000
0100
0000
0000
0000
0100
0000
0000
0000
0000
0000
0000
0000
0000
0000
0000
0000
,
1000
0000
0100
0130
0010
0010
1000
1000
0010
0010
0100
0100
0010
0010
0001
0001
,
0010
0000
0010
0000
0100
0000
0100
0000
0001
0010
0001
0010
0100
0010
0100
0010
0100
1000
0100
1000
0001
1000
0001
0100
0002
0000
0010
0000
1000
0000
0103
0000
,
0001
0002
0100
0000
0103
0000
0100
0000
,
0010
2000
0010
3001
,
0010
0001
0100
0000
0001
0000
0010
0000
,
0100
2000
0100
3001
,
0100
0001
0010
0000
0100
0000
0020
0000
,
0100
0032
0010
1003
,
0010
1000
0100
0000
1000
0000
0200
0000
,
0310
0100
1000
0000
0010
0000
0200
0000
,
0010
0301
0100
0020
,
1000
0100
0000
1000
,
1030
0001
0020
0000
0000
0000
0100
0000
,
0001
0230
2300
3010
,
0200
0302
0013
0002
,
1000
1000
1003
0000
,
0001
0001
0001
0001
,
0100
0010
0000
0020
,
1000
1030
0001
0100
,
0100
0010
1000
1000
,
0100
0010
1000
0000
0010
0000
0100
0000
,
0100
0000
0010
0000
0001
0000
0100
0010
,
0100
0010
0001
0000
0010
0000
0100
0000
,
0100
0010
0100
0100
,
0010
1000
0100
0010
,
0100
1000
0010
0000
0100
0000
0001
0000
,
1000
0100
0010
0001
,
0001
1000
0010
0100
,
0100
1000
0100
0000
0001
0000
1000
0000
,
1000
0001
0010
0000
,
0100
0001
0100
0000
1000
0000
0010
0000
,
0010
1000
0001
0010
,
0100
0010
0001
1000
,
0001
0010
0000
0000
1000
0000
0001
0000
,
0100
0110
0000
1001
,
1000
0100
0010
0010
,
0001
0100
1000
0000
0100
0000
0002
0000
,
0203
0320
0230
2300
,
3100
0010
1000
0000
1000
0000
0100
0000
,
0010
0000
0010
0000
0001
0010
1000
0000
,
0010
0002
0023
0230
,
0302
2003
3010
0110
,
0001
0010
0100
0100
,
1000
0010
0100
0000
0010
0000
2000
0000
,
3020
0230
0320
0032
,
0013
0100
0001
0000
0001
0000
0100
1000
,
0100
1000
0001
0010
,
1000
0000
0100
0000
0001
0100
0020
0030
,
0010
0001
0010
0100
1000
0001
0100
0001
,
1000
0100
0010
0001
1000
0001
1000
0100
,
1000
0001
0010
0001
1000
0010
0100
0001
,
1000
0100
0010
0001
1000
0010
1000
0001
,
1000
0001
0010
0001
1000
0010
1000
0001
,
1000
0001
0100
0010
1000
0001
0010
0001
,
1000
0001
0010
0001
1000
0001
1000
0100
,
0010
0001
1000
0010
1000
0001
0100
0001
,
1000
0100
0010
0100
0010
0001
1000
0001
,
0010
0100
1000
0001
0100
0010
1000
0001
,
1000
0100
0010
0100
0010
0001
0010
0001
,
1000
0001
0010
0100
1000
0001
0100
0010
,
1000
0001
0010
0001
1000
0010
1000
0001
,
1000
0001
0100
0010
1000
0001
0100
0001
,
1000
0100
0010
0001
1000
0100
0010
0001
,
1000
0010
1000
0001
0010
0100
1000
0010
,
0100
0100
0000
0000
0000
0000
0010
0010
0000
0000
0000
0000
0100
0100
0000
0000
,
0020
0030
0000
0000
0000
0000
0000
0000
0000
0000
0000
0000
0000
0000
0000
0000
;

//---------------dance-single - XO- DS- JA XMOD JU-----------------
#NOTEDATA:;
#CHARTNAME:;
#STEPSTYPE:dance-single;
#DESCRIPTION:XO- DS- JA XMOD JU-;
#CHARTSTYLE:;
#DIFFICULTY:Hard;
#METER:17;
#RADARVALUES:0.666762,1.604798,0.074407,0.223220,0.125139,690.000000,679.000000,11.000000,33.000000,0.000000,0.000000,0.000000,0.000000,0.000000,0.666762,1.604798,0.074407,0.223220,0.125139,690.000000,679.000000,11.000000,33.000000,0.000000,0.000000,0.000000,0.000000,0.000000;
#CREDIT:κTYPE-440;
#NOTES:
0000
0000
0000
0000
,
0000
0000
0000
0002
,
0100
0100
0000
0000
0000
0000
0000
0100
0100
0000
2003
0000
0000
0100
0100
0000
,
0000
0000
0000
0000
0100
0100
0000
0000
3001
0000
0100
0000
0010
0000
0000
0000
,
1000
0000
0001
1000
0001
0000
0000
0000
1000
0000
0100
0000
0010
0000
0000
0000
,
0000
0000
0001
1000
0001
0000
0000
0000
1000
0000
0000
0000
0100
0000
0000
0000
,
0010
0001
1000
0000
0001
0100
0010
0000
,
1000
0001
1000
0000
0100
0000
0010
0100
,
0010
0000
0000
0000
0000
0000
0001
1000
0000
0000
0001
0000
0100
0000
0100
0000
,
0001
0000
0100
0000
0010
0100
0010
0000
,
1000
0001
1000
1000
0001
0000
0100
0000
,
0010
1000
0010
0100
,
0001
1000
0100
0010
,
0001
0010
0100
1000
,
0001
0010
0001
0010
0001
0010
0001
0010
,
0100
1000
0100
1000
0100
1000
0100
1000
,
0001
0001
1000
0010
0100
0100
0001
1000
,
0001
0010
0001
0000
1000
0010
1000
0000
0002
0000
0000
0000
0000
0000
0000
0000
,
0000
0000
0000
0000
,
0000
0000
0000
1003
,
0100
0010
0001
0010
,
0100
1000
0000
1010
,
0000
0100
0110
0000
,
0100
0101
0001
1000
,
0010
0100
0001
0100
,
0010
0000
1000
0000
0001
0000
1000
0001
,
1000
0100
0000
1000
,
0010
0100
0001
0100
,
0010
1000
0000
1100
,
0000
0010
0110
0000
,
0010
0011
0001
1000
,
0100
0010
0001
0010
,
0100
0000
1000
0000
0001
0000
1000
0001
,
1000
0010
0000
0020
,
0100
1030
0200
0000
,
0010
0310
0001
0100
,
0010
0100
0001
1000
,
0100
0020
0100
0031
,
0200
0000
0010
0310
,
1000
0100
0010
0100
,
1000
0001
0100
0002
,
0100
1003
2000
0000
,
0100
3001
1000
0010
,
0100
0010
1000
0100
,
0010
0002
0010
1003
,
2000
0000
0010
3001
,
0100
0010
1000
0200
,
0310
0200
0310
0001
,
0100
0010
1000
0001
,
1000
0100
0010
0000
0000
0000
0001
0000
,
0010
0100
0001
0100
,
0010
0100
1000
0000
0100
0000
0010
0000
,
0001
1000
0001
0100
,
0010
0000
1000
0000
0010
0100
0001
0000
,
0100
1000
0100
0001
,
0010
0100
1000
0001
,
1000
0010
0100
0000
0000
0000
0001
0000
,
0100
0010
0001
0010
,
0100
0010
1000
0000
0010
0000
0100
0000
,
0001
1000
0001
0010
,
0100
0000
1000
0000
0100
0010
0001
0000
,
0010
1000
0010
0001
,
0000
0001
0010
0000
0000
0000
0100
0000
,
0000
0000
0010
0000
0000
0010
0001
0000
,
0000
1000
0000
0010
,
0000
0010
1000
0000
0000
0000
0001
0000
,
0000
0010
0000
0100
,
0000
0100
1000
0000
0000
0000
0001
0000
,
0000
0001
0100
0000
0000
0000
0010
0000
,
1000
0010
1000
0001
,
0010
0001
0010
0001
,
0100
0001
0100
0001
,
1000
0100
0100
0100
,
0100
0010
0010
0010
,
0010
0001
0010
0100
,
0010
0000
0001
1000
0001
1000
0020
0000
,
0000
0130
0020
0000
0000
0230
0000
0302
,
0000
0103
0000
0010
0200
0000
0000
0301
,
1000
0000
0000
1000
0000
0000
0100
0000
0000
0000
0000
0000
0100
0000
0000
0000
,
0010
0001
0100
0000
0100
0000
0100
0000
,
0010
0010
0000
0000
0100
0001
0010
0001
,
0020
0100
0000
0000
0130
0010
0100
0020
,
0000
0100
0000
0130
1000
0010
0020
0100
,
0000
0130
0020
0100
0130
0020
0000
0100
,
0130
0000
0001
0000
1000
0100
1000
0001
,
0100
0000
0001
0000
1000
0000
0100
0010
0001
0000
0100
0010
1000
0000
0001
1000
,
0001
1000
0001
0000
1000
2000
0000
0000
0000
0000
0100
0100
0000
0000
0000
0000
,
3020
0100
2030
0000
3002
0000
0103
0020
0000
0000
0000
0000
0130
0100
0000
0000
,
0000
0000
0100
0100
0001
0010
0001
0010
0100
1000
0100
1000
0001
0010
0100
1000
,
0010
0000
0100
0000
0001
0000
1000
0000
0001
0000
0001
0000
1000
0000
1000
0000
0010
0000
0010
0000
0100
0010
0100
0010
2000
0000
0000
0000
0000
0000
0000
0000
,
0000
0000
0000
3001
,
0100
0010
0100
0001
,
1000
0100
1000
0000
0001
0000
1000
0000
,
0100
0010
0100
1000
,
0001
1000
0001
0000
0000
0000
1000
0000
,
0100
0010
0100
1000
,
0001
0001
1000
0001
,
0100
0010
0000
0000
0100
0000
0001
0000
,
1000
0001
0000
0001
,
0010
0100
0010
0001
,
1000
0010
1000
0000
0001
0000
1000
0000
,
0010
0100
0010
1000
,
0001
0010
0001
0000
0000
0000
1000
0000
,
0010
0100
0001
0000
,
0010
0001
1000
0010
,
1000
0001
0000
0002
,
0003
0001
0001
1000
,
0100
0001
0100
1000
,
0001
0100
0010
1000
,
0010
0001
0010
1000
,
0100
0010
0001
0000
0000
0000
0001
0000
,
0100
1000
0100
0001
,
1000
0100
0010
0001
,
0010
1000
0010
0001
,
0100
0010
0000
2000
,
3100
0010
0000
0001
,
0100
0001
0020
0000
0000
0000
0031
0000
,
0010
0100
0000
1000
,
0010
1000
0010
0000
0000
0000
0100
0000
,
0100
0001
0000
1000
,
0100
0010
0000
0100
,
0010
0001
0100
0000
0000
0000
0001
0000
,
0100
0010
0000
0110
,
0100
0000
0101
0001
,
0000
1001
0000
1000
,
0100
0010
0100
0001
,
0100
0010
0100
0000
0010
0000
0000
0000
,
0001
0000
0001
1000
,
0000
0001
0100
0010
,
0100
0001
0010
0110
,
0100
0000
1100
1000
,
0000
0001
0000
0001
,
0100
0010
0100
1000
,
0100
0001
0100
0000
0010
0000
0000
0000
,
1000
1000
0000
0100
,
0010
0001
0100
1000
,
0100
0000
0001
1000
0001
0000
0010
0100
,
1000
0001
0100
0010
1000
0000
0100
0000
,
1000
0000
0001
0100
0010
0000
0100
0001
,
1000
0100
0010
0001
1000
0000
0100
0000
,
1000
0000
0001
1000
0001
0000
0010
0100
,
1000
0001
0100
0010
1000
0000
0100
0000
,
1000
0000
0001
0100
0010
0000
0100
0001
,
1000
0100
0010
0001
1000
0000
0001
0000
,
1000
0000
0010
0000
0100
0010
0100
0000
,
0010
0100
0001
0000
1000
0001
0100
0000
,
0010
0100
0010
0000
1000
0001
0010
0000
,
0001
1000
0010
0000
1000
0001
0100
0001
,
0100
0001
1000
0000
0100
1000
0001
0000
,
0100
0001
1000
0000
0100
1000
0001
0000
,
1000
0001
1000
0000
0001
1000
0010
0000
,
1000
0001
0100
0000
0001
1000
0100
1000
,
0001
0001
0000
0000
0000
0000
1000
1000
0000
0000
0000
0000
0001
0001
0000
0000
,
2000
3000
0000
0000
0000
0000
0000
0000
0000
0000
0000
0000
0000
0000
0000
0000
;

//---------------dance-single - XO- DS- JA- XMOD----------------
#NOTEDATA:;
#CHARTNAME:;
#STEPSTYPE:dance-single;
#DESCRIPTION:XO- DS- JA- XMOD;
#CHARTSTYLE:;
#DIFFICULTY:Medium;
#METER:14;
#RADARVALUES:0.504420,0.828283,0.020293,0.202928,0.043968,522.000000,519.000000,3.000000,30.000000,0.000000,0.000000,0.000000,0.000000,0.000000,0.504420,0.828283,0.020293,0.202928,0.043968,522.000000,519.000000,3.000000,30.000000,0.000000,0.000000,0.000000,0.000000,0.000000;
#CREDIT:.44k;
#NOTES:
0000
0000
0000
0000
,
0000
0000
0000
1000
,
0100
0100
0000
0000
0000
0000
0000
0010
0010
0000
0001
0000
0000
1000
1000
0000
,
0000
0000
0000
0000
0010
0010
0100
0100
0001
0000
0100
0000
0010
0000
0000
0000
,
1000
0000
1000
0001
0010
0000
0001
0100
,
0000
0001
0001
0010
0001
0000
1000
0000
,
0010
0000
0100
0010
1000
0000
0100
0000
,
1000
0010
1000
0000
0001
0000
1000
0001
,
0010
0000
0001
0100
0000
0001
1000
1000
,
0001
0000
1000
0000
0100
0000
0010
0001
,
1000
0000
0010
1000
0001
0000
0100
0000
,
0001
0100
0001
0100
,
0001
1000
0100
1000
,
0100
1000
0100
1000
,
0001
0010
0001
0000
1000
0010
1000
0000
,
0001
0010
0001
0000
1000
0000
0001
0100
,
0010
1000
0010
0100
0001
0000
1000
0100
,
0010
0001
0010
0100
2000
0000
0000
0000
,
0000
0000
0000
0000
,
0000
0000
0000
3001
,
0100
0010
1000
0001
,
1000
0100
0000
0010
,
0001
0000
0010
0001
,
0000
0100
0000
0001
,
1000
0001
1000
0001
,
0000
1000
0000
1000
,
0000
0001
0000
1000
,
0100
0010
0001
1000
,
0001
0100
0000
0010
,
1000
0000
0010
1000
,
0000
0100
0000
1000
,
0001
1000
0001
1000
,
0000
0001
0000
0001
,
0000
1000
0000
0001
,
0000
0100
0010
0000
,
1000
0100
0000
0010
,
0100
1000
0000
0001
,
0000
1000
0000
0100
,
0010
0000
0001
0100
,
0000
0010
0100
0001
,
0000
1000
0000
1000
,
0100
0000
0010
0000
,
0100
1000
0000
0001
,
1000
0001
0000
1000
,
0000
0001
0100
0000
,
0010
0000
0100
0001
,
0000
1000
1000
0002
,
0000
0013
0001
1000
,
0010
0100
0001
0100
,
0010
1000
0100
0010
,
0001
0010
0100
1000
,
0000
0001
0100
0010
,
1000
0010
0100
0001
,
0010
0100
1000
0100
,
0010
0001
0000
1000
,
0100
0010
0001
0010
,
0100
1000
0010
0100
,
0001
0100
0010
1000
,
0000
0001
0100
0010
,
1000
0010
0100
0001
,
0010
0100
1000
0100
,
0010
0001
0000
1000
,
0000
1000
0000
1000
,
0000
1000
0000
0001
,
0000
0001
0000
0001
,
0000
0100
0000
0100
,
0000
0100
0000
0100
,
0000
0010
0000
0010
,
0000
0010
0000
1000
,
0100
1000
0000
0001
,
0100
0001
0000
1000
,
0010
1000
0000
0001
,
0010
0001
0010
0100
,
1000
0010
0100
0001
,
1000
0001
0001
1000
,
1000
0001
1000
2001
,
0000
0000
3020
0000
0000
0230
0000
0302
,
0000
0103
0000
0001
1000
0100
0010
0000
,
0100
0000
0000
1000
0000
0000
0002
0000
0000
0000
0000
0000
0100
0000
0000
0000
,
1003
0100
2000
0000
0000
0000
3100
0000
,
0010
0010
0000
0001
0100
0001
0010
0001
,
0020
0000
0000
0000
0130
0010
0001
0020
,
0000
0100
0000
0001
0031
0100
0010
0010
,
0000
0010
1000
0001
0001
1000
0000
0100
,
0100
0000
0010
0000
0010
0001
0100
0010
,
0100
0010
1000
0001
1000
0100
0010
0001
,
0100
0010
2000
0000
0000
0000
3000
0000
,
0020
0000
2030
0000
3200
0000
0000
0320
0000
0000
0000
0000
0001
0000
0000
0000
,
0030
0000
0000
0000
0001
0002
0000
0000
1000
0000
0000
0000
1000
0000
0000
0000
,
2003
0000
3020
0000
2030
0000
0000
3200
0000
0000
0300
1000
0002
0000
0000
0000
,
0000
0000
0000
1003
,
0100
0010
0100
0000
,
0010
0001
0000
0001
,
0100
0010
0100
0000
,
0010
1000
0000
0001
,
0010
0100
0010
0000
,
0010
0001
0000
2000
,
0000
0010
0000
3002
,
0000
0010
0000
2003
,
0000
0100
0000
0001
,
0000
3020
0000
0000
,
0000
0100
0000
0000
,
1000
0000
0000
1030
,
0100
0010
0100
0000
,
1000
0100
0000
1000
,
0001
1000
0000
0010
,
0000
0010
0000
1000
,
0100
0010
0100
0000
,
0010
0001
0000
0001
,
0100
0010
0100
0000
,
0010
1000
0000
0001
,
0010
0100
0010
0000
,
0010
0001
0000
2000
,
0000
0010
0000
3002
,
0000
0010
0000
2003
,
0000
0100
0000
0001
,
0000
3020
0000
0100
,
0000
0000
0000
1000
,
0000
0000
0000
1030
,
0010
0100
0000
0001
,
0100
0000
0001
0010
,
0001
0010
0100
1000
,
0010
0100
0001
1000
,
0001
0000
0001
1000
,
0000
1001
0000
1000
,
0100
0010
0000
0001
,
1000
0001
1000
0000
,
0001
0000
1001
0000
,
0000
0001
0100
0010
,
0000
1000
0000
0001
,
0001
0000
0010
0000
,
0100
0100
0000
0001
,
0000
0100
0000
0010
,
0000
0001
0001
0000
,
0100
0000
0000
0010
,
0000
0001
0010
0100
,
0001
0000
1000
0100
1000
0000
0100
0000
,
0010
0100
1000
0100
,
1000
0000
0001
0100
0001
0000
0100
0000
,
0001
0010
0001
0100
,
0001
0000
1000
0100
1000
0000
0100
0000
,
1000
0100
0010
0100
,
1000
0000
0001
0100
0001
0000
0100
0000
,
0010
0100
0001
0100
,
0001
0001
0010
1000
,
0010
0001
0100
0100
,
0010
1000
0010
0001
,
0010
1000
0100
0100
,
1000
0100
0001
0100
,
1000
0100
0001
1000
,
0010
0001
0010
0001
,
0100
1000
0100
0001
,
0010
0010
0000
0000
0000
0000
0100
0100
0000
0000
0000
0000
0010
0010
0000
0000
,
0200
0300
0000
0000
0000
0000
0000
0000
0000
0000
0000
0000
0000
0000
0000
0000
;

//---------------dance-single - ----------------
#NOTEDATA:;
#CHARTNAME:;
#STEPSTYPE:dance-single;
#DESCRIPTION:;
#CHARTSTYLE:;
#DIFFICULTY:Easy;
#METER:11;
#RADARVALUES:0.314055,0.516831,0.013529,0.229985,0.016911,325.000000,323.000000,2.000000,34.000000,0.000000,0.000000,0.000000,0.000000,0.000000,0.314055,0.516831,0.013529,0.229985,0.016911,325.000000,323.000000,2.000000,34.000000,0.000000,0.000000,0.000000,0.000000,0.000000;
#CREDIT:KWAK440;
#NOTES:
// measure 0
0000
0000
0000
0000
,  // measure 1
0000
0000
0000
0001
,  // measure 2
0000
0000
0000
0000
,  // measure 3
0000
0000
1000
0100
,  // measure 4
1000
0000
0000
0000
0001
0000
0000
0001
,  // measure 5
0000
0001
0100
0001
,  // measure 6
1000
0001
1000
0001
,  // measure 7
1000
1000
0010
1000
,  // measure 8
0001
0000
0000
0001
0000
0000
0001
0000
,  // measure 9
0100
0001
1000
0001
,  // measure 10
1000
0001
2000
0000
,  // measure 11
3100
0000
0200
0000
,  // measure 12
0310
0000
0020
0000
,  // measure 13
0031
0000
0002
0000
,  // measure 14
0103
0100
0010
0010
,  // measure 15
1000
1000
0001
0010
,  // measure 16
0100
1000
0010
0100
,  // measure 17
0001
1000
0001
0000
2000
0000
0000
0000
,  // measure 18
0000
0000
0000
0000
,  // measure 19
0000
0000
0000
3001
,  // measure 20
0000
0100
0000
0010
,  // measure 21
0000
1000
0000
0001
,  // measure 22
0000
0000
0001
0000
,  // measure 23
0000
1000
0000
0100
,  // measure 24
0000
0010
0000
0001
,  // measure 25
0000
0010
0000
0100
,  // measure 26
0000
1000
0000
0001
,  // measure 27
0000
0010
0000
0100
,  // measure 28
0000
1000
0000
0001
,  // measure 29
0000
0000
0001
0000
,  // measure 30
0000
1000
0000
0010
,  // measure 31
0000
0100
0000
0001
,  // measure 32
0000
0100
0000
0010
,  // measure 33
0000
1000
0000
0001
,  // measure 34
0000
0000
0001
0000
,  // measure 35
0000
1000
0000
0100
,  // measure 36
0000
0010
0000
0100
,  // measure 37
0000
1000
0000
0000
,  // measure 38
1000
0000
0000
0001
,  // measure 39
0000
0100
0000
0010
,  // measure 40
0000
0100
0000
0001
,  // measure 41
0000
0000
0001
0000
,  // measure 42
0000
1000
0000
0010
,  // measure 43
0000
0100
0000
0010
,  // measure 44
0000
1000
0000
0000
,  // measure 45
1000
0000
0000
0001
,  // measure 46
0000
0010
0000
0100
,  // measure 47
0000
0010
0000
0001
,  // measure 48
0000
0100
0000
0002
,  // measure 49
0000
0000
0000
0203
,  // measure 50
0000
0000
0320
0000
,  // measure 51
0000
2030
0000
0000
,  // measure 52
0000
3000
0000
0000
,  // measure 53
0000
1000
0000
0001
,  // measure 54
0000
1000
0000
0001
,  // measure 55
0000
0000
0000
2000
,  // measure 56
0000
0000
0000
3200
,  // measure 57
0000
0000
0320
0000
,  // measure 58
0000
0032
0000
0000
,  // measure 59
0000
2003
0000
0000
,  // measure 60
0000
3002
0000
0000
,  // measure 61
0203
0000
0000
0310
,  // measure 62
0000
0010
0000
1000
,  // measure 63
0000
1000
0000
0010
,  // measure 64
0000
0010
0000
1000
,  // measure 65
0000
0001
0000
0001
,  // measure 66
0000
0010
0000
0010
,  // measure 67
0000
0001
0000
0001
,  // measure 68
0000
0010
0000
0001
,  // measure 69
0000
0001
0000
0001
,  // measure 70
0000
0001
0000
1000
,  // measure 71
0000
1000
0000
1000
,  // measure 72
0000
1000
0001
1000
,  // measure 73
0000
0001
0000
0001
,  // measure 74
1000
0001
0000
1000
,  // measure 75
0000
1000
0001
2000
,  // measure 76
0000
0000
0010
0000
0000
3200
0000
1000
,  // measure 77
0000
0000
0300
1000
2000
0000
3020
0000
,  // measure 78
0230
0000
0000
0302
0000
0000
0100
0000
,  // measure 79
0003
2000
0000
3100
,  // measure 80
1000
0001
0000
0000
0000
0001
1000
0000
,  // measure 81
0020
0000
0000
0000
0030
0000
0010
1000
,  // measure 82
0000
1000
1000
0001
,  // measure 83
0000
0000
0001
0000
0000
0001
0000
0000
,  // measure 84
0000
0000
1000
0100
,  // measure 85
0010
0001
0100
0010
,  // measure 86
1000
2002
0000
3003
,  // measure 87
0002
0000
0000
0000
0203
0000
0000
0320
0000
0000
0000
0000
0030
0000
0000
0000
,  // measure 88
0000
2002
0000
3003
,  // measure 89
2000
0000
0000
0000
3200
0000
0000
0320
0000
0000
0000
0000
0130
0000
0000
0000
,  // measure 90
0000
0000
0000
1000
,  // measure 91
0000
0010
0000
0100
,  // measure 92
0000
0001
0000
0001
,  // measure 93
0000
0010
0000
0100
,  // measure 94
0000
1000
0000
1000
,  // measure 95
0000
0100
0000
0010
,  // measure 96
0000
0001
0000
0001
,  // measure 97
0000
0100
0000
0010
,  // measure 98
0000
1000
0000
0100
,  // measure 99
0000
1000
0000
0010
,  // measure 100
0000
0010
0000
0100
,  // measure 101
0000
0001
0000
0010
,  // measure 102
0000
0001
0000
1000
,  // measure 103
0000
0100
0000
0010
,  // measure 104
0000
0100
0000
1000
,  // measure 105
0000
0001
0000
0100
,  // measure 106
0000
0010
0000
1000
,  // measure 107
0000
0100
0000
0010
,  // measure 108
0000
0001
0000
0001
,  // measure 109
0000
0100
0000
0010
,  // measure 110
0000
1000
0000
1000
,  // measure 111
0000
0010
0000
0100
,  // measure 112
0000
0001
0000
0001
,  // measure 113
0000
0010
0000
0100
,  // measure 114
0000
1000
0000
0010
,  // measure 115
0000
1000
0000
0100
,  // measure 116
0000
0100
0000
0010
,  // measure 117
0000
0001
0000
0100
,  // measure 118
0000
0001
0000
1000
,  // measure 119
0000
0010
0000
0100
,  // measure 120
0000
0010
0000
1000
,  // measure 121
0000
0001
0000
0010
,  // measure 122
0000
0100
0000
1000
,  // measure 123
0001
0000
1000
0000
,  // measure 124
0000
1000
0000
0001
,  // measure 125
0000
1000
0000
0100
,  // measure 126
0000
1000
0001
0000
,  // measure 127
1000
0000
0000
1000
,  // measure 128
0000
0001
0000
1000
,  // measure 129
0000
1000
0000
0001
,  // measure 130
1000
0000
0001
0000
,  // measure 131
0000
0001
0000
1000
,  // measure 132
0000
0001
0000
0100
,  // measure 133
0000
0001
1000
0000
,  // measure 134
0001
0000
0000
0001
,  // measure 135
1000
0000
0001
0000
,  // measure 136
1000
0000
0001
0000
,  // measure 137
0001
0000
0001
0000
,  // measure 138
0001
0000
1000
0000
,  // measure 139
1000
0000
1000
0000
,  // measure 140
1000
0000
0010
0000
,  // measure 141
0010
0000
1000
0000
,  // measure 142
0001
1000
0001
0000
,  // measure 143
0001
0000
0100
0000
,  // measure 144
0100
0010
0100
0000
,  // measure 145
0100
0000
0010
0000
,  // measure 146
0010
0100
0010
0000
,  // measure 147
0010
0000
1000
0000
,  // measure 148
1000
0100
1000
0000
,  // measure 149
0001
0100
0001
0000
,  // measure 150
0001
0010
0100
0000
,  // measure 151
0010
0100
1000
0000
,  // measure 152
1000
1000
0000
0000
0000
0000
0001
0001
0000
0000
0000
0000
1000
1000
0000
0000
;

//---------------dance-single - ----------------
#NOTEDATA:;
#CHARTNAME:;
#STEPSTYPE:dance-single;
#DESCRIPTION:;
#CHARTSTYLE:;
#DIFFICULTY:Beginner;
#METER:6;
#RADARVALUES:0.149780,0.257042,0.047350,0.074407,0.000000,155.000000,148.000000,7.000000,11.000000,0.000000,0.000000,0.000000,0.000000,0.000000,0.149780,0.257042,0.047350,0.074407,0.000000,155.000000,148.000000,7.000000,11.000000,0.000000,0.000000,0.000000,0.000000,0.000000;
#CREDIT:440;
#NOTES:
0000
0000
0000
0000
,
0000
0000
0000
0000
,
0000
0000
0000
0000
,
0000
0000
1000
0000
,
0000
0000
0000
0000
,
0000
1000
0000
0000
,
0000
0000
0000
0000
,
0001
0000
0000
0000
,
0000
0000
0000
0001
,
0000
0000
0000
0000
,
0000
0000
1000
0000
,
0000
0000
0100
0000
,
0000
0010
0000
0000
,
0000
0001
0000
0000
,
0100
0000
0100
0000
,
0100
0000
0000
0010
,
0000
0010
0000
0010
,
0000
0000
2002
0000
,
0000
0000
0000
0000
,
0000
0000
3003
1000
,
0000
0000
0000
0100
,
0000
0000
0000
1000
,
0000
0000
0000
0000
,
0000
0001
0000
0000
,
0000
0100
0000
0000
,
0000
0001
0000
0000
,
0000
0000
0000
1000
,
0000
0000
0000
0010
,
0000
0000
0000
1000
,
0000
0000
0000
0000
,
0000
0001
0000
0000
,
0000
0010
0000
0000
,
0000
0001
0000
0000
,
0000
0000
0000
1000
,
0000
0000
0000
0100
,
0000
0000
0000
0000
,
0000
0000
0000
0000
,
0000
1000
0000
0000
,
0000
0010
0000
0000
,
0000
0000
0000
0000
,
0000
0000
0000
0100
,
0000
0000
0000
0100
,
0000
0000
0000
0000
,
0000
0000
0000
0000
,
0000
0001
0000
0000
,
0000
0001
0000
0000
,
0000
0000
0000
0001
,
0000
0000
0000
1000
,
0000
0000
0000
1000
,
0000
0000
0000
0100
,
0000
0000
0010
0000
,
0000
0001
0000
0000
,
0000
0000
0000
0000
,
0000
0000
0000
0000
,
0000
0000
0000
1000
,
0000
0000
0000
0001
,
0000
0000
0000
0100
,
0000
0000
0010
0000
,
0000
1000
0000
0000
,
0000
0010
0000
0000
,
0000
0100
0000
0000
,
0001
0000
0000
1000
,
0000
1000
0000
0000
,
0000
0000
0000
0001
,
0000
0001
0000
0000
,
0000
1000
0000
1000
,
0000
0000
0000
0000
,
0000
0001
0000
0001
,
0000
0000
0000
1000
,
0000
1000
0000
0000
,
0000
0001
0000
0001
,
0000
0000
0000
1000
,
0000
2000
0000
0000
,
0000
3200
0000
0000
,
0000
0320
0000
0000
,
0000
0031
0000
1001
,
0000
0000
0000
0000
,
0000
0000
0100
0000
,
0000
0000
0000
0000
,
0000
0100
0000
0000
,
0000
0000
0000
0000
,
0010
0000
0000
0000
,
0000
0000
0000
1000
,
0000
0000
0000
0000
,
0000
0000
0001
0000
,
0000
0000
0000
0000
,
0000
1001
0000
0000
,
0000
0000
0000
0000
,
0000
0110
0000
0010
,
0000
0010
0000
0010
,
0000
0000
0000
0000
,
0000
0100
0000
1000
,
0000
0000
0000
0001
,
0000
0100
0000
0001
,
0000
0000
0000
1000
,
0000
0001
0000
1000
,
0000
0000
0000
0001
,
0000
0000
0000
0001
,
0000
0000
0000
1000
,
0000
0010
0000
1000
,
0000
0000
0000
0001
,
0000
0010
0000
0001
,
0000
0000
0000
1000
,
0000
0001
0000
1000
,
0000
0000
0000
0001
,
0000
1000
0000
0001
,
0000
0000
0000
0001
,
0000
0010
0000
0001
,
0000
0000
0000
1000
,
0000
0010
0000
1000
,
0000
0000
0000
0001
,
0000
1000
0000
0001
,
0000
0000
0000
1000
,
0000
0000
0000
1000
,
0000
0000
0000
0001
,
0000
0100
0000
0001
,
0000
0000
0000
1000
,
0000
0100
0000
1000
,
0000
0000
0000
0001
,
0000
1000
0000
0001
,
0000
0000
0000
1000
,
0000
0001
0000
1000
,
0000
0001
0000
1000
,
0000
0000
1000
0000
,
0000
0000
0000
0100
,
0000
0010
0000
0001
,
0000
0001
0000
0000
,
0001
0000
0000
0000
,
0000
0100
0000
0010
,
0000
1000
0000
1000
,
0000
0000
1000
0000
,
0000
1000
0000
0100
,
0000
1000
0000
0010
,
0000
0100
0000
0000
,
0100
0000
0000
0100
,
0000
0000
0100
0000
,
0002
0000
0000
0000
,
0000
0000
0000
0000
,
0000
0000
0000
0000
,
0003
0000
0000
0000
,
2000
0000
0000
0000
,
0000
0000
0000
0000
,
0000
0000
0000
0000
,
3000
0000
0000
0000
,
2002
0000
0000
0000
,
0000
0000
0000
0000
,
0000
0000
0000
0000
,
3003
0000
0000
0000
,
0220
0000
0000
0000
,
0000
0000
0000
0000
,
0000
0000
0000
0000
,
0330
0000
0000
0000
,
1001
0000
0000
0000
;
