#TITLE:PARANOiA ETERNAL;
#SUBTITLE:;
#ARTIST:STM200;
#TITLETRANSLIT:;
#SUBTITLETRANSLIT:;
#ARTISTTRANSLIT:;
#GENRE:;
#CREDIT:;
#BANNER:PARANOiA ETERNAL.png;
#BACKGROUND:PARANOiA ETERNAL-bg.png;
#LYRICSPATH:;
#CDTITLE:;
#MUSIC:PARANOiA ETERNAL.ogg;
#OFFSET:0.000000;
#SAMPLESTART:54.600002;
#SAMPLELENGTH:15.000000;
#SELECTABLE:YES;
#BPMS:0.000000=200.000000
;
#STOPS:
;
#BGCHANGES:;
#KEYSOUNDS:;
#ATTACKS:;

//---------------dance-single - LUNATiCBOi----------------
#NOTES:
     dance-single:
     LUNATiCBOi:
     Beginner:
     4:
     0.274262,0.325949,0.010549,0.105485,0.000000,182.000000,181.000000,1.000000,10.000000,0.000000,0.000000,0.274262,0.325949,0.010549,0.105485,0.000000,182.000000,181.000000,1.000000,10.000000,0.000000,0.000000:
0000
0000
0000
0000
,
0000
0000
0000
0000
,
0000
0000
0000
0000
,
0000
0000
0000
0000
,
0000
0000
1000
0000
,
0000
0000
0000
0001
0000
0000
0000
0000
,
1000
0000
0000
0000
,
0000
1000
0000
0000
0001
0000
2002
0000
,
3003
0000
1000
0000
0000
1000
0000
0000
,
0000
1000
0000
0000
1000
0000
0000
0000
,
0001
0000
0000
0001
0000
0000
0000
0001
,
0000
0001
0000
0100
,
0000
0100
0000
0000
0000
0100
0000
0000
,
0100
0000
0000
0000
0010
0000
0000
0010
,
0000
0000
0000
0010
0000
0000
0010
0000
,
0000
2000
0000
0000
,
0002
3003
0000
0001
,
0000
0001
1000
0100
,
0000
0100
0000
0000
0000
0000
1000
0000
,
0000
1000
0010
0010
,
0000
1000
0000
1000
,
0001
0000
0010
0000
0000
0010
0000
0000
,
0001
0000
0001
0010
,
0010
0010
0000
0001
,
0000
0001
1000
0100
,
0000
0100
0000
0000
1000
0000
0001
0000
,
0000
0001
1000
0010
,
0000
1000
0000
1000
,
0001
0000
0010
0000
0000
0010
0000
0000
,
0001
1000
0010
0010
,
0010
0010
0000
0000
,
0000
1000
0000
0000
0000
0001
0000
0000
,
0000
1000
0000
0000
0000
0001
0000
0000
,
0000
0100
0000
0000
0000
0010
0000
0000
,
0000
0100
0000
0000
0000
0000
0000
0001
,
0000
0000
0000
1000
0000
0000
0000
0001
,
0000
0000
0000
1000
0000
0000
0000
0000
,
0002
0003
0000
2000
,
3000
0000
0000
0001
,
0000
0001
0000
0001
,
0000
0100
0000
0100
,
0000
0100
0000
0010
,
0000
0010
0000
0010
,
0000
1000
0000
1000
,
0000
1000
0000
0000
,
0000
0000
1000
0000
,
1000
0000
0001
0000
0010
0000
0000
0010
,
0000
0001
1000
0000
,
1000
0000
0100
0000
1000
0000
0000
1000
,
0000
1000
0001
0000
,
0001
0000
1000
0000
0010
0000
0000
0010
,
0000
1000
0001
0000
,
0001
0000
0100
0000
0001
0000
0000
0001
,
0000
0001
1000
0000
,
1000
0000
0001
0000
0100
0000
0000
0100
,
0000
0001
1000
1000
,
1000
0000
0000
0000
0001
0000
0000
1000
,
0000
0100
0010
0000
,
0010
0000
0001
0000
1000
0000
0000
1000
,
0000
0001
0100
0010
,
0010
0000
0010
0000
0010
0000
0000
0010
,
0000
0010
1000
1000
,
1000
1000
1000
1000
,
1000
0000
0001
0001
,
0001
0001
0001
0001
,
0001
0000
0010
0010
,
0010
0010
0010
0010
,
0010
0000
0100
0100
,
0100
0100
0100
0100
,
0100
0000
0020
0000
,
0030
0200
0000
0300
,
0001
0000
1000
0000
,
0001
0000
0010
0000
,
0100
0000
1000
0002
,
0003
0000
0000
2000
,
3000
0000
0000
0001
,
0000
0001
0000
1000
,
1000
1000
0000
0000
;

//---------------dance-single - LUNATiCBOi----------------
#NOTES:
     dance-single:
     LUNATiCBOi:
     Easy:
     9:
     0.432489,0.488924,0.379747,0.116034,0.000000,287.000000,251.000000,36.000000,11.000000,0.000000,0.000000,0.432489,0.488924,0.379747,0.116034,0.000000,287.000000,251.000000,36.000000,11.000000,0.000000,0.000000:
0000
0000
0000
0000
,
0000
0000
0000
0000
,
0000
0000
0000
0000
,
0000
0000
0000
0000
,
0000
0000
1000
1000
,
0000
0000
0000
0001
0000
0001
0000
0000
,
0000
1000
1000
0000
,
0000
1001
0000
0000
1001
0000
2002
0000
,
3003
0000
0001
0000
0000
0101
0000
0000
,
0000
1000
0000
0000
1100
0000
0000
0000
,
1000
0000
0000
1010
0000
0000
0000
0001
,
0000
0011
0000
1000
,
0000
1100
0000
0000
0000
0001
0000
0000
,
0101
0000
0000
0000
1000
0000
0000
1010
,
0000
0000
0000
0001
0000
0000
0011
0000
,
0000
0000
1001
0000
0000
0110
0000
0000
,
2002
3003
0000
1000
,
0100
0001
0100
1000
,
0000
1001
0000
0000
0001
0100
0100
0000
,
1000
0100
0001
1001
,
0000
0001
0010
1000
,
0010
0000
0001
0000
0000
1001
0000
0000
,
1000
0010
0010
0000
0001
0000
0010
0000
,
1000
1001
0000
0001
,
0100
1000
0100
0001
,
0000
1001
0000
0000
1000
0100
0100
0000
,
0001
0100
1000
1001
,
0000
1000
0010
0001
,
0010
0000
1000
0000
0000
1001
0000
0000
,
0001
0010
0010
0000
1000
0000
0010
0000
,
0001
1000
1001
0000
,
0000
1000
0000
1000
0000
0001
0000
0001
,
0000
1000
0000
1000
0000
0001
0000
0001
,
0000
0100
0000
0010
0000
0100
0000
0010
,
0000
0100
0000
0010
0000
0010
0000
1000
,
0000
1000
0000
0001
0000
0001
0000
1000
,
0000
1000
0000
0001
0000
0001
0000
0000
,
2000
3000
0000
0020
,
0030
0200
0000
0300
0000
0001
0000
0000
,
1000
0000
0000
0100
0000
0000
0001
0000
,
0100
0010
0010
0010
0000
0000
0001
0000
,
0000
1000
0000
0000
0010
0000
0100
0001
,
0001
0001
1000
0000
0010
0000
0000
0001
,
0000
0000
0010
0100
0010
0010
0010
1000
,
0000
0000
0000
0001
0000
1000
0000
0000
,
1001
1001
1000
0100
,
0001
0000
0100
0000
1000
0000
0000
1001
,
0000
0000
0001
0100
0100
0000
1000
0000
,
0100
0000
0001
0000
1000
0000
0000
0110
,
0000
1001
0001
0010
,
1000
0000
0010
0000
0001
0000
0000
1001
,
0000
0000
1000
0010
0010
0000
0001
0000
,
0010
0000
1000
0000
0001
0000
0000
0110
,
0000
1001
0001
0100
,
1000
0000
0100
0000
0001
0000
0000
1001
,
0000
0000
1000
0100
0100
0000
0001
0000
,
0100
0000
1000
0000
0001
0000
0000
0110
,
0000
1001
1000
0010
,
0001
0000
0010
0000
1000
0000
0000
1001
,
0000
0000
0001
0010
0010
0000
1000
0000
,
0010
0000
0001
0000
1000
0000
0000
0110
,
0000
1001
1000
0100
,
0001
0100
1000
0001
,
1000
0000
0001
0100
,
1000
0100
0001
1000
,
0001
0000
1000
0010
,
0001
0010
1000
0001
,
1000
0000
0001
0010
,
1000
0010
0001
1000
,
0001
0000
0010
0001
,
0010
0100
1000
0100
,
0010
0001
1000
0001
,
0100
0010
1000
0010
,
0100
0001
1000
0020
,
0030
0200
0300
0020
,
0030
0200
0300
0001
,
0010
0010
1000
0010
,
0001
0001
0000
0000
;

//---------------dance-single - LUNATiCBOi----------------
#NOTES:
     dance-single:
     LUNATiCBOi:
     Medium:
     12:
     0.577155,0.611155,0.516878,0.137131,0.000000,383.000000,334.000000,49.000000,13.000000,0.000000,0.000000,0.577155,0.611155,0.516878,0.137131,0.000000,383.000000,334.000000,49.000000,13.000000,0.000000,0.000000:
0000
0000
0000
0000
,
0000
0000
0000
0000
,
0000
0000
0000
0000
,
0000
0000
0000
0000
,
0000
0000
1000
1000
,
0000
0000
0000
0001
0000
0001
0000
0000
,
0000
0000
1000
0001
1000
0000
0000
0000
,
0000
1001
0000
0000
0110
0000
2002
0000
,
3003
0000
1000
0000
0000
0110
0000
0010
,
0000
0001
0000
0000
0101
0000
0001
0000
,
0100
0000
0000
1010
0000
1000
0000
0100
,
0000
0011
0000
0001
,
0000
0101
0000
0100
0000
0001
0000
0000
,
1001
0000
0001
0000
1000
0000
0000
1100
,
0000
0100
0000
0010
0000
0000
0110
0000
,
0000
0000
0100
0010
0000
0010
0100
0000
,
2002
3003
0000
0001
,
0100
0000
1000
0000
0100
0010
0100
0000
,
0000
0101
0000
0000
0001
1000
0100
0000
,
0100
0000
0100
0000
1000
0010
0100
0010
,
0000
1001
0110
1001
,
1000
0100
0001
0000
0000
0001
0000
0000
,
0001
0100
1000
0000
1100
0000
1010
0000
,
0010
0100
0001
0001
0000
0000
1000
0000
,
0100
0000
0001
0000
0100
0010
0100
0000
,
0000
1100
0000
0000
1000
0001
0100
0000
,
0100
0000
0100
0000
0001
0100
0010
0100
,
0000
1001
0110
1001
,
1000
0010
0001
0000
0000
0001
0000
0000
,
0001
0010
1000
0000
1100
0000
0011
0000
,
0001
1000
0001
0001
0000
0000
0000
1000
,
0000
1100
0000
1000
0000
1001
0000
1000
,
0000
1100
0000
1000
0000
1001
0000
0001
,
0100
0010
0000
1000
0010
0100
0000
0001
,
1000
0001
0000
1001
0000
0110
0000
0001
,
0000
0101
0000
0001
0000
1001
0000
0001
,
0000
0101
0000
0001
0000
1001
0000
0000
,
0002
0000
0000
2003
,
0000
3020
0000
0200
0330
0001
1000
0100
,
1000
0001
0100
0010
1000
0001
0010
0100
,
1000
0001
0001
0000
0000
1000
0001
0100
,
0001
1000
0100
0010
0001
0100
0010
1000
,
0001
0001
0000
0000
0001
1000
0010
1000
,
0001
0001
0010
0100
1000
0001
1000
1000
,
0000
0000
0001
1000
0100
1000
0001
0010
,
0100
1000
0001
0000
1000
0000
0100
0000
,
0001
0000
0100
0010
0100
0000
1000
0100
,
0000
0000
0001
0100
0100
0000
1000
0000
,
0001
0000
0100
0010
1000
0000
0000
0110
,
0000
1001
0001
0010
,
1000
0000
0010
0100
0010
0000
0001
0010
,
0000
0000
1000
0010
0001
0000
0011
0000
,
1001
0000
0001
0100
0010
0000
0000
1010
,
0000
1001
0001
0100
,
1000
0000
0100
0010
0100
0000
0001
0100
,
0000
0000
1000
0100
0100
0000
0001
0000
,
1000
0000
0100
0010
0001
0000
0000
0110
,
0000
1001
1000
0010
,
0001
0000
0010
0100
0010
0000
1000
0010
,
0000
0000
0001
0010
1000
0000
1010
0000
,
1001
0000
0001
0010
0100
0000
0000
0110
,
0000
0000
1001
0000
1000
0100
1000
0000
,
0001
0100
0010
1000
0100
0000
1000
0001
,
1000
1000
0000
0000
0001
0100
0001
0000
,
1000
0100
0010
0001
0100
0000
0001
1000
,
0001
0001
0000
0000
1000
0010
1000
0000
,
0001
0010
0100
1000
0010
0000
1000
0001
,
1000
1000
0000
0000
0001
0010
0001
0000
,
1000
0010
0100
0001
0010
0000
0001
1000
,
0001
0001
0000
0000
0010
0000
0001
0000
,
0010
0000
1000
0010
0001
0000
0100
0000
,
1000
0000
0100
0001
0010
0000
0100
0000
,
1000
0000
0010
0001
0100
0000
0001
0000
,
1000
0000
0001
0010
1000
0000
0022
0003
,
0000
0000
0200
0300
0000
0000
2000
3000
,
0000
0000
0200
0330
0000
0000
0001
0010
,
0100
0000
1000
0010
0100
0000
0001
0000
,
0110
1001
0000
0000
;

//---------------dance-single - LUNATiCBOi----------------
#NOTES:
     dance-single:
     LUNATiCBOi:
     Hard:
     14:
     0.681133,0.814873,0.411392,0.295359,0.063291,452.000000,413.000000,39.000000,28.000000,0.000000,0.000000,0.681133,0.814873,0.411392,0.295359,0.063291,452.000000,413.000000,39.000000,28.000000,0.000000,0.000000:
// measure 0
0000
0000
0000
0000
,  // measure 1
0000
0000
0000
0000
,  // measure 2
0000
0000
0000
0000
,  // measure 3
0000
0000
0000
0000
,  // measure 4
0000
0000
0000
0000
1000
0100
0100
0000
,  // measure 5
0000
0110
0000
0001
0100
0100
0000
1100
,  // measure 6
0000
0000
1000
0001
0001
0100
0000
0000
,  // measure 7
0000
0101
0000
0000
1100
0000
0220
0000
,  // measure 8
0330
0000
0001
0000
0000
1100
0000
1000
,  // measure 9
0100
0010
0000
0000
0011
0000
0001
0100
,  // measure 10
1000
0000
0000
1100
0000
0100
0001
1000
,  // measure 11
0000
0000
1001
0000
1000
0001
0100
0000
,  // measure 12
0000
0101
0000
0001
0010
1000
0000
0000
,  // measure 13
1010
0000
0010
0001
1000
0000
0000
1100
,  // measure 14
0000
1000
0001
0001
0000
0000
1001
0000
,  // measure 15
0000
0000
0100
0100
0000
0010
0010
0000
,  // measure 16
2002
3003
0000
2100
,  // measure 17
0001
0000
3010
0000
0100
0001
1000
1000
,  // measure 18
0010
1000
0000
0000
1000
0100
0010
0000
,  // measure 19
0012
0000
1000
0000
0103
0010
1000
1000
,  // measure 20
0000
0102
1000
0013
,  // measure 21
0100
1000
0001
0001
1000
0001
0000
0000
,  // measure 22
0001
0010
0010
0000
1000
0010
0010
0000
,  // measure 23
0001
1000
0010
0010
0010
0000
0102
0000
,  // measure 24
1000
0000
0013
0000
0100
1000
0001
0001
,  // measure 25
1000
0001
0000
0000
0010
0100
1000
0000
,  // measure 26
2100
0000
0001
0000
3010
0100
0001
0001
,  // measure 27
0000
0012
1000
0103
,  // measure 28
0001
0100
0010
0010
1000
0010
0000
0000
,  // measure 29
1000
0010
0010
0000
0001
0010
0010
0000
,  // measure 30
1000
0001
0010
0010
0010
0000
0000
0001
,  // measure 31
1000
0100
0000
1000
0001
0100
0000
0001
,  // measure 32
1000
0100
0000
1000
0001
0100
0000
0001
,  // measure 33
0010
0100
0000
1000
0100
0010
0000
0001
,  // measure 34
0010
0100
0000
1001
0000
0110
0000
1000
,  // measure 35
0001
0100
0000
0001
1000
0100
0000
1000
,  // measure 36
0001
0100
0000
0001
1000
0100
0000
0000
,  // measure 37
0022
0000
0033
0000
0000
0000
2200
3300
,  // measure 38
0000
0000
2002
0000
3003
0000
0220
0000
0330
0000
0001
0000
1000
0100
1000
0000
,  // measure 39
0001
0000
0010
0000
0100
0000
1000
0001
1000
0000
0010
0100
0010
0000
1000
0000
,  // measure 40
0001
0000
0010
0000
1000
0000
0000
0000
0010
0001
0010
0000
0100
0000
1000
0000
,  // measure 41
0001
0000
0100
0010
0100
0000
0001
1000
0001
0000
0100
0000
0001
0000
0010
0000
,  // measure 42
0100
1000
0100
0000
0000
0000
0000
0000
0010
0000
0001
0000
1000
0000
0001
0100
,  // measure 43
0010
0000
1000
0100
0010
0000
0001
0000
0010
0000
1000
0000
0010
0001
1000
0000
,  // measure 44
0000
0000
0000
0000
0001
0000
0100
0000
0010
0000
1000
0001
0010
0000
0001
1000
,  // measure 45
0010
0100
0001
0000
2010
0000
0001
0000
,  // measure 46
3100
0000
0010
0001
1000
1000
0001
1000
,  // measure 47
0000
0000
0001
0010
0100
2000
0001
0000
,  // measure 48
0010
0000
3100
0010
0001
0000
1000
0100
,  // measure 49
0000
0010
0001
0000
0102
0000
0010
0000
,  // measure 50
0103
0000
0010
1000
0001
0001
0100
0001
,  // measure 51
0000
0000
1000
0010
0010
0000
0001
0010
,  // measure 52
0010
0000
1000
0001
0010
0010
0100
1000
,  // measure 53
0000
0001
0100
0000
2010
0000
0100
0000
,  // measure 54
3010
0000
0100
0001
1000
1000
0001
1000
,  // measure 55
0000
0000
1000
0100
0010
0002
1000
0000
,  // measure 56
0100
0000
0013
0100
1000
1000
0000
0001
,  // measure 57
0000
1000
1000
0000
2010
0000
0100
0000
,  // measure 58
3010
0000
0100
0001
0010
0000
0100
1000
,  // measure 59
0000
0001
1000
0010
0010
0000
0001
0010
,  // measure 60
0010
0000
1000
0001
0010
0010
0000
0110
,  // measure 61
0000
0000
1001
0000
1000
0100
0001
0100
,  // measure 62
1000
0001
0001
1000
0100
0010
0001
1000
,  // measure 63
0001
0001
0000
0000
0001
0100
1000
0100
,  // measure 64
0001
1000
1000
0001
0010
0100
1000
0001
,  // measure 65
1000
1000
0000
0000
0001
0010
1000
0010
,  // measure 66
0001
1000
1000
0001
0010
0100
1000
0001
,  // measure 67
1000
1000
0000
0000
1000
0010
0001
0010
,  // measure 68
1000
0001
0001
1000
0100
0010
0001
1000
,  // measure 69
0001
0001
1000
0000
0010
0000
1010
0000
,  // measure 70
1000
0001
0010
1000
0010
0000
1001
0000
,  // measure 71
1000
0100
0001
0100
1000
0000
1001
0000
,  // measure 72
0001
0100
1000
0100
0001
0000
1001
0000
,  // measure 73
1000
0010
0001
0010
1000
0000
2020
0000
,  // measure 74
3000
0200
0300
0002
,  // measure 75
0003
0000
0100
0000
1030
0001
0010
0100
,  // measure 76
1000
0010
0100
0001
0010
0100
1000
0000
,  // measure 77
1100
0101
0000
0000
;

//---------------dance-double - LUNATiCBOi----------------
#NOTES:
     dance-double:
     LUNATiCBOi:
     Easy:
     10:
     0.437010,0.529668,0.421941,0.126582,0.000000,290.000000,250.000000,40.000000,12.000000,0.000000,0.000000,0.437010,0.529668,0.421941,0.126582,0.000000,290.000000,250.000000,40.000000,12.000000,0.000000,0.000000:
00000000
00000000
00000000
00000000
,
00000000
00000000
00000000
00000000
,
00000000
00000000
00000000
00000000
,
00000000
00000000
00000000
00000000
,
00000000
00000000
10000000
10000000
,
00000000
00000000
00000000
00010000
00000000
00010000
00000000
00000000
,
00000000
00000000
00100000
00000000
00100000
00000000
00000000
00001000
,
00000000
00020000
00002000
00033000
,
00000000
00000000
00010000
00000000
00000000
00010100
00000000
00000000
,
00000000
00000100
00000000
00000000
00001100
00000000
00000000
00000000
,
00001000
00000000
00000000
00001001
00000000
00000000
00000000
00000001
,
00000000
00000101
00000000
00000100
,
00000000
00001001
00000000
00000000
00000000
00001000
00000000
00000000
,
00001100
00000000
00000000
00000000
00000100
00000000
00000000
00010100
,
00000000
00000000
00000000
00010000
00000000
00000000
00011000
00000000
,
00000000
00000000
00101000
00000000
00000000
01100000
00000000
00000000
,
22000000
33000000
00000000
10000000
,
01000000
00010000
01000000
00100000
,
00000000
00011000
00000000
00000000
00001000
00000000
00000100
00000000
,
00000001
00000010
00000100
00001001
,
00000000
00000001
00000010
00001000
,
00000010
00000000
00000100
00000000
00000000
00011000
00000000
00000000
,
00010000
01000000
01000000
00000000
10000000
00000000
00010000
00000000
,
01000000
01001000
00000000
00001000
,
00010000
00000100
00000001
00000100
,
00000000
00000011
00000000
00000000
00000001
00000100
00000100
00000000
,
00001000
00000100
00000010
00010010
,
00000000
00001000
00100000
10000000
,
00100000
00000000
00010000
00000000
00000000
01100000
00000000
00000000
,
10000000
00100000
00100000
00000000
01000000
00000000
00010000
00000000
,
00100000
00000000
00001000
00000000
00011000
00000000
00000000
00010000
,
00000000
00010000
00000000
00001000
00000000
00001000
00000000
00000100
,
00000000
00000100
00000000
00000010
00000000
00000010
00000000
00001000
,
00000000
00000001
00000000
00001000
00000000
00000001
00000000
00001000
,
00000000
00000001
00000000
00001001
00000000
00000000
00000000
00000001
,
00000000
00000001
00000000
00000010
00000000
00000010
00000000
00000100
,
00000000
00000100
00000000
00010000
00000000
00010000
00000000
00000000
,
00002000
00000000
00003000
00000000
00000000
00000000
02000000
03000000
,
00000000
00200000
00300000
20000000
30000000
00010000
00000000
00000000
,
00100000
00000000
00000000
01000000
00000000
00000000
00010000
00000000
,
00001000
00010000
00010000
00010000
00000000
00000000
00000100
00000000
,
00000000
00000010
00000000
00000000
00000001
00000000
00000100
00000010
,
00000010
00000010
00001000
00000000
00000100
00000000
00000000
00010000
,
00000000
00000000
00001000
00000000
00100000
00100000
00100000
10000000
,
00000000
00000000
00000000
00100000
00000000
00010000
00000000
00000000
,
10000000
00010000
01000000
00100000
,
01000000
00000000
00001000
00000000
00010000
00000000
00000000
00011000
,
00000000
00000000
00010000
00000100
00000100
00000000
00001000
00000000
,
00000100
00000000
00000001
00000000
00000100
00000000
00000000
00000011
,
00000000
00001001
00000001
00000010
,
00000100
00000000
00000010
00000000
00000001
00000000
00000000
00001100
,
00000000
00000000
00000100
00001000
00001000
00000000
00000010
00000000
,
00010000
00000000
00001000
00000000
00100000
00000000
00000000
01100000
,
00000000
10010000
10000000
00100000
,
00010000
00000000
00100000
00000000
01000000
00000000
00000000
10010000
,
00000000
00000000
10000000
01000000
01000000
00000000
00010000
00000000
,
00001000
00000000
00010000
00000000
00000100
00000000
00000000
00001100
,
00000000
00000011
00000001
00000010
,
00001000
00000000
00000010
00000000
00000001
00000000
00000000
00001001
,
00000000
00000000
00000001
00000010
00000010
00000000
00001100
00000000
,
00010100
00000000
00010000
00000000
00001000
00000000
00000000
00011000
,
00000000
01100000
10000000
01000000
,
00010000
01000000
00100000
00001000
,
00011000
00000000
00010000
00000100
,
00000001
00000100
00000010
00001000
,
00011000
00000000
00010000
00100000
,
10000000
01000000
00100000
00001000
,
00011000
00000000
00010000
00000100
,
00000001
00001000
00000010
00010000
,
00011000
00000000
00001000
00100000
,
00010000
00100000
10000000
00100000
,
01000000
00100000
00001000
00000010
,
00000001
00000010
00000100
00000010
,
00000001
00000100
00000010
00002000
,
00003000
00000200
00000300
00020000
,
00030000
00002000
00003000
01000000
,
00100000
10000000
00100000
01000000
,
01010000
00011000
00000000
00000000
;

//---------------dance-double - LUNATiCBOi----------------
#NOTES:
     dance-double:
     LUNATiCBOi:
     Medium:
     12:
     0.614828,0.651899,0.748945,0.221519,0.000000,408.000000,337.000000,71.000000,21.000000,0.000000,0.000000,0.614828,0.651899,0.748945,0.221519,0.000000,408.000000,337.000000,71.000000,21.000000,0.000000,0.000000:
00000000
00000000
00000000
00000000
,
00000000
00000000
00000000
00000000
,
00000000
00000000
00000000
00000000
,
00000000
00000000
00000000
00000000
,
00000000
00000000
10000000
10000000
,
00000000
00000000
00000000
01000000
00000000
01000000
00000000
00000000
,
00000000
00000000
00010000
00001000
00010000
00000000
00000000
00010100
,
00000000
00000011
00002002
00003003
,
00000000
00000000
00000001
00000000
00000000
00000110
00000000
00000100
,
00000000
00000010
00000000
00000000
00001010
00000000
00001000
00000000
,
00000100
00000000
00000000
00000011
00000000
00000001
00000000
00000100
,
00000000
00010010
00010000
00001000
,
00000000
01001000
00000000
01000000
00000000
00010000
00000000
00000000
,
11000000
00000000
10000000
00000000
00100000
00000000
00000000
01010000
,
00000000
00010000
00000000
00100000
00000000
00000000
00101000
00000000
,
00000000
00000000
00001000
00010000
00000000
00010000
00001000
00000000
,
00022000
00033000
00000000
00010000
,
00000100
00000000
00000010
00000000
00000001
00000100
00000001
00000000
,
00000000
00001010
00000000
00000000
00001000
00000100
00000100
00000000
,
00000011
00000000
00010100
00000000
00010000
00001000
00010000
00010000
,
00000000
00011000
00101000
02100000
,
13000000
00010000
10000000
00000000
00000000
01100000
00000000
00000000
,
10000000
01000000
00100000
00000000
00110000
00000000
01010000
00000000
,
01000000
00001000
00010000
00010000
00000000
00000000
00001000
00000000
,
00010000
00000000
00000010
00000000
00000001
00000010
00001000
00000000
,
00000000
00001001
00000000
00000000
00000001
00000010
00000100
00000000
,
00010100
00000000
00011000
00000000
00001000
00100000
01000000
01000000
,
00000000
11000000
00110000
00102000
,
00013000
00000100
00001000
00000000
00000000
00001100
00000000
00000000
,
00000100
00000010
00000001
00000000
00000011
00000000
00001001
00000000
,
00000001
00000100
00000010
00000010
00000000
00000000
00000000
00001000
,
00000000
00001100
00000000
00001000
00000000
00001001
00000000
00001000
,
00000000
00001100
00000000
00000100
00000000
00010100
00000000
00010000
,
00001000
00010000
00000000
00001000
00010000
00001000
00000000
00010000
,
00001000
00010000
00000000
00011000
00000000
00011000
00000000
00001000
,
00000000
00101000
00000000
00001000
00000000
00011000
00000000
00001000
,
00000000
00101000
00000000
00100000
00000000
01100000
00000000
00000000
,
20020000
30030000
00000000
20000000
,
00000000
30020000
00000000
02030000
03000000
00100000
10000000
01000000
,
00010000
01000000
00100000
00001000
00010000
00001000
00000100
00000010
,
00001000
00000001
00000001
00000000
00000000
00000010
00000001
00000100
,
00001000
00000100
00000010
00010000
00001000
00100000
01000000
10000000
,
00010000
00010000
00000000
10000000
00100000
00010000
00100000
01000000
,
00001000
00010000
00001000
00000100
00000001
00001000
00000001
00000001
,
00000000
00000010
00000001
00000100
00000010
00001000
00000001
00000010
,
00000100
00010000
00001000
00000000
00011000
00000000
00101000
00000000
,
02100000
00000000
13000000
00010000
10000000
00000000
00000000
01010000
,
00000000
00000000
01000000
00001000
00010000
00000000
00011000
00000000
,
00010100
00000000
00000100
00001000
00000001
00000000
00000100
00000010
,
00000000
00000010
00000100
00000000
00000110
00000000
00001001
00000000
,
00001200
00000000
00000310
00000001
00000100
00000000
00000000
00010010
,
00000000
00000000
00010000
00001000
00100000
00000000
01100000
00000000
,
12000000
00000000
03100000
00010000
01000000
00000000
00000000
01010000
,
00000000
10010000
11000000
10010000
,
02010000
00000000
03100000
10000000
00010000
00000000
00000000
00110000
,
00000000
00000000
00100000
00001000
00010000
00000000
00012000
00000000
,
00003100
00000000
00000010
00000100
00000001
00000000
00000001
00001000
,
00000000
00001000
00000001
00000000
00000110
00000000
00001001
00000000
,
00000110
00000000
00000001
00001000
00000100
00000000
00000000
00010100
,
00000000
00000000
00010000
00001000
00100000
00000000
00110000
00000000
,
10010000
00000000
10000000
00100000
00100000
00000000
00000000
01100000
,
00000000
00000000
10010000
00000000
10000000
01000000
10000000
00000000
,
00010000
00100000
01000000
00100000
00001000
00000000
00010000
00001000
,
00010000
00010000
00000000
00000000
00000100
00000010
00000100
00000000
,
00000010
00000001
00001000
00000001
00000010
00000000
00001000
00010000
,
00001000
00001000
00000000
00000000
00100000
01000000
00100000
00000000
,
01000000
10000000
00010000
10000000
01000000
00000000
00010000
00001000
,
00010000
00010000
00000000
00000000
00000010
00000100
00000010
00000000
,
00000100
00000001
00001000
00000001
00000100
00000000
00001000
00010000
,
00001000
00001000
00000000
00000000
00100000
00000000
00010000
00000000
,
10000000
00000000
00010000
00100000
10000000
00000000
00100000
00000000
,
00001000
00000000
00010000
00000100
00000010
00000000
00000001
00000000
,
00000100
00000000
00000010
00010000
00001000
00000000
00100000
00000000
,
00010000
00000000
01000000
10000000
01000000
00000000
00022000
00030000
,
00000000
00000000
00200000
00300000
00000000
00000000
00020000
00030000
,
00000000
00000000
02000000
00000000
03003000
00000000
00001000
00010000
,
00000100
00000000
00001000
00000100
00000010
00000000
00000001
00000000
,
00000110
00010100
00000000
00000000
;

//---------------dance-double - LUNATiCBOi----------------
#NOTES:
     dance-double:
     LUNATiCBOi:
     Hard:
     14:
     0.682640,0.814873,0.443038,0.284810,0.063291,453.000000,411.000000,42.000000,27.000000,0.000000,0.000000,0.682640,0.814873,0.443038,0.284810,0.063291,453.000000,411.000000,42.000000,27.000000,0.000000,0.000000:
00000000
00000000
00000000
00000000
,
00000000
00000000
00000000
00000000
,
00000000
00000000
00000000
00000000
,
00000000
00000000
00000000
00000000
,
00000000
00000000
00000000
00000000
10000000
00010000
00010000
00000000
,
00000000
00000000
00000000
01000000
00001000
00001000
00000000
00011000
,
00000000
00000000
00010000
00000010
00000010
00000100
00000000
00000000
,
00000000
00000110
00000000
00000000
00000101
00000000
00002002
00000000
,
00003003
00000000
00000001
00000000
00000000
00000011
00000000
00000001
,
00000010
00001000
00000000
00000000
00011000
00000000
00010000
00001000
,
01000000
00000000
00000000
01100000
00000000
00100000
01000000
00010000
,
00000000
00000000
10010000
00000000
10000000
01000000
00100000
00000000
,
00000000
00101000
00000000
00001000
00010000
00000100
00000000
00000000
,
00001100
00000000
00001000
00000001
00000100
00000000
00000000
00000101
,
00000000
00000001
00000010
00001000
00000000
00000000
00011000
00000000
,
00000000
00000000
00001000
00001000
00000000
00010000
00010000
00000000
,
00022000
00033000
00000000
00012000
,
00100000
00000000
00013000
00000000
00001000
00100000
00100000
01000000
,
00100000
10000000
00000000
00000000
00100000
00010000
01000000
00000000
,
01020000
00000000
10000000
00000000
00130000
00001000
00010000
00001000
,
00000000
00021000
00000100
00001000
,
00030100
00001000
00000001
00000001
00000000
00001001
00000000
00000000
,
00001000
00000010
00000010
00000000
00000001
00000010
00000010
00000000
,
00001000
00000100
00000100
00010000
00001000
00000000
00201000
00000000
,
00010000
00000000
01300000
00000000
10000000
00010000
01000000
01000000
,
00100000
01000000
00000000
00000000
00010000
10000000
00010000
00000000
,
21000000
00000000
00100000
00000000
31000000
00100000
00001000
00001000
,
00000000
00021000
00000100
00031000
,
00010000
00000100
00000010
00000010
00000001
00000010
00000000
00000000
,
00000001
00000010
00000010
00000000
00001000
00100000
00100000
00000000
,
10000000
00100000
00010000
00100000
00100000
00000000
00000000
01000000
,
00100000
01000000
00000000
10000000
01000000
10000000
00000000
00010000
,
01000000
00010000
00000000
00100000
00010000
00100000
00000000
00001000
,
00010000
00001000
00000000
00010000
00001000
00010000
00000000
00001000
,
00010000
00001000
00000000
00011000
00000000
00011000
00000000
00010000
,
00000100
00010000
00000000
00000100
00000010
00000100
00000000
00000010
,
00000001
00000010
00000000
00000001
00000100
00000001
00000000
00000000
,
00002020
00000000
00003030
00000000
00000000
00000000
00002200
00003300
,
00000000
00000000
00020200
00000000
00030300
00000000
00021000
00000000
00030000
00000000
00001000
00000000
00100000
00010000
00100000
00000000
,
01000000
00000000
10000000
00000000
00100000
00000000
01000000
10000000
01000000
00000000
00100000
01000000
00100000
00000000
01000000
00000000
,
00010000
00000000
10000000
00000000
10000000
00000000
00000000
00000000
00010000
00100000
00010000
00000000
01000000
00000000
00001000
00000000
,
00010000
00000000
00000100
00010000
00000100
00000000
00001000
00000100
00001000
00000000
00000010
00000000
00000100
00000000
00000001
00000000
,
00000100
00000010
00000100
00000000
00000000
00000000
00000000
00000000
00000010
00000000
00001000
00000000
00000001
00000000
00001000
00000010
,
00000100
00000000
00001000
00010000
00001000
00000000
00010000
00000000
01000000
00000000
00100000
00000000
00010000
10000000
00010000
00000000
,
00000000
00000000
00000000
00000000
10000000
00000000
00100000
00000000
01000000
00000000
00010000
00100000
00001000
00000000
00010000
00000100
,
00001000
00000100
00000010
00000000
00000012
00000000
00001000
00000000
,
00000103
00000000
00000001
00000100
00000010
00000010
00001000
00000010
,
00000000
00000000
00000010
00010000
00001000
00020000
01000000
00000000
,
00001000
00000000
01030000
10000000
00010000
00000000
01000000
01000000
,
00000000
00100000
00100000
00000000
20100000
00000000
00010000
00000000
,
31000000
00000000
00100000
00010000
01000000
01000000
00010000
01000000
,
00000000
00000000
00001000
00000010
00000010
00000000
00000001
00000010
,
00000010
00000000
00000100
00000010
00000010
00000010
00000000
00000011
,
00000000
00000001
00001000
00000000
00002100
00000000
00000001
00000000
,
00003010
00000000
00000010
00000100
00000001
00000001
00001000
00000100
,
00000000
00000100
00010000
00000100
00001000
02000000
00100000
00000000
,
10000000
00000000
03100000
00010000
10000000
10000000
00000000
10010000
,
00000000
00010000
00100000
00000000
00110000
00000000
00101000
00000000
,
00011000
00000000
00010000
00000100
00000100
00000000
00001000
00001000
,
00000000
00000000
00000001
00000010
00000010
00000000
00001000
00000010
,
00000010
00000000
00000001
00000010
00000010
00000100
00000000
00000110
,
00000000
00000010
00000100
00000000
00000010
00000001
00001000
00000001
,
00000010
00000100
00001000
00000001
00001000
00000100
00010000
00001000
,
00010000
00010000
00000000
00000000
01000000
10000000
00010000
10000000
,
01000000
00100000
00010000
10000000
00010000
01000000
00001000
00010000
,
00001000
00001000
00000000
00000000
00000100
00000001
00001000
00000001
,
00000010
00000100
00001000
00000001
00001000
00000100
00010000
00001000
,
00010000
00010000
00000000
00000000
01000000
10000000
00010000
10000000
,
01000000
00100000
00010000
10000000
00010000
00100000
01000000
00100000
,
00001000
00001000
00010000
00000000
00000100
00000000
00001100
00000000
,
00001000
00000001
00000100
00000010
00000100
00000000
00000101
00000000
,
00000001
00000010
00000100
00010000
00000100
00000000
00010100
00000000
,
00010000
00001000
00100000
01000000
00100000
00000000
01100000
00000000
,
01000000
10000000
00010000
01000000
00100000
00000000
02200000
00000000
,
00300000
00002000
00003000
00200000
,
00300000
00000000
03020000
00000000
10030000
01000000
00100000
00001000
,
00010000
00000100
00000010
00000001
00000100
00000010
00000100
00000000
,
00000110
00010010
00000000
00000000
;
