#VERSION:0.83;
#TITLE:Open the Door;
#SUBTITLE:;
#ARTIST:Venjent;
#TITLETRANSLIT:;
#SUBTITLETRANSLIT:;
#ARTISTTRANSLIT:;
#GENRE:;
#ORIGIN:;
#CREDIT:;
#BANNER:Open the Door.png;
#BACKGROUND:Open the Door-bg.png;
#PREVIEWVID:;
#JACKET:Open the Door-jacket.png;
#CDIMAGE:;
#DISCIMAGE:;
#LYRICSPATH:;
#CDTITLE:;
#MUSIC:Open the Door.ogg;
#OFFSET:-0.060000;
#SAMPLESTART:30.395454;
#SAMPLELENGTH:12.000000;
#SELECTABLE:YES;
#DISPLAYBPM:174.000000;
#BPMS:0.000=43.500,
6.000=174.000,
134.000=43.500,
142.000=174.000,
270.000=43.500;
#STOPS:;
#DELAYS:;
#WARPS:;
#TIMESIGNATURES:0.000=4=4;
#TICKCOUNTS:0.000=4;
#COMBOS:0.000=1;
#SPEEDS:0.000=1.000=0.000=0;
#SCROLLS:0.000=1.000;
#FAKES:;
#LABELS:0.000=Song Start;
#BGCHANGES:0.000=Open the Door.mp4=1.000=0=0=0=StretchNoLoop====,
99999=-nosongbg-=1.000=0=0=0 // don't automatically add -songbackground-
;
#KEYSOUNDS:;
#ATTACKS:
;

//---------------dance-single - ----------------
#NOTEDATA:;
#CHARTNAME:;
#STEPSTYPE:dance-single;
#DESCRIPTION:;
#CHARTSTYLE:;
#DIFFICULTY:Hard;
#METER:13;
#RADARVALUES:0.582215,0.612613,0.240240,0.617761,0.124410,475.000000,447.000000,28.000000,72.000000,0.000000,0.000000,2.000000,0.000000,0.000000,0.582215,0.612613,0.240240,0.617761,0.124410,475.000000,447.000000,28.000000,72.000000,0.000000,0.000000,2.000000,0.000000,0.000000;
#CREDIT:Ben Speirs;
#DISPLAYBPM:174.000000;
#NOTES:
// measure 0
0000
0000
0000
0000
,  // measure 1
0000
0000
1000
1100
,  // measure 2
0000
0100
0010
0000
0001
0000
0101
0000
,  // measure 3
0000
0100
0010
0000
1000
0000
1010
0000
,  // measure 4
0000
0010
0100
0000
0001
0000
0011
0000
,  // measure 5
0000
0001
0010
0100
1000
0000
1100
0000
,  // measure 6
0001
0100
0010
0000
1000
0000
0101
0000
,  // measure 7
1000
0100
0010
0000
0001
1000
0020
0000
,  // measure 8
0130
0020
0000
1030
0100
0010
0001
0200
,  // measure 9
0000
0301
1000
0000
0002
0000
1003
0010
,  // measure 10
0001
0010
0200
0000
0301
0010
1000
0010
,  // measure 11
0200
0000
1300
0001
0100
0000
0001
0100
,  // measure 12
1000
0100
0020
0000
1330
0100
0001
0100
,  // measure 13
0020
0000
0331
1000
0010
0000
1000
0010
,  // measure 14
0001
0010
0200
0000
0331
0010
1000
0010
,  // measure 15
0200
0000
0310
0001
1000
0000
0001
0100
,  // measure 16
1000
0100
0002
0000
1303
0100
0010
0000
,  // measure 17
2002
0000
3003
0000
0001
0100
2000
3130
,  // measure 18
0001
2000
3100
0010
0002
0103
0010
0200
,  // measure 19
0000
0301
0010
0100
1000
0010
0002
0313
,  // measure 20
1000
0002
0013
0100
2000
3010
0100
0020
,  // measure 21
0000
1030
0002
0000
0013
0010
0203
1300
,  // measure 22
0001
2000
3310
0100
0002
1303
0100
0020
,  // measure 23
0000
0000
0331
0000
0100
0000
0010
0000
1000
0000
0000
0000
1010
0000
0000
0001
,  // measure 24
0000
3102
0000
1003
0100
0001
0100
1000
,  // measure 25
0010
0100
0020
0000
0000
0000
1030
0000
0100
0000
0010
0000
0002
0000
0133
0010
,  // measure 26
0100
0010
0200
0000
0301
0000
0010
0000
2000
0000
3010
0000
0001
0000
0100
0010
,  // measure 27
0100
0000
0332
0000
0023
0000
0230
0000
1300
0000
0001
0000
2000
0000
3310
0100
,  // measure 28
0010
0100
0020
0000
1030
0000
0100
0000
0002
0000
0103
0000
1000
0000
0010
0100
,  // measure 29
0010
0000
1330
0000
2100
0000
0000
0000
3031
0000
0100
0000
0020
0000
1030
0001
,  // measure 30
1000
0001
0020
0000
0130
0000
1000
0000
0002
0000
0103
0000
0010
0000
0100
0001
,  // measure 31
3100
0001
2000
0000
3100
0000
0010
0000
0001
0000
0000
0000
0101
0000
0000
1000
,  // measure 32
0000
2013
0000
3001
0010
1000
0010
0001
,  // measure 33
0100
0010
0100
0000
0001
1000
0331
4000
0004
0000
0000
0000
0000
0000
0000
0000
,  // measure 34
0000
0000
0000
0000
,  // measure 35
0000
0000
0000
0000
0000
0000
0000
0000
0000
0000
0000
0000
3003
0000
0000
3003
0001
0000
0000
0000
0000
0000
0000
0000
0010
0000
0000
0000
0000
0000
0000
0000
,  // measure 36
0000
0110
1000
0010
,  // measure 37
0000
0000
0110
0000
0001
1000
0010
0000
,  // measure 38
0000
0000
1010
0000
1000
0001
0010
0000
,  // measure 39
0000
0000
0011
0000
1000
0100
0010
0001
,  // measure 40
0000
0100
0101
0000
0001
0100
0010
1000
,  // measure 41
0000
0100
1100
0000
0001
0010
0001
0010
,  // measure 42
0100
1000
1001
0000
1000
0010
1000
0010
,  // measure 43
0100
0001
1001
0000
1000
0000
0001
0100
,  // measure 44
1000
0100
0020
0000
1030
0100
0001
0100
,  // measure 45
0020
0000
0031
1000
0001
0000
1000
0010
,  // measure 46
0001
0010
0200
0000
0301
0010
1000
0010
,  // measure 47
0200
0000
1300
0001
1000
0010
0100
1000
,  // measure 48
0100
0001
1000
0100
0010
1000
0010
0001
,  // measure 49
0100
0010
1000
0001
1000
0100
0010
0100
,  // measure 50
0001
0100
0010
0100
1000
0010
0100
0301
,  // measure 51
1000
0001
1000
0001
1330
0000
0000
0000
1001
0000
0001
0000
0020
0000
0100
0000
,  // measure 52
0031
1000
0010
0100
0002
0010
1003
0001
,  // measure 53
0100
0010
0100
0010
2000
0000
3002
0100
,  // measure 54
1003
0010
0100
0001
2000
0100
3001
1000
,  // measure 55
0010
0100
0102
0000
1003
1000
0200
0010
,  // measure 56
1300
0001
0100
0010
2000
0100
3001
1000
,  // measure 57
0010
0000
0100
0000
1000
0000
0100
0000
0001
0000
0000
0000
0101
0000
0000
0100
,  // measure 58
0000
0110
0010
1000
0100
0001
0100
1000
,  // measure 59
0010
0100
0020
0000
0000
0000
1030
0000
3001
0000
0010
0000
2000
0000
3001
0000
,  // measure 60
0100
0000
2000
0000
3001
0000
0100
0000
2000
0000
3001
0000
0010
0000
1000
0001
,  // measure 61
1000
3020
0230
0302
1003
0100
0002
1003
,  // measure 62
0010
0000
0002
0000
1003
0000
0010
0000
0002
0000
1003
0000
0100
0000
0001
1000
,  // measure 63
0001
0000
0013
0000
0210
0000
0000
0000
1300
0000
0010
0000
0200
0000
0301
1000
,  // measure 64
0001
1000
0200
0000
0310
0000
0001
0000
2000
0000
3010
0000
0100
0000
0010
1000
,  // measure 65
0013
1000
0002
0000
0013
0000
0100
0000
1000
0000
0000
0000
1010
0000
0000
0010
,  // measure 66
0000
0110
0100
0001
0010
1000
0010
0001
,  // measure 67
0100
0010
0100
0000
0001
0000
1000
0000
2002
0000
0000
0000
0000
0000
0000
0000
,  // measure 68
3003
0000
0000
0000
;

//---------------dance-single - ----------------
#NOTEDATA:;
#CHARTNAME:;
#STEPSTYPE:dance-single;
#DESCRIPTION:;
#CHARTSTYLE:;
#DIFFICULTY:Medium;
#METER:9;
#RADARVALUES:0.391003,0.379236,0.197340,0.489060,0.000000,319.000000,296.000000,23.000000,57.000000,0.000000,0.000000,0.000000,0.000000,0.000000,0.391003,0.379236,0.197340,0.489060,0.000000,319.000000,296.000000,23.000000,57.000000,0.000000,0.000000,0.000000,0.000000,0.000000;
#CREDIT:Ben Speirs;
#DISPLAYBPM:174.000000;
#NOTES:
0000
0000
0000
0000
,
0000
0000
0001
0100
,
0000
0101
1000
0100
,
0000
1100
1000
0001
,
0000
0011
0001
1000
,
0000
1010
1000
0001
,
1000
0100
1000
0000
0001
0000
1000
0000
,
0001
0100
0001
0000
1000
0000
0220
0000
,
3333
2002
0000
3003
0001
0010
0100
2000
,
0000
0000
3001
0000
0100
0000
0010
1000
,
0010
2000
0000
0000
3001
0010
0001
0020
,
0000
0000
0130
0000
1000
0000
0001
0100
,
0001
0200
0000
0000
0310
1000
0010
2000
,
0000
0000
3100
0000
0010
0000
0001
0010
,
0001
0020
0000
0000
0130
1000
0100
2000
,
0000
3001
0100
0101
,
1000
0100
0010
0000
0001
0100
0010
0000
,
2002
3003
0001
0200
,
0301
0020
0000
0031
2000
0000
3001
0010
,
0000
0010
0200
0000
1300
0000
0020
0000
,
1030
0200
0000
1300
0002
0000
1003
0100
,
0000
0100
0020
0000
0031
0000
0200
0000
,
0301
0020
0000
0130
2000
0000
3010
0200
,
0000
0301
1000
0000
0002
0000
0010
0000
,
1003
0100
0010
0000
0001
0100
0010
0000
,
2002
0000
3003
0000
1000
0010
0200
0000
,
0000
0302
0000
0000
2003
0000
0000
3001
,
0000
1000
0100
0010
0001
0000
0200
0000
,
0000
0320
0000
0000
2030
0000
0000
3002
,
0000
0013
0203
0000
1300
0000
2001
0000
,
0000
3010
0000
0000
1002
0000
0000
0013
,
0000
0001
0100
0010
2000
0000
0100
0000
,
3001
0100
0010
0000
1000
0100
0010
0000
,
0220
3333
2002
0000
,
0000
0000
0000
0000
,
0000
0000
0000
3003
0001
0000
0100
0000
,
0000
0100
0010
1000
,
0000
1000
0100
0010
,
0000
0010
0001
1000
,
0000
0000
0001
0000
1000
0010
0100
0000
,
0000
0000
0101
0000
0001
0010
0100
0000
,
0000
0000
1100
0000
1000
0010
0100
0000
,
0000
0000
0110
0000
0001
0010
0100
0000
,
0000
0000
0110
0000
1000
0000
0001
0100
,
0010
0100
0001
0000
1000
0100
0010
0100
,
2000
0000
0000
0000
3001
0000
1000
0010
,
0100
0010
1000
0000
0001
0010
0100
0010
,
0002
0000
0000
0000
1003
0010
1000
0000
,
0001
0100
0001
0000
1000
0100
1000
0000
,
0001
0010
0001
0000
1000
0000
0001
0000
,
0100
0010
1000
0000
0100
0010
0001
0000
,
2002
3003
1000
0010
,
0100
0001
0100
0000
0001
0010
0001
0000
,
1000
0100
1000
0000
0001
0000
1000
0000
,
0001
0100
0001
0000
1000
0010
1000
0000
,
0001
0010
0001
0000
1000
0000
0001
0000
,
1000
0100
0010
0000
0001
0100
0010
0000
,
1000
0001
1000
0000
2002
0000
3003
0000
,
0001
0010
0100
0000
1000
0010
0100
0000
,
0220
0000
0330
0000
1000
0001
1000
0000
,
0001
0100
0000
0100
0010
0000
1000
0100
,
0000
0100
0010
0000
0001
0010
0001
0000
,
1000
0010
0000
0010
0100
0000
0001
0010
,
0000
0010
0100
0000
1000
0100
0010
0000
,
0001
0100
0000
0010
1000
0000
0001
0010
,
0000
0100
1000
0000
2002
0000
3003
0000
,
1000
0010
0100
0000
0001
0010
0100
0000
,
0220
0330
2002
0000
,
3003
0000
0000
0000
;

//---------------dance-single - ----------------
#NOTEDATA:;
#CHARTNAME:;
#STEPSTYPE:dance-single;
#DESCRIPTION:;
#CHARTSTYLE:;
#DIFFICULTY:Easy;
#METER:5;
#RADARVALUES:0.214500,0.291720,0.068640,0.248820,0.000000,175.000000,167.000000,8.000000,29.000000,0.000000,0.000000,0.000000,0.000000,0.000000,0.214500,0.291720,0.068640,0.248820,0.000000,175.000000,167.000000,8.000000,29.000000,0.000000,0.000000,0.000000,0.000000,0.000000;
#CREDIT:Ben Speirs;
#DISPLAYBPM:174.000000;
#NOTES:
0000
0000
0000
0000
,
0000
0000
1000
0000
,
0000
0000
0001
0000
,
0000
0000
0100
0000
,
0000
0000
0010
0000
,
0000
0000
1000
1000
,
0000
0000
0100
0100
,
0000
0000
0010
2002
,
0000
3003
0001
0000
,
1000
0000
0000
0001
,
0100
0001
1000
0001
,
1000
0000
0000
1000
,
0100
1000
0001
1000
,
0001
0000
0000
0001
,
0010
0001
1000
0001
,
1000
0000
1000
0001
,
0100
0100
0010
0010
,
1000
0000
0001
0010
,
0100
1000
0010
0100
,
0002
0003
1000
0001
,
0100
0010
1000
0100
,
2000
3000
0001
0001
,
1000
1000
0010
0100
,
0001
0000
2000
0000
,
3002
0000
0103
0010
,
2002
3003
0001
0001
,
1000
1000
0001
0010
,
0100
0000
1000
1000
,
0001
0001
1000
0010
,
0100
0000
0010
0010
,
0010
0100
0010
0010
,
0010
0000
2000
0000
,
3002
0000
0013
0100
,
0220
0330
2002
0000
,
0000
0000
0000
0000
,
0000
0000
0000
3003
1000
0000
0000
0000
,
0000
0000
0001
0000
,
0000
0000
0100
0000
,
0000
0000
0010
0000
,
0000
0000
1000
1000
,
0000
0000
0001
0001
,
0000
0000
0010
0010
,
0000
0000
0100
0100
,
0000
0000
1000
1000
,
1000
1000
0100
0010
,
0001
0000
0001
0001
,
0001
0001
0100
0010
,
1000
0000
0010
0010
,
0100
0100
0001
0001
,
1000
1000
0100
0100
,
0010
0001
1000
0010
,
2002
3003
0001
0100
,
0000
0100
0000
0000
0010
0000
0000
0010
,
0000
0000
0000
1000
,
0000
1000
0000
0000
0100
0000
0000
0100
,
0000
0000
0000
0010
,
0000
0010
0000
0000
0001
0000
0000
0001
,
0000
0000
2000
0000
,
3002
0000
0103
0010
,
2002
3003
0000
0001
,
0000
1000
0000
0000
0010
0000
0000
0200
,
0000
0300
0000
0010
,
0000
1000
0000
0000
0001
0000
0000
0020
,
0000
0030
0000
0001
,
0000
1000
0000
0000
0010
0000
0000
0200
,
0000
0300
0002
0000
,
2003
0000
3001
0010
,
0220
0330
2002
0000
,
3003
0000
0000
0000
;

//---------------dance-single - ----------------
#NOTEDATA:;
#CHARTNAME:;
#STEPSTYPE:dance-single;
#DESCRIPTION:;
#CHARTSTYLE:;
#DIFFICULTY:Beginner;
#METER:2;
#RADARVALUES:0.100509,0.115830,0.017160,0.000000,0.000000,82.000000,80.000000,2.000000,0.000000,0.000000,0.000000,0.000000,0.000000,0.000000,0.100509,0.115830,0.017160,0.000000,0.000000,82.000000,80.000000,2.000000,0.000000,0.000000,0.000000,0.000000,0.000000,0.000000;
#CREDIT:Ben Speirs;
#DISPLAYBPM:174.000000;
#NOTES:
0000
0000
0000
0000
,
0000
0000
0001
0000
,
0000
0000
0001
0000
,
0000
0000
1000
0000
,
0000
0000
1000
0000
,
0000
0000
0010
0000
,
0000
0000
0010
0000
,
0000
0000
0100
0000
,
0000
0000
0100
0000
,
0000
0000
0000
0001
,
0000
0000
0001
0000
,
0000
0000
0000
1000
,
0000
0000
1000
0000
,
0000
0000
0000
0100
,
0000
0000
0100
0000
,
0000
0000
0000
0000
,
0010
0000
0010
0000
,
0010
0000
0010
0000
,
0000
0000
0001
0000
,
0001
0000
0001
0000
,
0000
0000
0100
0000
,
0100
0000
0100
0000
,
0000
0000
0010
0000
,
0010
0000
0010
0000
,
0000
0000
1000
0000
,
0000
0000
0001
0000
,
0000
0000
1000
0000
,
1000
0000
1000
0000
,
0000
0000
0100
0000
,
0100
0000
0100
0000
,
0000
0000
0010
0000
,
0010
0000
0010
0000
,
0000
0000
0001
0000
,
0000
0000
1001
0000
,
0000
0000
0000
0000
,
0000
0000
1000
0000
,
0000
0000
0001
0000
,
0000
0000
0100
0000
,
0000
0000
0100
0000
,
0000
0000
0001
0000
,
0000
0000
1000
0000
,
0000
0000
0100
0000
,
0000
0000
0100
0000
,
0000
0000
0000
1000
,
0000
0000
1000
0000
,
0000
0000
0000
0001
,
0000
0000
0001
0000
,
0000
0000
0000
0100
,
0000
0000
0100
0000
,
0000
0000
0000
0000
,
0010
0000
0010
0000
,
0010
0000
0010
0000
,
0000
0000
1000
0000
,
1000
0000
1000
0000
,
0000
0000
0001
0000
,
0001
0000
0001
0000
,
0000
0000
0010
0000
,
0010
0000
0010
0000
,
0000
0000
0100
0000
,
0000
0000
1000
0000
,
0000
0000
0001
0000
,
0001
0000
0001
0000
,
0000
0000
0100
0000
,
0100
0000
0100
0000
,
0000
0000
0010
0000
,
0010
0000
0010
0000
,
0000
0000
0100
0000
,
0000
0000
1001
0000
;

//---------------dance-double - ----------------
#NOTEDATA:;
#CHARTNAME:;
#STEPSTYPE:dance-double;
#DESCRIPTION:;
#CHARTSTYLE:;
#DIFFICULTY:Hard;
#METER:13;
#RADARVALUES:0.516026,0.554268,0.205920,0.694981,0.025740,421.000000,397.000000,24.000000,81.000000,0.000000,0.000000,2.000000,0.000000,0.000000,0.516026,0.554268,0.205920,0.694981,0.025740,421.000000,397.000000,24.000000,81.000000,0.000000,0.000000,2.000000,0.000000,0.000000;
#CREDIT:Ben Speirs;
#DISPLAYBPM:174.000000;
#NOTES:
00000000
00000000
00000000
00000000
,
00000000
00000000
00010000
00010100
,
00000000
00000100
00000010
00000000
00000001
00000000
00000101
00000000
,
00000000
00001000
00000100
00000000
00010000
00000000
00011000
00000000
,
00000000
01000000
00010000
00000000
10000000
00000000
11000000
00000000
,
00000000
00010000
01000000
00100000
10000000
00000000
11000000
00000000
,
01000000
00100000
00001000
00000000
00010000
00030000
00011000
00000000
,
00010000
00001000
00000100
00000000
00000001
00000010
00000200
00000000
,
00001300
00000020
00000000
00000130
00001000
00010000
00100000
02000000
,
00000000
03010000
13000000
00000000
00100000
00000000
10000000
01000000
,
00010000
01000000
00200000
00000000
00310000
01000000
10000000
01000000
,
00200000
00000000
00310000
00001000
00000100
00000000
00000001
00000010
,
00001000
00000010
00000200
00000000
00001300
00000010
00000001
00000010
,
00000200
00000000
00001300
00010000
00100000
00000000
10000000
00100000
,
00010000
00100000
02000000
00000000
03010000
00100000
10000000
00100000
,
02000000
00000000
03010000
00001000
00000010
00000000
00000001
00000100
,
00001000
00000100
00000001
00000000
00000010
00000100
00010000
00000000
,
00020200
00000000
00030300
00000000
00010000
00001000
02000000
03100000
,
00010000
00002000
00103000
01000000
00200000
00310000
01000000
00002000
,
00000000
00013000
00100000
01000000
00001000
00010000
00000020
00000130
,
00001000
00020000
00030100
00000010
00000200
00001300
00000010
00020000
,
00000000
00031000
00000100
00000010
00010000
00000000
00002000
00013000
,
00100000
20300000
31000000
10000000
00200000
00310000
00001000
00020000
,
00000000
00000000
00030100
00000000
00000010
00000000
00000001
00000000
00001000
00000000
00000000
00000000
00001010
00000000
00000000
00000001
,
00000000
00000102
00000000
00001003
00000100
00010000
00001000
00000000
,
00102000
00000000
00023000
00000000
00031000
00001000
00200000
00301000
,
00001000
00000020
00001030
00010000
00000200
00010300
00031000
02000000
,
00000000
03100000
00010000
00001000
00013000
00010000
00000200
00010300
,
00010000
02000000
03010000
00001000
00200000
00301000
00013000
00000020
,
00000000
00000130
00001000
00010000
00001000
00001000
00200000
01300000
,
01000000
00200000
00301000
00001000
00020000
00030010
00000010
00000200
,
00000000
00000000
00000301
00000000
00000010
00000000
00000100
00000000
00010000
00000000
00000000
00000000
00010100
00000000
00000000
00010000
,
00000000
00012000
00000000
01033000
00010000
10000000
00200000
00000000
,
01300000
10000000
01000000
00004000
00040000
00000000
00000000
00000000
,
00000000
00000000
00000000
00000000
,
00000000
00000000
00000000
00033000
00010000
00000000
00000000
00000000
,
00000001
00000001
00010000
00000000
,
00001000
00001000
00010000
00000000
,
00001000
00001000
10000000
00000000
,
00001000
00001000
00010000
00010100
,
00000000
00000100
00010000
00000000
00001000
00000000
01001000
00000000
,
00000000
01000000
00001000
00000000
00010000
00000000
00010001
00000000
,
00000000
00000001
00010000
00000000
00001000
00000000
10001000
00000000
,
00000000
10000000
00001000
00000000
00010000
00001000
00000100
00001000
,
00010000
00000100
00020000
00000000
00030100
00010000
00001000
01000000
,
00200000
00000000
00320000
00000000
00031000
00010000
00100000
00010000
,
00001000
00100000
00002000
00000000
00103000
00001000
00010000
00000010
,
00000200
00000000
00002300
00000000
00013000
00000100
00010000
00000100
,
00000010
00000001
00000010
00000001
00001000
00000010
00001000
00000010
,
00010000
00001000
00010000
00001000
00100000
00010000
01000000
00100000
,
10000000
01000000
00100000
00010000
01000000
00001000
00010000
00000000
,
00022000
00000000
00033000
00000000
00010000
00000100
00002000
00000010
,
00003001
00000200
00000010
00000301
00002000
00000100
00003001
00003020
,
00000000
00000130
00020000
00000000
00031000
00100000
00020000
01000000
,
10030000
00200000
01000000
10300000
00020000
00100000
10030000
02030000
,
00000000
03100000
00002000
00000000
00013000
00000010
00002000
00000100
,
00003010
00020000
00000100
00031000
00200000
01000000
00310000
20000000
,
00000000
00000000
30100000
00000000
01000000
00000000
00010000
00000000
10000000
00000000
00000000
00000000
10100000
00000000
00000000
01100000
,
00000000
10020000
00000000
00133000
00001000
00010000
00000200
00000000
,
00010300
00001000
00020000
00000000
00000000
00000000
00031000
00000000
00000100
00000000
00000001
00000000
00000020
00000000
00001030
00000000
,
00010000
02000000
13000000
00100000
00020000
00031000
00000100
00000020
,
00000000
00010030
00001000
00010000
00100000
10000000
02000000
03010000
,
00001000
00000020
00000031
00000100
00002000
00013000
00100000
02000000
,
00000000
03001000
00020000
00000000
00031000
00100000
00300020
00010030
,
00031000
02000000
03000100
00010000
00002000
10003000
00001000
00020000
,
00030001
00000000
00010000
00000000
00000010
00000000
00000100
00000000
00000001
00000000
00000000
00000000
00000101
00000000
00000000
00000110
,
00000000
00002001
00000000
00033100
00010000
00001000
01000000
00100000
,
10000000
00010000
10000000
00000000
00100000
00000000
00013000
00000000
00022000
00000000
00000000
00000000
00000000
00000000
00000000
00000000
,
30033000
00000000
00000000
00000000
;

//---------------dance-double - ----------------
#NOTEDATA:;
#CHARTNAME:;
#STEPSTYPE:dance-double;
#DESCRIPTION:;
#CHARTSTYLE:;
#DIFFICULTY:Medium;
#METER:9;
#RADARVALUES:0.367715,0.379236,0.265980,0.557701,0.000000,300.000000,269.000000,31.000000,65.000000,0.000000,0.000000,0.000000,0.000000,0.000000,0.367715,0.379236,0.265980,0.557701,0.000000,300.000000,269.000000,31.000000,65.000000,0.000000,0.000000,0.000000,0.000000,0.000000;
#CREDIT:Ben Speirs;
#DISPLAYBPM:174.000000;
#NOTES:
00000000
00000000
00000000
00000000
,
00000000
00000000
00010000
00001000
,
00000000
00100000
00010000
01000000
,
00000000
00010000
10000000
00100000
,
00000000
10000000
00010000
00100000
,
00000000
00000000
00001000
00000000
00010000
00000010
00001000
00000000
,
00000000
00000000
00001010
00000000
00000001
00000010
00000100
00000000
,
00000000
00000000
00001100
00000000
00010000
00001000
02000000
00000000
,
00000000
03200000
00000000
00000000
10300000
01000000
00100000
00020000
,
00000000
00000000
10030000
00000000
00010000
00000000
10000000
00100000
,
10000000
00200000
00000000
00000000
01300000
00001000
01000000
00002000
,
00000000
00000000
00013000
00000000
00000100
00000000
00001000
00000010
,
00001000
00000020
00000000
00000000
00000130
00000001
00000100
00000002
,
00000000
00000000
00001003
00000000
00000001
00000000
00001000
00000100
,
00001000
00000200
00000000
00000000
00010300
00001000
00010000
00002000
,
00000000
00103000
00010000
10000000
,
00010000
01000000
00100000
00000000
10000000
01000000
00100000
00000000
,
20020000
30030000
10000000
00100000
,
01000000
00001000
00000000
00001000
00010000
00000000
00010000
00000200
,
00000000
00000310
00000001
00000100
,
00000010
00010000
00000000
00010000
00001000
00000000
00001000
00200000
,
00000000
00000000
01300000
10000000
00010000
00000000
20000000
00000000
,
30100000
01000000
00000000
01000000
00010000
00000000
00010000
00200000
,
00000000
00301000
00010000
00000000
00000200
00000000
00001300
00000000
,
00000001
00000100
00000010
00000000
00001000
00000100
00000010
00000000
,
00002002
00003003
00001000
00000002
,
00001003
00000200
00000000
00010300
00002000
00000000
00103000
00020000
,
00000000
01030000
00010000
20000000
,
30010000
00200000
00000000
00301000
00020000
00000000
00030100
00002000
,
00000000
00000000
00003001
00000100
00000010
00000000
00002000
00000000
,
00003001
00000020
00000000
00000130
00020000
00000000
00031000
02000000
,
00000000
00000000
03100000
10000000
00020000
00000000
00100000
00000000
,
10030000
01000000
00100000
00000000
00010000
01000000
00100000
00000000
,
02200000
03300000
00022000
00000000
,
00000000
00000000
30000000
00000000
,
00000000
00000000
00000000
00033000
00010000
00000000
00000000
00000000
,
00001000
00001000
00100000
00000000
,
00001000
00001000
00010000
00000000
,
00010000
00010000
00000100
00000000
,
00000100
00000100
00001000
00001010
,
00000000
00001010
00010000
00011000
,
00000000
00011000
00001000
00101000
,
00000000
00101000
00100000
01100000
,
00000000
00000000
01100000
00000000
00000000
00000000
10000000
01000000
,
10000000
01000000
10000000
00000000
00010000
01000000
00010000
01000000
,
00010000
00000000
00000000
00000000
00000000
00000000
00100000
00001000
,
00100000
00001000
00100000
00000000
00000100
00010000
00000100
00010000
,
00000100
00000000
00000000
00000000
00001000
00000010
00001000
00000000
,
00000001
00000010
00000001
00000000
00001000
00000100
00001000
00000000
,
00000001
00000100
00000001
00000000
00000200
00000000
00000320
00000000
,
00001030
00000100
00020000
00000000
00031000
00100000
00010000
00000000
,
20020000
00000000
30030000
00000000
10000000
00100000
02000000
00000000
,
00000000
23000000
00000000
00000000
32000000
00000000
00000000
03020000
,
00000000
00130000
00001000
00000000
00010000
00000000
00000200
00000000
,
00000000
00000302
00000000
00000003
00000200
00000000
00000000
00002300
,
00000000
00003010
00000100
00000000
00000001
00000100
00000020
00000000
,
00000000
00000032
00000000
00000000
00000023
00000000
00000000
00002030
,
00000000
00003100
00010000
00000000
00022000
00000000
00033000
00000000
,
00100000
00001000
00010000
00000000
00000010
00001000
00000001
00000000
,
00002002
00003003
00000001
00000101
,
00000000
00000110
00000000
00000000
00001010
00000000
00000000
00020100
,
00000000
00031000
00100000
00110000
,
00000000
10010000
00000000
00000000
01010000
00000000
00000000
01002000
,
00000000
00013000
00000100
00001100
,
00000000
00000011
00000000
00000000
00000101
00000000
00000000
00002010
,
00000000
00003001
00002002
00003003
,
00000001
00001000
00000100
00000000
00010000
00001000
02000000
00000000
,
03200000
01300000
20020000
00000000
,
30030000
00000000
00000000
00000000
;

//---------------dance-double - ----------------
#NOTEDATA:;
#CHARTNAME:;
#STEPSTYPE:dance-double;
#DESCRIPTION:;
#CHARTSTYLE:;
#DIFFICULTY:Easy;
#METER:5;
#RADARVALUES:0.214500,0.291720,0.042900,0.163020,0.000000,175.000000,170.000000,5.000000,19.000000,0.000000,0.000000,0.000000,0.000000,0.000000,0.214500,0.291720,0.042900,0.163020,0.000000,175.000000,170.000000,5.000000,19.000000,0.000000,0.000000,0.000000,0.000000,0.000000;
#CREDIT:Ben Speirs;
#DISPLAYBPM:174.000000;
#NOTES:
00000000
00000000
00000000
00000000
,
00000000
00000000
00010000
00000000
,
00000000
00000000
00001000
00000000
,
00000000
00000000
00100000
00000000
,
00000000
00000000
01000000
00000000
,
00000000
00000000
10000000
00100000
,
00000000
00100000
01000000
00001000
,
00000000
00001000
00010000
00000100
,
00000000
00000100
00000000
00000000
00000220
00000000
00000000
00000000
,
00000000
00000330
00000000
00000001
,
00000100
00000001
00001000
00000100
,
00001000
00000000
00000000
00000100
,
00010000
00000100
00010000
00001000
,
00010000
00000000
00000000
00001000
,
01000000
00010000
10000000
01000000
,
10000000
00000000
00010000
10000000
,
00100000
01000000
00010000
00100000
,
00022000
00033000
00000000
00001000
,
00000000
00010000
00000000
00000000
00000100
00000000
00000000
00010000
,
00000000
00000000
00000000
00001000
,
00000000
01000000
00000000
00000000
00001000
00000000
00000000
00010000
,
00000000
00000000
00000000
00001000
,
00000000
00100000
00000000
00000000
00001000
00000000
00000000
00010000
,
00000000
00000000
00001000
00001000
,
00010000
00010000
00000100
00000010
,
00000001
00001000
00000000
00000001
,
00000000
00000100
00000000
00000000
00000010
00000000
00000000
00000010
,
00000000
00000000
00000000
00001000
,
00000000
00000100
00000000
00000000
00010000
00000000
00000000
00010000
,
00000000
00000000
00000000
00001000
,
00000000
00100000
00000000
00000000
00010000
00000000
00000000
00010000
,
00000000
00000000
10000000
10000000
,
00010000
00010000
01000000
00100000
,
01000000
00000000
20020000
00000000
,
00000000
00000000
00000000
00000000
,
00000000
00000000
00000000
30030000
10000000
00000000
00000000
00000000
,
00000000
00000000
00010000
00000000
,
00000000
00000000
00001000
00000000
,
00000000
00000000
00000001
00000000
,
00000000
00000000
00000001
00000000
,
00000000
00000000
00001000
00000000
,
00000000
00000000
00010000
00000000
,
00000000
00000000
10000000
00000000
,
00000000
00000000
00010000
00100000
,
00001000
00010000
00000100
00001000
,
00000020
00000030
00001000
00000010
,
00001000
00000100
00010000
00001000
,
00200000
00300000
00010000
00010000
,
10000000
10000000
00100000
00100000
,
01000000
01000000
00001000
00010000
,
00001000
00010000
00000100
00000010
,
00002002
00003003
00000001
00000100
,
00000010
00001000
00000100
00010000
,
00001000
00000000
00100000
00010000
,
10000000
00100000
01000000
00010000
,
00100000
00000000
00001000
00010000
,
00000010
00000100
00000010
00001000
,
00000001
00000000
00002000
00000000
,
00003200
00000000
00010300
00001000
,
02000000
03000000
00010000
10000000
,
01000000
00100000
00001000
00010000
,
00000020
00000030
00000100
00000001
,
00000010
00000100
00010000
00001000
,
02000000
03000000
00010000
10000000
,
01000000
00100000
00001000
00010000
,
00000020
00000030
00000200
00000000
,
00000310
00001000
00000100
00010000
,
00001000
00000000
00022000
00000000
,
00033000
00000000
00000000
00000000
;
