#VERSION:0.83;
#TITLE:お願い!コンコンお稲荷さま;
#SUBTITLE:;
#ARTIST:ARM x 作編曲 feat. ななひら;
#TITLETRANSLIT:Onegai!Kon kon Oinarisama;
#SUBTITLETRANSLIT:;
#ARTISTTRANSLIT:ARM x Komso feat. Nanahira;
#GENRE:Denpa;
#ORIGIN:;
#CREDIT:;
#BANNER:Onegai!Kon kon Oinarisama.png;
#BACKGROUND:Onegai!Kon kon Oinarisama-bg.png;
#PREVIEWVID:;
#JACKET:Onegai!Kon kon Oinarisama-jacket.png;
#CDIMAGE:;
#DISCIMAGE:;
#LYRICSPATH:;
#CDTITLE:cdtitle.png;
#MUSIC:Onegai!Kon kon Oinarisama.ogg;
#OFFSET:-1.078685;
#SAMPLESTART:55.250114;
#SAMPLELENGTH:10.971416;
#SELECTABLE:YES;
#BPMS:0.000=175.000;
#STOPS:152.000=1.371;
#DELAYS:;
#WARPS:;
#TIMESIGNATURES:0.000=4=4;
#TICKCOUNTS:0.000=4;
#COMBOS:0.000=1;
#SPEEDS:0.000=1.000=0.000=0;
#SCROLLS:0.000=1.000;
#FAKES:;
#LABELS:0.000=Song Start;
#BGCHANGES:-1.500=Onegai!Kon kon Oinarisama.mp4=1.000=1=0=1===CrossFade==,
267.000=Onegai!Kon kon Oinarisama-bg.png=1.000=1=0=1===CrossFade==,
99999=-nosongbg-=1.000=0=0=0 // don't automatically add -songbackground-
;
#KEYSOUNDS:;
#ATTACKS:
;

//---------------dance-single - ----------------
#NOTEDATA:;
#CHARTNAME:;
#STEPSTYPE:dance-single;
#DESCRIPTION:;
#CHARTSTYLE:;
#DIFFICULTY:Challenge;
#METER:15;
#RADARVALUES:0.807110,0.833043,0.298404,0.487392,0.532153,568.000000,538.000000,30.000000,49.000000,0.000000,0.000000,2.000000,0.000000,0.000000,0.807110,0.833043,0.298404,0.487392,0.532153,568.000000,538.000000,30.000000,49.000000,0.000000,0.000000,2.000000,0.000000,0.000000;
#CREDIT:;
#NOTES:
0000
0000
0000
0000
,
0000
0000
0000
0000
,
1000
0000
0200
0000
0000
0000
0310
0000
0010
0000
0001
1000
0001
0000
0100
0000
,
0010
0000
0100
0000
1000
0000
0100
0000
0010
0100
0010
0100
0001
0000
1000
0000
,
0001
0000
0020
0000
0000
0000
0130
0000
0010
0001
0010
0001
1000
0010
1000
0010
,
0200
0000
0301
0000
0200
0000
0301
0000
2000
3100
0000
0010
0002
0003
1000
0000
,
0001
0000
0200
0000
0000
0000
0310
0000
0010
0000
1000
0001
1000
0000
0100
0000
,
0010
0000
0100
0000
0001
0000
0100
0000
0010
0100
0010
0100
1000
0000
0001
0000
,
0000
0000
1000
0010
1000
0000
0010
0000
0200
0000
0000
0301
0010
0000
0100
0000
,
0000
0000
1000
0001
1000
0000
0010
0000
0200
0000
0000
0000
0010
0000
0000
0000
,
0301
0000
1000
0100
1000
0000
0001
0100
0001
0000
0000
0000
1001
0000
0000
0000
,
1000
0000
0001
0100
0001
0000
1000
0100
1000
0000
0001
0000
1001
0000
0000
0000
,
1000
0000
0010
1000
0010
0000
0100
0000
0001
0000
0010
0001
0010
0000
0100
0000
,
1000
0000
0001
0100
0010
0000
1000
0100
0020
0000
0000
0000
0031
0000
0100
0000
,
0010
0000
1000
0010
1000
0000
0100
1000
0100
0000
0000
0000
0011
0000
0000
0000
,
0010
0000
0001
0010
0001
0000
0100
0001
0100
0000
0010
0000
1010
0000
0001
0000
,
0002
0000
0003
1000
2000
0000
3000
0001
,
0002
0000
0023
0000
2030
0000
3020
0000
0032
0000
1003
0010
1000
0010
0100
0001
,
1000
0000
0100
1000
0100
0000
1000
0100
0010
0000
0001
0000
0011
0000
1000
0000
,
0001
0000
0100
0001
0100
0000
0001
0100
0010
0000
1000
0000
1010
0000
0001
0000
,
0010
0000
0100
0010
0100
0000
1000
0000
0010
0000
0100
0010
0100
0000
0001
0000
,
0010
0000
0100
0010
0001
0000
0100
0010
2000
0000
0000
0000
3100
0000
0010
0000
,
0001
0000
1000
0010
0100
0000
0010
0100
0010
0000
1000
0000
1010
0000
0001
0000
,
1000
0000
0001
0010
0100
0000
0010
0100
0010
0000
0001
0000
0011
0000
1000
0000
,
2000
0000
0000
3010
1000
0000
0001
0000
0001
0000
0010
0000
0100
0000
1000
0000
,
0001
0000
1000
0010
0100
0000
0001
0000
0002
0000
0000
0000
1003
0000
0100
0000
,
0010
0100
0001
0000
0001
0100
1000
0010
,
0002
0000
0000
0013
1000
0001
0100
0010
,
1000
0000
0000
1000
0100
0000
1000
0000
0001
0000
0000
0001
0100
0000
0001
0000
,
0010
0000
0100
0010
0100
0000
1000
0000
1000
0000
0000
0000
0001
0000
0100
0000
,
0010
0100
1000
0000
1000
0100
0001
0010
,
2000
0000
0000
0000
3010
0100
0010
0001
,
2001
0000
3010
0000
,
2000
0000
3100
0010
0002
0000
1003
0000
,
1001
0000
0000
0000
1000
0010
1000
0010
0100
0000
0000
0000
1010
0000
0000
0000
,
1001
0000
0000
0000
0001
0010
0001
0010
0100
0000
0000
0000
0011
0000
0000
0000
,
1000
0010
0100
0000
0010
0100
0001
0000
1000
0100
0010
0000
0100
0010
0001
0000
,
4000
0004
0000
0000
0000
0000
0000
0000
0000
0000
0000
0000
0000
0000
0000
0000
,
3003
0000
0000
0000
0002
0003
2000
3000
,
1010
0001
0001
0010
0011
1000
1000
0010
,
0001
0000
0010
0100
0010
0000
1000
0000
1010
0000
0000
0001
0010
0000
0100
0000
,
0010
0000
0100
1000
0010
0000
1000
0000
0010
0000
0100
0001
0010
0000
0100
0000
,
1000
0000
0001
0100
0010
1000
0001
0000
1000
0100
1000
0100
0010
0000
0100
0000
,
0001
0000
0100
0010
0200
0000
0010
0000
1300
0000
0010
1000
0010
0000
0100
0000
,
1000
0000
0100
0010
0200
0000
0010
0000
0302
0000
0000
1003
0100
0000
0010
0000
,
0110
0000
0000
0001
0010
0000
0001
0000
1001
0000
0000
1000
0010
0000
1000
0000
,
0000
0000
0011
0000
1000
0000
1010
0000
0001
0010
0000
0100
1000
0000
0001
0000
,
0011
1000
1000
0010
1010
0001
0001
0010
,
1000
0000
0010
0100
0010
0000
0001
0000
0011
0000
0000
1000
0010
0000
0100
0000
,
0010
0000
0000
0000
0000
0000
0100
0000
0000
0001
0000
0000
0010
0000
0000
0000
0000
0000
0001
0000
0000
0000
0000
0000
0010
0000
0000
0000
0100
0000
0000
0000
1000
0000
0000
0000
0010
0000
0000
0000
0000
0000
0100
0000
0000
0000
0000
0000
,
0001
0000
1000
0100
0010
0001
1000
0000
0001
0100
0001
0100
0010
0000
1000
0000
,
0001
0010
0100
0010
1020
0000
0031
0001
,
1000
0010
0100
0010
0001
0010
0100
0010
,
1010
0002
0023
0230
,
1300
0000
0010
0000
0100
0000
0001
0000
1000
0100
0000
0010
0001
0000
0100
0010
,
1000
0000
0001
0010
0002
0000
0010
0000
1003
0000
1000
0010
2000
0000
0010
0000
,
3001
0000
0001
0010
0002
0000
0010
0000
1003
0000
1000
0010
2000
0000
0010
0000
,
0002
0000
3003
0000
1001
1001
1001
0000
,
0001
0010
0100
1000
0001
0010
0100
1000
0000
0000
0101
0000
1010
0000
0000
0000
,
0001
0000
0020
0000
0000
0000
0130
0000
0100
0000
1000
0001
1000
0000
0010
0000
,
0100
0000
0010
0000
0001
0000
0010
0000
0100
0010
1000
0010
0100
0000
0001
0000
,
1000
0000
0200
0000
0000
0000
0310
0000
0100
1000
0100
1000
0001
0100
0001
0100
,
0020
0000
1030
0000
0020
0000
1030
0000
0002
0013
0000
0100
2000
3000
0001
0000
,
1000
0000
0020
0000
0000
0000
0130
0000
0100
0000
0001
1000
0001
0000
0010
0000
,
0100
0000
0010
0000
1000
0000
0010
0000
0100
0010
0001
0010
0100
0000
1000
0000
,
0000
0000
0001
0100
0010
0000
0100
0000
2000
0000
0000
3100
0010
0000
0100
0000
,
0000
0000
0001
1000
0100
0000
0010
0000
0200
0000
0000
0000
0002
0000
0000
0000
,
0303
0000
0000
0000
;

//---------------dance-single - ----------------
#NOTEDATA:;
#CHARTNAME:;
#STEPSTYPE:dance-single;
#DESCRIPTION:;
#CHARTSTYLE:;
#DIFFICULTY:Hard;
#METER:11;
#RADARVALUES:0.559862,0.564356,0.298404,0.606754,0.000000,394.000000,364.000000,30.000000,61.000000,0.000000,0.000000,0.000000,0.000000,0.000000,0.559862,0.564356,0.298404,0.606754,0.000000,394.000000,364.000000,30.000000,61.000000,0.000000,0.000000,0.000000,0.000000,0.000000;
#CREDIT:;
#NOTES:
0000
0000
0000
0000
,
0000
0000
0000
0000
,
1000
0200
0000
0010
0310
0000
0110
0000
,
0010
0001
1000
0001
0100
0010
0100
0000
,
0010
2000
0000
3010
1000
0001
0010
0100
,
1000
1000
1001
1001
,
0001
0200
0000
0010
0310
0000
0110
0000
,
0010
1000
0001
1000
0100
0010
0100
0010
,
0000
0100
0200
0000
0320
0000
0031
0001
,
0000
0100
0010
0100
0020
0000
1030
0000
,
0001
0010
0002
0000
0010
0000
1003
0000
,
1000
0010
2000
0000
0010
0001
3001
0000
,
1000
0100
0010
0000
0010
0001
1000
0000
,
1000
0010
0100
0001
0020
0000
0130
0000
,
1000
0010
2000
0000
0100
0000
3001
0000
,
0001
0010
0002
0000
0100
1000
1003
0000
,
2002
3003
2002
3003
,
0001
0010
1000
0010
0002
0000
0003
0000
,
1000
0001
0100
0002
0100
0000
1003
0000
,
0001
1000
0100
2000
0100
0001
3001
0000
,
0001
0100
0010
0000
0010
1000
0001
0000
,
0001
0010
0100
1000
0020
0000
0130
0000
,
0001
1000
0100
0020
0100
0000
0031
0000
,
1000
0001
0100
0020
0100
1000
1030
0000
,
2002
0000
0000
3003
,
0001
0010
0100
1000
0001
0000
1000
0010
,
1000
0010
0100
0000
0100
0010
1000
0001
,
0020
0000
0000
0000
0130
0010
0100
0000
,
2000
0010
3002
0010
,
1003
0010
0100
0001
0100
0000
0001
0010
,
0001
0010
0100
0000
0100
0010
0001
1000
,
0020
0000
0000
0000
0130
0010
0100
0000
,
1002
0000
0013
0000
,
0002
0000
0103
0010
2000
0000
3001
0000
,
1002
0000
1000
1000
0013
0000
0011
0000
,
2001
0000
0001
0001
3010
0000
1010
0000
,
0001
0010
0001
0000
1000
0010
1000
0000
,
0100
0010
0001
1000
0010
0100
0001
1000
,
0200
0300
0000
0000
0000
0000
0000
0000
0000
0000
0000
0000
0000
0000
0000
0000
0100
0000
0000
0000
0000
0000
0000
0000
0010
0000
0000
0000
0000
0000
0000
0000
,
0012
0000
1003
0010
2010
0000
3001
0010
,
0001
0010
1000
0010
0001
0000
1000
0001
,
0100
0000
0001
1000
0100
0000
0010
0001
,
0011
0000
1100
0000
1000
0001
1000
0010
,
0200
0000
1000
1000
0010
0000
0301
0010
,
0200
0000
0001
0001
0320
0000
0230
0000
,
2300
0000
3001
1000
0020
0000
0100
0130
,
0000
0010
0100
0010
2002
0000
3003
1000
,
2010
0000
3001
0010
0012
0000
1003
0010
,
1000
0010
0001
0010
1000
0000
0001
1000
,
0100
0000
1000
0001
0200
0320
0130
0010
,
1010
0000
0101
0000
0011
0000
1000
0100
,
1000
0100
1000
0100
0001
0000
0100
1000
,
0001
0100
0001
0100
1000
0100
0010
0100
,
0001
2000
3020
0032
,
0023
2030
3200
0302
,
0103
0010
0100
0000
1000
0001
1000
0000
,
0010
0100
0010
0000
1000
0010
0100
0001
,
2002
0000
3003
0000
0001
0001
0010
0000
,
0001
0100
0010
1000
0000
1001
1001
0000
,
0001
0200
0000
1000
1300
0000
0110
0000
,
1000
0010
0100
0010
1000
0001
0010
0000
,
0100
0020
0000
0130
1000
0001
0100
0010
,
1000
1000
1001
1001
,
1000
0200
0000
0001
0301
0000
0110
0000
,
0001
0010
0100
0010
0001
1000
0010
0100
,
0000
0001
0002
0000
0023
0000
0130
0100
,
0000
1000
0010
0100
0001
0000
1001
0000
;

//---------------dance-single - ----------------
#NOTEDATA:;
#CHARTNAME:;
#STEPSTYPE:dance-single;
#DESCRIPTION:;
#CHARTSTYLE:;
#DIFFICULTY:Medium;
#METER:8;
#RADARVALUES:0.400713,0.431566,0.258616,0.358084,0.000000,282.000000,256.000000,26.000000,36.000000,0.000000,0.000000,0.000000,0.000000,0.000000,0.400713,0.431566,0.258616,0.358084,0.000000,282.000000,256.000000,26.000000,36.000000,0.000000,0.000000,0.000000,0.000000,0.000000;
#CREDIT:;
#NOTES:
0000
0000
0000
0000
,
0000
0000
0000
0000
,
1000
0100
0000
1000
0100
0000
0010
0000
,
0001
0100
0010
1000
,
0001
0010
0000
0100
1000
0000
0001
0000
,
1000
1000
1001
1001
,
0001
0100
0000
0001
0100
0000
0010
0000
,
1000
0100
0010
0001
,
0000
1000
0010
0000
1000
0000
1000
0000
,
0000
0001
0010
0000
0001
0000
1000
0000
,
0001
0001
0100
0101
,
1000
1000
0100
1100
,
0001
0001
1000
1000
,
0010
0100
0010
0100
,
0001
0001
0010
0011
,
1000
1000
0010
1010
,
0002
0003
2000
3000
,
0002
2003
3002
0003
,
0001
0010
0001
0000
0010
0000
0011
0000
,
1000
0010
1000
0000
0010
0000
1010
0000
,
0001
0010
0100
1000
,
0001
0100
0010
1000
,
0001
0100
0001
0000
0100
0000
0101
0000
,
1000
0100
1000
0000
0100
0000
1100
0000
,
0002
0000
0000
0003
,
0001
0100
0010
0000
,
1000
0100
0010
0100
,
0002
0000
0103
1000
,
0002
0000
2003
0000
,
3001
1000
0001
0000
1000
0000
0000
0000
,
0001
0100
0010
0100
,
2000
0000
3100
0010
,
0200
0000
0301
0000
,
1000
0100
0010
0001
,
2002
0003
3010
0010
,
2002
3000
0013
0010
,
0100
1000
0001
0100
,
0010
0100
0010
0000
0100
0010
0100
0000
,
0020
0030
0000
0000
0000
0000
0000
0000
0000
0000
0000
0000
0000
0000
0000
0000
0100
0000
0000
0000
0000
0000
0000
0000
0010
0000
0000
0000
0000
0000
0000
0000
,
2000
0010
3002
0010
,
1003
0010
0100
0000
0110
0000
0001
1000
,
0001
0010
0100
0010
,
2000
0000
3010
0001
,
0200
0001
0310
1000
,
0200
1000
0310
0001
,
0100
0000
0010
0100
0010
0000
0100
0000
,
0000
1001
2002
3003
,
0002
0010
2003
0010
,
3001
0010
0100
0000
0110
0000
1000
0001
,
1000
0010
0100
0010
,
0002
0000
0013
1000
,
0001
1000
0001
0000
0020
0000
0130
0000
,
1000
0001
1000
0000
0020
0000
0130
0000
,
0001
2000
3200
0320
,
0032
0203
0320
2030
,
3001
0011
0001
0011
,
1000
1010
1000
1010
,
0002
0003
1001
1001
,
0010
0000
0000
1001
,
0001
0100
0000
0010
0100
0000
0001
0000
,
1000
0100
0001
0100
,
1000
0010
0000
0100
0001
0000
1000
0000
,
0001
0001
1001
1001
,
1000
0100
0000
0010
0100
0000
1000
0000
,
0001
0100
1000
0100
,
0000
0001
0010
0000
0100
0000
0100
0000
,
0000
1000
0010
0000
0100
0000
1001
0000
;

//---------------dance-single - ----------------
#NOTEDATA:;
#CHARTNAME:;
#STEPSTYPE:dance-single;
#DESCRIPTION:;
#CHARTSTYLE:;
#DIFFICULTY:Easy;
#METER:5;
#RADARVALUES:0.242986,0.265579,0.109415,0.278510,0.000000,171.000000,160.000000,11.000000,28.000000,0.000000,0.000000,0.000000,0.000000,0.000000,0.242986,0.265579,0.109415,0.278510,0.000000,171.000000,160.000000,11.000000,28.000000,0.000000,0.000000,0.000000,0.000000,0.000000;
#CREDIT:;
#NOTES:
0000
0000
0000
0000
,
0000
0000
0000
0000
,
2000
0000
3100
0000
,
0010
0100
0010
0000
,
0002
0000
1003
0000
,
1001
0000
1001
0000
,
0002
0000
0103
0000
,
0010
0100
0010
0000
,
0000
1000
1000
1000
,
0000
0001
0002
0003
,
1000
0100
1000
0000
,
1000
0100
1000
0000
,
0010
0000
0010
0000
,
0100
0010
0100
0000
,
0001
0100
0001
0000
,
0001
0100
0001
0000
,
0010
0000
0010
0000
,
0010
0010
0010
0000
,
0001
1000
0010
0000
,
1000
0001
0010
0000
,
0100
0000
0100
0000
,
0100
0100
0100
0000
,
1000
0001
0100
0000
,
0001
1000
0100
0000
,
0020
0000
0000
0030
,
0001
1000
0001
0000
,
1000
0000
0010
0000
,
0200
0000
0300
0000
,
0001
0000
0001
0000
,
1000
1000
1000
0000
,
0001
0000
0010
0000
,
0200
0000
1300
1000
,
2000
0000
3000
0000
,
0001
0000
1000
0000
,
2001
0000
3010
0000
,
1002
0000
0013
0000
,
0100
0000
0100
0000
,
1000
0001
1000
0001
,
2000
3000
0000
0000
0000
0000
0000
0000
0000
0000
0000
0000
0000
0000
0000
0000
0000
0000
0000
0000
0000
0000
0000
0000
0000
0000
0000
0000
0000
0000
0000
0000
,
2020
3030
2020
3030
,
0010
1000
1000
0000
,
0010
1000
0100
0010
,
0002
0000
0003
0000
,
0001
0100
0001
0000
,
1000
0100
1000
0000
,
0020
0030
0200
0300
,
0000
0001
0001
0000
,
0022
0033
0022
0033
,
0010
0001
0001
0000
,
0010
0001
0100
0010
,
2000
0000
3000
0000
,
1000
0001
0010
0000
,
0001
1000
0010
0000
,
0100
0000
0100
0000
,
0010
0100
0001
1000
,
0100
0000
0100
0000
,
0100
0000
0100
0000
,
2000
0000
0001
3001
,
0002
0000
0003
1000
,
2000
0000
3010
0000
,
0100
0010
1000
0000
,
0002
0000
0013
0000
,
1001
0000
1001
0000
,
0002
0000
0013
0000
,
0100
0010
0001
0000
,
0000
1000
1000
1000
,
0000
0001
0001
0110
;

//---------------dance-single - ----------------
#NOTEDATA:;
#CHARTNAME:;
#STEPSTYPE:dance-single;
#DESCRIPTION:;
#CHARTSTYLE:;
#DIFFICULTY:Beginner;
#METER:2;
#RADARVALUES:0.156307,0.303253,0.119361,0.089521,0.000000,110.000000,98.000000,12.000000,9.000000,0.000000,0.000000,0.000000,0.000000,0.000000,0.156307,0.303253,0.119361,0.089521,0.000000,110.000000,98.000000,12.000000,9.000000,0.000000,0.000000,0.000000,0.000000,0.000000;
#CREDIT:;
#OFFSET:-1.078685;
#BPMS:0.000000=175.000000
;
#STOPS:;
#DELAYS:;
#WARPS:;
#TIMESIGNATURES:0.000000=4=4
;
#TICKCOUNTS:0.000000=4
;
#COMBOS:0.000000=1
;
#SPEEDS:0.000000=1.000000=0.000000=0
;
#SCROLLS:0.000000=1.000000
;
#FAKES:;
#LABELS:0.000000=Song Start
;
#NOTES:
// measure 0
0000
0000
0000
0000
,  // measure 1
0000
0000
0000
0000
,  // measure 2
1000
0000
1000
0000
,  // measure 3
0010
0000
0000
0000
,  // measure 4
1000
0000
0001
0000
,  // measure 5
1000
0000
0000
0000
,  // measure 6
0001
0000
0001
0000
,  // measure 7
0010
0000
0000
0000
,  // measure 8
0100
0000
0000
0000
,  // measure 9
0000
0000
0000
0000
,  // measure 10
1000
0000
1000
0000
,  // measure 11
0001
0000
0001
0000
,  // measure 12
1000
0000
0100
0000
,  // measure 13
0010
0000
0000
0000
,  // measure 14
0001
0000
0001
0000
,  // measure 15
1000
0000
1000
0000
,  // measure 16
0010
0000
0010
0000
,  // measure 17
0200
0000
0300
0000
,  // measure 18
0001
0000
0001
0000
,  // measure 19
1000
0000
1000
0000
,  // measure 20
0001
0000
0100
0000
,  // measure 21
0010
0000
0000
0000
,  // measure 22
1000
0000
1000
0000
,  // measure 23
0001
0000
0001
0000
,  // measure 24
0020
0000
0030
0000
,  // measure 25
0010
0000
0000
0000
,  // measure 26
0100
0000
1000
0000
,  // measure 27
0020
0000
0030
0000
,  // measure 28
0100
0000
0000
0000
,  // measure 29
0100
0000
0000
0000
,  // measure 30
0100
0000
0001
0000
,  // measure 31
0020
0000
0030
0000
,  // measure 32
0200
0000
0300
0000
,  // measure 33
2000
0000
3000
0000
,  // measure 34
1001
0000
0000
0000
,  // measure 35
1001
0000
0000
0000
,  // measure 36
0001
0000
1000
0000
,  // measure 37
0001
0000
1000
0000
,  // measure 38
0001
0000
0000
0000
,  // measure 39
0000
0000
0000
0000
,  // measure 40
1001
0000
1001
0000
,  // measure 41
1001
0000
1001
0000
,  // measure 42
0001
0000
0010
0000
,  // measure 43
0200
0000
0300
1000
,  // measure 44
1000
0000
0000
0001
,  // measure 45
0001
0000
0100
0000
,  // measure 46
0010
0000
0100
0000
,  // measure 47
0000
0010
0010
0000
,  // measure 48
1001
0000
1001
0000
,  // measure 49
1001
0000
1001
0000
,  // measure 50
1000
0000
0010
0000
,  // measure 51
0200
0000
0300
0000
,  // measure 52
0001
0000
0001
0000
,  // measure 53
1000
0000
1000
0000
,  // measure 54
0100
0000
0100
0000
,  // measure 55
0010
0000
0100
0000
,  // measure 56
2000
0000
0000
0000
,  // measure 57
3000
0000
0000
0000
,  // measure 58
1001
0000
0000
0000
,  // measure 59
0000
0000
0000
0000
,  // measure 60
0001
0000
0001
0000
,  // measure 61
0010
0000
0000
0000
,  // measure 62
0001
0000
1000
0000
,  // measure 63
0001
0000
0000
0000
,  // measure 64
1000
0000
1000
0000
,  // measure 65
0010
0000
0000
0000
,  // measure 66
0100
0000
0000
0000
,  // measure 67
0000
0000
0000
1001
;
