#VERSION:0.83;
#TITLE:One Step At A Time;
#SUBTITLE:;
#ARTIST:Jordin Sparks;
#TITLETRANSLIT:;
#SUBTITLETRANSLIT:;
#ARTISTTRANSLIT:;
#GENRE:;
#CREDIT:;
#MUSIC:One Step At A Time.ogg;
#BANNER:One Step At A Time-bn.png;
#BACKGROUND:One Step At A Time-bg.png;
#JACKET:One Step At A Time-jacket.png;
#CDTITLE:;
#SAMPLESTART:49.513;
#SAMPLELENGTH:19.118;
#SELECTABLE:YES;
#OFFSET:0.193;
#BPMS:0.000=102.000;
#STOPS:;
#BGCHANGES:0.000=One Step At A Time-bg.png=1.000=0=0=0=StretchNoLoop====,
0.328=One Step At A Time.mp4=1.000=0=0=1,
205.000=One Step At A Time-bg.png=1.000=0=0=1,
99999.000=-nosongbg-=1.000=0=0=0=StretchNoLoop====
;
#FGCHANGES:;

//--------------- dance-single - Highflyer ----------------
#NOTEDATA:;
#STEPSTYPE:dance-single;
#DESCRIPTION:Highflyer;
#DIFFICULTY:Beginner;
#METER:2;
#RADARVALUES:0,0,0,0,0;
#NOTES:
0000
0000
0000
0000
,
0000
0000
0000
0000
,
0000
0000
0000
0000
,
0000
0000
0000
0000
,
0000
0000
0000
0000
,
0000
1000
0000
0001
,
0000
0100
0000
0010
,
0000
0100
0000
0001
,
0000
1000
1000
1000
,
0000
0100
0000
0010
,
0000
0001
0000
1000
,
0000
0010
0000
0100
,
0000
0010
0000
1000
,
0000
0001
0001
0001
,
0001
0000
1000
1000
,
1000
0000
0001
0000
,
0010
0000
0100
0100
,
0100
0000
0010
0010
,
0010
0000
0001
0001
,
0001
0000
0100
0000
,
0010
0000
1000
0000
,
0001
0001
0001
0001
,
0000
0010
0010
0010
,
0000
0100
0100
0100
,
0000
1000
1000
1000
,
0000
0001
0000
0100
,
0000
0010
0000
1000
,
0000
0100
0000
0010
,
0000
0001
0000
0010
,
0000
0100
0000
1000
,
0000
0001
0000
0100
,
0000
0010
0000
0100
,
0000
0001
0000
1000
,
0000
0100
0100
0000
,
0010
0010
0000
0001
,
0000
1000
0000
0010
,
0000
0100
0000
0010
,
0010
0010
0000
0100
,
0000
0010
0000
1000
,
0000
0001
0000
0010
,
0000
0100
0000
0010
,
0000
0100
0100
0100
,
0000
1000
1000
1000
,
0000
0001
0001
0001
,
0000
0010
0010
0010
,
0000
0100
0000
1000
,
0000
0001
0000
0010
,
0000
0100
0000
1000
,
0000
0001
0000
0100
,
0000
0010
0000
0010
,
0000
0010
0000
0010
;

//--------------- dance-single - Highflyer ----------------
#NOTEDATA:;
#STEPSTYPE:dance-single;
#DESCRIPTION:Highflyer;
#DIFFICULTY:Easy;
#METER:4;
#RADARVALUES:0,0,0,0,0;
#NOTES:
0000
0000
0000
0000
,
0000
0000
0000
0000
,
0000
0000
0000
0000
,
0000
0000
0000
0000
,
0000
0000
0000
0000
,
0000
1000
0010
0100
,
0000
0010
0100
0001
,
0000
1000
0100
0010
,
0000
0100
1000
0010
,
0000
0100
0001
1000
,
0000
0001
0010
0100
,
0000
0010
0001
1000
,
0010
0100
0010
1000
,
0100
0010
0001
1000
,
0010
0000
0010
0100
,
0001
0000
1000
0000
,
0100
0000
0010
0001
,
0100
0010
0010
0100
,
0001
0000
1000
0100
,
0010
0000
0100
0000
,
1000
0001
0100
0010
,
0100
0001
0010
0100
,
1000
0001
0010
0100
,
1000
0100
0010
0001
,
1000
0100
0010
0001
,
1000
0001
0100
0010
,
1000
0001
0100
0010
,
1000
0001
0010
0100
,
0010
0001
1000
0100
,
0010
0001
1000
0010
,
0100
0010
0010
0100
,
0001
1000
0100
0010
,
0100
1000
0001
0100
,
0010
0100
0100
0000
,
0010
1000
0100
0010
,
0100
1000
0001
0100
,
0010
0000
0100
0001
,
0010
0100
0000
0100
,
0000
0010
0000
0010
,
0000
0001
0000
1000
,
0000
0010
0000
0100
,
0001
0100
0010
1000
,
0001
0010
0100
1000
,
0100
0010
0001
1000
,
0010
0100
0001
0100
,
0010
1000
0001
1000
,
0100
0010
0100
1000
,
0001
0100
0010
1000
,
0100
1000
0001
0010
,
0100
1000
0001
1000
,
0001
1000
0001
1000
,
0100
0000
0000
0000
;

//--------------- dance-single - Highflyer ----------------
#NOTEDATA:;
#STEPSTYPE:dance-single;
#DESCRIPTION:Highflyer;
#DIFFICULTY:Medium;
#METER:8;
#RADARVALUES:0,0,0,0,0;
#NOTES:
0000
0000
0000
0000
,
0000
0000
0000
0000
,
0000
0000
0000
0000
,
0000
0000
0000
0000
,
0000
0000
0000
0000
,
0000
0000
1000
0001
0100
0020
0000
0000
,
0130
0000
0010
2000
0000
3002
0000
0000
,
0013
0000
0100
0020
0000
0032
0000
0000
,
1003
0010
0100
0010
1000
0200
0000
0000
,
0310
0010
0001
1000
0010
0200
0000
0000
,
0310
0100
0001
1000
0100
0010
0000
0100
,
0000
0000
0010
0001
1000
0010
0100
0010
,
1000
0000
0000
0000
0000
0000
0001
0000
0010
0000
0100
0000
0000
0010
0000
0000
,
0002
0000
1003
0010
0100
0001
0010
0100
,
1000
1000
0000
0001
0100
0010
0100
0010
,
1000
0000
1000
0000
0000
0000
0001
0010
0000
0000
0100
0000
0000
0000
0010
0001
,
0000
1000
0000
0010
0100
0010
1000
0100
,
0010
0010
0000
0100
1000
0001
0100
0010
,
0010
0010
0000
0100
0001
1000
0100
0010
,
0100
0100
0000
0000
0010
0001
2000
3020
,
0030
1000
0001
1000
0100
0020
0000
0031
,
1000
0001
0010
0100
1000
0020
0000
0000
,
0130
0010
1000
0001
0010
0200
0000
0000
,
0310
0001
1000
0010
0100
0002
0000
0000
,
1003
0100
0010
0100
1000
0002
0000
1003
,
0010
0100
0010
1000
0001
0010
0100
1000
,
0100
0010
0000
0100
1000
0001
0010
0100
,
1000
0001
0100
0000
0010
0200
0000
0302
,
0000
2003
0000
0000
3000
0100
1000
0001
,
0010
0200
0000
0000
0310
0000
0001
1000
,
0010
0000
0000
0100
0000
0000
0010
0000
1000
0000
0000
0001
0000
0000
0020
0000
,
0000
0130
0100
0000
0010
0002
0000
0003
,
1000
0000
0010
0000
0000
0000
0100
0000
0000
0010
0000
0000
1000
0000
0000
0000
,
0100
0010
0100
1000
0001
0100
0000
0010
,
0100
0001
0000
0010
0010
0000
0100
0000
,
0010
0000
0001
1000
0010
0100
0000
0010
,
2000
0000
3000
0001
0010
0000
0001
0010
,
0100
1000
0001
0000
0100
0000
0010
0100
,
0000
0010
0000
0100
0010
0000
1000
0001
,
1000
0001
0000
1000
0100
0000
1000
0100
,
0000
0010
0000
0100
1000
0000
0001
1000
,
0001
1000
0001
0010
0100
2000
0000
0000
,
3001
0100
0010
0100
0001
2000
0000
0000
,
3100
0010
0100
1000
0001
0200
0000
0000
,
0310
0100
0001
1000
0100
0020
0000
0000
,
0130
0010
0000
0100
1000
0001
0010
0100
,
1000
0100
0000
1000
0001
0010
0100
0010
,
0001
1000
0010
0000
0100
0020
0000
2030
,
0000
3002
0000
0000
0003
1000
0001
0010
,
0100
1000
0001
0000
1000
0000
0001
0000
,
1000
0001
1000
0001
,
1000
0000
0000
0000
;

//--------------- dance-single - Highflyer ----------------
#NOTEDATA:;
#STEPSTYPE:dance-single;
#DESCRIPTION:Highflyer;
#DIFFICULTY:Hard;
#METER:13;
#RADARVALUES:0,0,0,0,0;
#NOTES:
0000
0000
0000
0000
,
0000
0000
0000
0000
,
0000
0000
0000
0000
,
0000
0000
0000
0000
,
0000
0000
0000
0000
,
0000
0000
1000
0001
0100
0020
1000
0000
,
0130
0000
0001
0020
0000
0230
1300
0001
,
1000
0010
1000
0100
0010
0200
0000
0000
,
1300
0001
0100
1000
0100
0001
0010
0001
,
1000
0100
0010
0100
1000
0000
0010
0000
0100
0000
0002
0000
0010
0000
0000
0000
,
1003
0010
0100
0001
0010
0200
0000
2300
,
3001
0000
1000
0000
0001
0010
0100
0010
0001
1000
0010
0100
0001
1000
0001
0100
,
0010
1000
0100
0010
0100
1000
0001
0100
0010
1000
0001
0010
0001
1000
0010
0100
,
0001
0010
0001
1000
0100
1000
0100
0010
0100
1000
0010
1000
0001
0100
0010
1000
,
0010
0000
1000
0010
0100
0000
0010
1000
0001
1000
0100
1000
0001
0100
0010
1000
,
0001
0000
1000
0000
0001
0000
1000
0100
0000
1000
0020
0000
0130
0001
0010
0001
,
0000
1000
0100
0000
2000
0000
3001
0100
0010
0000
0100
0001
0010
0000
0100
0000
,
0010
0001
1000
0001
0100
0010
0100
0001
1000
0001
0010
0001
0010
0000
0100
0000
,
0001
0000
0100
0000
1000
0000
0001
1000
0010
0100
0001
0000
1000
0100
1000
0000
,
0100
0000
0001
0000
0100
0010
0100
1000
0001
0100
0010
1000
0001
0010
0001
1000
,
0100
0010
0100
1000
0001
1000
0010
0100
0010
1000
0001
1000
0100
1000
0001
0100
,
0010
1000
0001
0000
1000
0000
0100
0000
0010
0000
0002
0000
0100
0000
0000
0000
,
1003
0010
0100
0010
1000
0200
0010
0000
,
1300
0001
0010
0100
0001
0200
0000
1300
,
0010
0000
1000
0000
0001
0000
0100
0000
0010
0000
0002
0000
0013
0000
1000
0001
,
1000
0010
1000
0200
0000
0000
1300
0000
0001
0000
0010
0000
0100
0000
1000
0000
,
0001
0100
0000
0001
0010
0100
1000
0001
,
1000
0000
0010
0000
0100
0001
1000
0100
1000
0001
0100
0010
1000
0001
0010
0001
,
1000
0010
1000
0100
1000
0001
0100
0001
0010
0001
1000
0100
0010
0001
1000
0001
,
0010
0100
1000
0010
0100
0000
0010
1000
0100
0000
0000
0000
0010
0000
0001
0000
,
1000
0010
0000
0100
0000
0000
0010
0000
1000
0001
0000
0010
0000
0000
0200
0000
,
1300
0000
0100
0000
2000
0000
0000
3001
0100
0000
0020
0000
0000
0000
0130
0000
,
0001
1000
0100
0000
0000
0000
0010
0000
0000
0001
0000
0000
0100
0000
2000
0000
,
3200
0000
0301
1000
0010
0100
0001
1000
0200
0000
0320
0000
0030
0000
0001
0000
,
1000
0000
0000
0000
0000
0000
0000
0000
0000
0000
0000
0000
0000
0000
0000
0000
0000
0000
0000
0000
0000
0000
0000
0000
0020
0000
0000
0000
0000
0000
0000
0000
0000
0000
0000
0000
0000
0000
0000
0000
0000
0000
0000
0000
0000
0000
0000
0000
0000
0000
0000
0000
0000
0000
0000
0000
0000
0000
0000
0000
0030
0000
0000
0000
0000
0000
0000
0100
0000
0000
0000
0000
0000
0000
0000
0000
0000
0000
0000
0000
0000
0000
0000
0000
0000
0000
0001
0000
0000
0000
0000
0000
0000
0000
0000
0000
0000
0000
0000
0000
0000
0000
0000
0000
0000
0000
0000
0000
0000
0000
0000
0010
0000
0000
0000
0000
0000
0000
0000
0000
0000
0000
0000
0000
0000
0000
0000
0000
0000
0000
0000
0000
0200
0000
0000
0000
0000
0000
0000
0000
0000
0000
0000
0000
0000
0000
0000
0000
0000
0000
0000
0000
0000
0000
0000
0000
0000
0000
0000
0000
0000
0000
0000
0000
0000
0000
0000
0000
2300
0000
0000
0000
0000
0000
0000
0000
0000
0000
0000
0000
0000
0000
0000
0000
0000
0000
0000
0000
0000
0000
0000
0000
,
3001
0000
0000
1000
0010
0100
0001
1000
0000
0100
0020
0000
0030
0001
1000
0000
,
0020
0000
1030
0100
2000
0000
3001
0010
,
0100
0000
2000
0000
3010
0000
0100
0001
0200
0000
0000
0000
0310
0000
2000
0000
,
0000
0000
3200
0000
0000
0000
0310
0001
1000
0000
0000
0000
0001
0000
0010
0000
,
1000
0000
0010
0000
0001
0000
1000
0100
2000
0000
0000
0000
3001
0000
0200
0000
,
0000
0000
0320
0000
0030
0000
0100
0001
2000
0000
0000
0000
3001
0000
0100
0000
,
1000
0100
0001
0010
0100
2000
0010
0000
,
3001
1000
0010
0100
0001
0020
0100
0000
,
0031
1000
0010
0100
1000
0200
0001
0000
,
0310
0000
1000
0000
0001
0000
0010
0000
0100
0000
0002
0000
0103
0000
1000
0001
,
0100
0010
1000
0200
0000
0000
0310
0000
0001
0000
0010
0000
0100
0000
1000
0000
,
0010
0100
0000
0001
1000
0100
0010
0001
,
1000
0000
0010
0000
0100
0001
1000
0100
0010
0001
0010
0100
1000
0001
0100
0010
,
1000
0001
1000
0100
1000
0001
0100
0010
1000
0001
1000
0100
0010
0001
0010
0100
,
1000
0100
0010
0001
0100
0000
0000
0000
0010
0000
0000
0000
1000
0000
0000
0000
,
0001
0100
0010
1000
,
0100
0000
0000
0000
;
