#TITLE:Objection Funk;
#SUBTITLE:;
#ARTIST:iteachvader;
#TITLETRANSLIT:;
#SUBTITLETRANSLIT:;
#ARTISTTRANSLIT:;
#GENRE:;
#CREDIT:;
#MUSIC:Objection Funk.ogg;
#BANNER:Objection Funk.png;
#BACKGROUND:Objection Funk-bg.png;
#CDTITLE:;
#SAMPLESTART:15.334;
#SAMPLELENGTH:10.846;
#SELECTABLE:YES;
#OFFSET:-0.796;
#BPMS:0.000=130.000;
#STOPS:;
#JACKET:Objection Funk-jacket.png;
#BGCHANGES:-1.725=Objection Funk.avi=1.000=1=0=0=StretchNoLoop==CrossFade==;
#FGCHANGES:0.000=objection=1.000=0=0=1,
31.750=objection=1.000=0=0=1,
191.750=objection=1.000=0=0=1,
198.750=holdit=1.000=0=0=1,
206.250=takethat=1.000=0=0=1,
214.550=holdit=1.000=0=0=1,
222.250=takethat=1.000=0=0=1,
254.250=takethat=1.000=0=0=1
;

//--------------- dance-single - ----------------
#NOTES:
     dance-single:
     :
     Beginner:
     2:
     0,0,0,0,0:
0000
0000
0000
0000
,
0000
0000
0000
0000
,
0000
0000
0000
0000
,
0000
0000
0000
0000
,
1000
0000
0000
0000
,
1000
0000
0000
0000
,
0001
0000
0000
0000
,
0001
0000
0000
0000
,
1001
0000
1000
0000
,
0000
0000
0000
0000
,
1001
0000
0001
0000
,
0000
0000
0000
0000
,
0110
0000
0100
0000
,
0000
0000
0000
0000
,
0110
0000
0010
0000
,
0000
0000
0000
0000
,
0001
0000
0001
0000
,
0001
0000
0001
0000
,
1000
0000
1000
0000
,
1000
0000
1000
0000
,
0100
0000
0100
0000
,
0100
0000
0100
0000
,
0010
0000
0010
0000
,
0010
0000
0000
0000
,
1001
0000
0001
0000
,
0000
0000
0000
0000
,
1001
0000
1000
0000
,
0000
0000
0000
0000
,
0110
0000
0010
0000
,
0000
0000
0000
0000
,
0110
0000
0100
0000
,
0000
0000
0000
0000
,
1000
0000
0000
0000
,
0100
0000
0000
0000
,
0010
0000
0000
0000
,
0001
0000
0000
0000
,
1000
0000
0000
0000
,
0010
0000
0000
0000
,
0100
0000
0000
0000
,
0001
0000
0000
0000
,
1001
0000
0000
0000
,
0110
0000
0000
0000
,
1001
0000
0000
0000
,
0110
0000
0000
0000
,
0001
0001
0000
0000
,
1000
1000
0000
0000
,
0001
0001
0000
0000
,
1000
1000
0100
0000
,
0110
0000
1001
0000
,
0000
0000
0001
1001
,
1000
0000
1000
0000
,
0100
0000
0100
0010
,
0010
0000
0010
0000
,
0001
0000
0001
0000
,
1000
0000
1000
0000
,
0001
0000
0000
1001
,
1001
0000
0001
0000
,
0000
0000
0000
0000
,
1001
0000
1000
0000
,
0000
0000
0000
0000
,
0110
0000
0100
0000
,
0000
0000
0000
0000
,
0110
0000
0010
0000
,
0010
0000
0010
1001
;

//--------------- dance-single - ----------------
#NOTES:
     dance-single:
     :
     Easy:
     6:
     0,0,0,0,0:
0000
0000
0000
0000
,
0000
0000
0000
0000
,
0000
0000
0000
0000
,
0000
0000
0000
0000
,
1000
1000
0000
0000
,
1000
1000
0000
0000
,
0001
0001
0000
0000
,
0001
0001
0002
0003
,
1000
0100
2000
3000
,
0001
0100
0002
0003
,
0001
0010
0002
0003
,
1000
0010
1000
1000
,
0100
0010
0200
0300
,
1000
0001
2000
3000
,
0001
0100
0020
0030
,
0100
0001
0010
0100
,
1000
0000
0001
0000
0000
0001
0000
0000
,
0100
0000
0001
0000
0000
0001
0000
0000
,
0010
0000
0100
0000
0000
0100
0000
0000
,
1000
0000
0010
0000
0000
0010
0100
0000
,
0001
0000
1000
0000
0000
1000
0000
0000
,
0100
0000
1000
0000
0000
1000
0000
0000
,
0010
0000
0100
0000
0000
0100
0000
0000
,
0001
0010
0100
0000
,
1001
1000
0001
0000
,
1001
0001
1000
0000
,
1100
1000
0100
0000
,
0101
0001
0100
0000
,
0001
1000
0001
0001
,
1000
0001
1000
1000
,
0100
0010
0100
0100
,
0010
0100
0010
0010
,
0001
0100
0002
0003
,
1000
0100
2000
3000
,
0110
0000
1001
0000
,
0001
0100
0010
1000
,
0001
0001
0010
0010
,
0100
0100
1000
1000
,
0010
0010
0200
0300
,
0001
1000
1001
0000
,
1100
0000
0000
0000
0000
0001
0000
0000
,
0101
0000
0000
0110
,
1001
0000
0000
0000
0000
0001
0000
0000
,
0011
0000
0000
0110
,
1001
0000
0000
0000
0000
1000
0000
0000
,
1010
0000
0000
0110
,
1001
0000
0000
0000
0000
0110
0000
0000
,
1001
0000
0200
0000
,
0310
1001
1000
0000
,
1001
0001
1000
0200
,
0310
0010
0001
0001
,
1000
1000
0010
0110
,
1001
1000
0100
0100
,
0010
0010
0001
2000
,
3010
0010
1000
1000
,
0001
0001
0010
0110
,
1001
0010
2000
3000
,
0001
0010
0002
0003
,
0100
0010
0200
0300
,
0010
0100
0020
0030
,
1000
0100
0020
0030
,
0001
0100
0020
0030
,
1000
0000
0001
0200
0000
0000
0302
0000
,
0000
2003
0000
3000
0100
0010
0010
0000
;

//--------------- dance-single - ----------------
#NOTES:
     dance-single:
     :
     Medium:
     11:
     0,0,0,0,0:
0000
0000
0000
0000
,
0000
0000
0000
0000
,
0000
0000
0000
0000
,
2000
0000
0001
0000
0000
0001
0000
0000
3001
0000
1000
0000
0400
0000
0000
0000
,
0310
0001
1000
0020
0030
0000
1000
0001
,
0200
0000
0010
0000
0000
0010
0000
0000
0302
0000
0003
0000
1000
0000
0001
0000
,
0010
0100
1000
0002
0003
0000
1000
0001
,
0100
0010
1000
0001
0040
0000
0000
0000
,
0031
1000
0001
0200
0000
0301
1000
0100
,
0010
0001
1000
0100
0002
0000
0103
1000
,
0010
1000
0001
0020
0000
0031
0010
0100
,
1000
0000
0010
0000
0100
0000
0001
0000
1000
0010
0000
0010
0000
0000
0000
0000
,
1001
0001
1000
0020
0000
1030
0001
0010
,
0100
1000
0001
0010
2000
0000
3010
0001
,
0100
0001
1000
0020
0000
1030
0100
0010
,
0001
0000
1000
0000
0010
0000
0100
0000
0001
0010
0000
0010
0000
0000
0100
0000
,
1000
0000
0001
0000
0400
0300
0000
0400
0300
0000
0100
0000
0010
0000
0000
0000
,
1000
0000
0001
0000
0040
0030
0000
0040
0030
0000
0001
0000
4000
0000
0000
0000
,
3100
0000
0010
0000
0002
0003
0000
0002
0003
0000
1000
0000
0040
0000
0000
0000
,
0000
0000
1030
0000
0002
0003
0000
0002
0003
0000
1000
0000
0002
0003
0000
0002
,
0003
0000
1000
0000
0100
0000
0000
0010
0000
0000
0001
0000
0100
0000
0010
0000
,
0010
0000
0100
0000
0001
0000
0000
1000
0000
0000
0010
0000
1000
0000
0001
0000
,
0010
0000
0100
0000
1000
0000
0000
0001
0000
0000
1000
0000
0040
0000
0000
0000
,
0000
0000
0130
0000
0001
0000
1000
0000
0200
0000
0000
0300
0000
0000
0000
0000
,
1001
0000
1000
0000
0001
0000
1000
0100
0000
0100
0010
0000
0001
0000
1000
0000
,
0010
0100
0001
0100
2000
0000
3100
0010
,
1000
0000
0001
0000
1001
0000
0001
0010
0000
0010
0100
0000
1000
0000
0010
0000
,
1000
0100
0001
0100
0010
0001
0400
0000
,
0310
0000
1000
0000
1001
0000
0001
1000
0000
1000
0100
0000
0010
0000
0001
0000
,
0100
0001
1000
0010
0002
0000
0013
1000
,
0100
0000
1000
0000
0010
0000
0100
0001
0000
0001
1000
0000
0001
0000
0010
0000
,
1000
0010
0001
0001
0100
0100
0040
0000
,
1030
0000
0000
0000
0101
0000
0000
0100
0020
0000
0000
0000
0130
0000
0001
0000
,
1000
0000
0000
0000
1100
0000
0100
0020
0000
0000
0130
0000
1000
0000
0010
0000
,
0100
0000
0110
0000
0000
0101
0000
0000
1001
0000
1000
0001
0000
0001
0010
0000
,
0100
1000
0100
0010
0002
0000
0103
0000
,
0010
0000
1000
0000
0001
0000
1000
0000
0100
1000
0100
0000
0010
0001
0010
0000
,
0400
0000
0000
0340
0000
0000
4030
0000
0000
3004
0000
0000
0013
0000
0001
0000
,
4000
0000
0000
3040
0000
0000
0430
0000
0000
0340
0000
0000
1030
0000
0001
0000
,
0010
0000
0110
0000
0000
0110
0000
0000
1001
0000
0000
0000
0000
0000
0000
0000
,
2001
0000
3100
0000
0010
0000
0000
0100
0000
0000
1000
0000
0000
1100
0000
0000
,
1001
0000
0000
0001
0000
0000
0100
0000
0010
0000
0100
0000
0101
0000
0000
0000
,
1001
0000
1000
0000
0010
0000
0000
0100
0000
0000
0010
0000
0000
1010
0000
0000
,
1002
0000
0000
0013
0000
0000
0100
0000
1000
0000
0001
0000
0110
0000
0000
0000
,
1001
0000
1000
0000
0100
0000
1000
0000
0100
0000
0010
0000
0000
0010
0000
0000
,
0001
0100
0001
0100
1000
0100
0110
0000
,
1001
0000
1000
0000
0010
0000
1000
0000
0010
0000
0100
0000
0000
0001
0000
0000
,
0010
0000
0000
0001
0000
0000
1000
0000
0400
0000
0000
0000
0000
0000
0000
0000
,
0310
0010
0001
1000
0010
0010
1000
0100
,
0001
0100
0010
0001
1000
1000
0020
0000
,
0130
0001
0010
0001
0100
0100
0010
1000
,
0001
0010
0100
1000
0001
0100
0101
0000
,
1000
1000
0010
1000
0100
0100
0010
0001
,
0100
0010
0100
0001
0010
0010
0200
0000
,
1300
0010
1000
0010
0100
0100
0001
0010
,
0100
1000
0010
0100
0001
0010
0011
0000
,
1000
0001
1000
0200
0000
1300
0001
0100
,
0010
1000
0001
0100
2000
0000
3100
0001
,
0010
0001
1000
0020
0000
1030
0010
0100
,
0001
0000
0010
0000
0100
0000
1000
0000
0100
0010
0000
0010
0000
0000
0001
0000
,
1001
1000
0001
0020
0000
0031
1000
0010
,
0100
0001
1000
0010
0002
0000
0013
1000
,
0100
1000
0001
0020
0000
0030
0200
0000
,
0300
2000
0000
3000
0001
0110
1001
0000
;

//--------------- dance-single - ----------------
#NOTES:
     dance-single:
     :
     Hard:
     14:
     0,0,0,0,0:
0000
0000
0000
0000
,
0000
0000
0000
0000
,
0001
0000
1000
0000
0100
0000
0000
0100
0000
0000
0000
0000
0000
0000
0000
0000
,
1000
0000
0010
0000
0000
0010
0000
0000
1000
0000
0001
0000
0010
0100
0010
0000
,
0001
0000
0001
0000
2000
0000
0100
0000
3002
0000
0000
0100
0000
0103
0000
0000
,
0001
1000
0100
1000
0020
0000
1030
0001
,
0010
0000
0010
0000
0002
0000
0100
0000
2003
0000
0000
0010
0000
3010
0000
0000
,
1000
0000
0010
0000
0100
0000
0001
0000
1000
0001
0000
0001
0000
1000
0100
0010
,
0001
0000
0001
0000
0200
0000
0010
0000
0301
0000
1000
0100
0000
0100
1000
0000
,
0001
0010
0001
0100
2000
0000
3100
0001
,
0010
0000
0010
0000
0002
0000
0100
0000
1003
0000
0100
0010
0000
0010
0100
0000
,
1000
0000
0100
0000
0001
0000
0100
0000
1000
0010
0000
0010
0000
0100
0001
0000
,
0010
0000
0010
0000
0200
0000
0010
0000
1300
0000
0001
1000
0000
1000
0010
0000
,
0100
0001
1000
0010
0002
0000
0013
1000
,
0100
0000
0100
0000
0020
0000
0100
0000
0031
0000
1000
0001
0000
0001
0100
0000
,
1000
0000
0100
0000
0001
0000
0010
0000
0100
1000
0000
1100
0000
1000
0001
0000
,
0010
0000
0001
0000
0100
0000
0000
0101
0000
0000
0001
0000
0010
0000
0000
0000
,
0001
0000
1000
0000
0100
0000
0000
1100
0000
0000
1000
0000
0100
0000
0010
0000
,
0001
0000
0100
0000
0010
0000
0000
0110
0000
0000
1001
0000
0001
0100
0000
0100
,
0000
0000
0001
0000
0010
0000
0001
1000
0000
0001
1000
0000
0100
0000
0000
1100
,
0000
0000
0001
0000
1000
0000
0000
1000
0000
0000
0100
0000
0010
0000
0100
0000
,
1000
0000
0010
0000
0100
0000
0000
0100
0000
0000
0010
0000
1000
0000
0100
0000
,
0010
0000
0001
0000
0100
0000
0000
0100
0000
0000
0001
0000
1000
0001
0000
0001
,
0010
0000
0100
0000
1000
0000
0010
0000
0200
0000
0000
0300
0000
0001
1000
0100
,
0010
0000
0001
0000
1001
0000
0001
0100
0000
0100
0010
0000
1000
0001
0010
0000
,
0001
1000
2001
3100
0010
0010
0100
1000
,
0010
0000
0100
0000
1001
0000
1000
0001
0000
0001
0100
0000
0001
1000
0100
0000
,
1000
0000
0001
0000
0010
0000
0010
0000
0100
0000
1000
0000
0010
1000
0010
1000
,
0001
0000
0010
0000
0110
0000
1000
0001
0000
0001
0100
0000
0010
1000
0001
0000
,
0100
0000
0010
0000
1010
0000
1000
0000
0001
0000
0001
0000
1000
0100
1000
0100
,
0010
0000
0001
0000
0101
0000
0001
1000
0000
1000
0100
0000
1000
0001
0010
0000
,
0001
0000
1000
0000
0010
0000
0010
0000
0100
0000
0001
0000
1000
0001
1000
0001
,
0010
0000
0100
0000
1000
0100
0010
0001
0000
1000
0020
0000
0130
0001
0010
0000
,
0100
0000
1000
0000
0010
0000
1000
0100
0000
0100
0010
0000
0001
1000
0010
0000
,
0100
0000
0110
0000
0000
1001
0000
0000
0001
0100
0000
0101
0000
1000
0200
0000
,
0310
0000
0001
0000
0100
0000
0001
1000
0000
1000
0001
0000
1000
0100
0010
0000
,
0002
0000
0103
0001
1000
0010
0000
1010
0000
1000
0100
1000
0001
0100
0001
1000
,
0010
1000
0000
1000
0100
0000
0100
0010
0000
0001
0100
0010
0000
0010
1000
0001
,
2000
0000
0000
0000
3200
0000
0000
0000
0320
0000
0000
0000
0032
0000
0000
0000
2003
0000
0000
0000
3020
0000
0000
0000
0230
0000
0000
0000
0000
0000
0001
0000
0000
0000
0000
0000
0301
0000
0000
0010
0000
0000
0100
0000
0000
1000
0000
0000
,
0001
0000
0100
0000
0000
0101
0000
0000
1100
0000
1000
0001
0000
1000
0002
0000
,
0103
0000
0010
0000
2000
0000
0000
3100
0000
0000
1010
0000
0000
1010
0000
0000
,
2010
0000
0000
3100
0000
0000
0010
0000
0001
0000
1000
0000
0110
0000
0000
0000
,
1000
0000
0001
0000
0010
0000
0000
0100
0000
0000
0011
0000
0000
0011
0000
0000
,
0012
0000
0000
0103
0000
0000
0001
0000
0100
0000
0010
0000
MMMM
0000
0000
0000
,
0001
0000
1000
0000
0200
0000
0000
0310
0000
0000
1100
0000
0000
0011
0000
0000
,
1001
0000
0001
0100
0000
0100
0010
0000
1000
0000
0001
0000
0110
0000
0000
0000
,
1001
0000
0001
0000
0200
0000
0000
0310
0000
0000
0101
0000
0000
1010
0000
0000
,
1001
0000
0001
0010
0000
0010
0100
0000
1000
0001
1000
0001
1000
0100
0010
0001
,
0100
0100
0001
0010
0100
0100
1000
0001
,
0100
0000
0010
1000
0000
1000
0001
0000
0010
0000
0020
0000
0100
0000
0031
0000
,
1000
0100
0001
0100
1000
0010
0100
0001
,
1000
0000
0100
0010
0000
0010
0001
0000
0100
0000
0110
0000
2001
0000
3100
0000
,
0010
0010
0001
0100
0010
0010
1000
0001
,
0010
0000
0100
1000
0000
1000
0001
0000
0100
0000
0200
0000
0010
0000
0301
0000
,
1000
0010
0001
0010
1000
0100
0010
0001
,
1000
0000
0010
0100
0000
0100
0001
0000
0010
0000
0110
0000
1001
0000
1000
0001
,
0100
0000
0100
0000
0002
0000
0010
0000
1003
0000
0001
0100
0000
0100
0001
0000
,
1000
0100
0001
0100
0020
0000
0031
0100
,
0010
0000
0010
0000
2000
0000
0100
0000
3001
0000
1000
0010
0000
0010
1000
0000
,
0001
0000
1000
0100
0000
0010
0001
0000
1000
0010
0000
0010
0000
1000
0100
0000
,
0010
0000
0010
0000
0200
0000
0010
0000
1300
0000
0001
0100
0000
0100
0010
0000
,
1000
0010
0001
0010
0200
0000
0301
0010
,
0100
0100
2000
0100
3001
0002
0100
1003
,
2000
0010
3001
0010
0100
0110
1001
0000
;
