#TITLE:O JIYA;
#SUBTITLE:;
#ARTIST:ASMAT & emi;
#TITLETRANSLIT:;
#SUBTITLETRANSLIT:;
#ARTISTTRANSLIT:;
#GENRE:HINDI ROCK POP;
#CREDIT:;
#BANNER:O JIYA.png;
#BACKGROUND:O JIYA-bg.png;
#LYRICSPATH:;
#CDTITLE:cdtitle.png;
#MUSIC:O JIYA.ogg;
#OFFSET:-0.145000;
#SAMPLESTART:12.819999;
#SAMPLELENGTH:15.000000;
#SELECTABLE:YES;
#DISPLAYBPM:151.000000;
#BPMS:0.000000=151.000000
,178.000000=302.000000
,182.000000=151.000000
;
#STOPS:
;
#BGCHANGES:0.000=O JIYA.avi=1.000=0=0=0=StretchNoLoop==CrossFade_Fastest==,
99999=-nosongbg-=1.000=0=0=0 // don't automatically add -songbackground-
;
#KEYSOUNDS:;
#ATTACKS:;

//---------------dance-single - Daff_4K----------------
#NOTES:
     dance-single:
     Daff_4K:
     Beginner:
     3:
     0.140133,0.215050,0.032338,0.000000,0.000000,91.000000,88.000000,3.000000,0.000000,0.000000,0.000000,0.140133,0.215050,0.032338,0.000000,0.000000,91.000000,88.000000,3.000000,0.000000,0.000000,0.000000:
0000
0000
0000
0000
,
0000
0000
0000
0000
,
0000
0000
0000
0000
,
0000
0000
0000
0000
,
1000
0000
0000
0000
,
0001
0000
0000
0000
,
1000
0000
0000
0000
,
0100
0100
0100
0000
,
0010
0000
0000
0000
,
0001
0000
0001
0000
,
0001
0000
0000
0000
,
0100
0100
0100
0000
,
0010
0000
0000
0000
,
1000
0000
1000
0000
,
1000
0000
0000
0000
,
0100
0100
0100
0000
,
1000
0000
0000
0000
,
0001
0000
0000
0000
,
1000
0000
0000
0000
,
0001
0000
0001
0000
,
0100
0000
0000
0000
,
0010
0000
0000
0000
,
0100
0000
0000
0000
,
0010
0010
0010
0000
,
1000
0000
0000
0000
,
0001
0001
0001
0000
,
0001
0000
0000
0000
,
1000
1000
1000
0000
,
0100
0000
0000
0000
,
0010
0010
0010
0000
,
0010
0000
0000
0000
,
0100
0100
0100
0000
,
1000
0000
0001
0000
,
1000
1000
1000
0000
,
0100
0000
0010
0000
,
0110
0000
0000
0000
,
0001
0000
1000
0000
,
0001
0001
0001
0000
,
0100
0000
0010
0000
,
0110
0000
0000
0000
,
1001
0000
0000
0000
,
1000
0000
0000
0000
,
0100
0000
0100
0000
,
0010
0000
0000
0000
,
0001
0001
0001
0000
,
0000
0000
0000
0000
,
0000
0000
0100
0000
,
0100
0000
0010
0000
,
0000
0000
1000
1000
,
1000
0000
1000
0000
,
0000
0000
0001
0000
,
0000
0000
1000
0000
,
0000
0000
0100
0000
,
0010
0000
0001
0000
,
0000
0000
1000
0000
,
0000
0000
0001
0000
,
0000
0000
0100
0100
,
0100
0000
0000
0000
;

//---------------dance-single - Daff_4K----------------
#NOTES:
     dance-single:
     Daff_4K:
     Easy:
     5:
     0.263327,0.308562,0.086236,0.226369,0.000000,171.000000,163.000000,8.000000,21.000000,0.000000,0.000000,0.263327,0.308562,0.086236,0.226369,0.000000,171.000000,163.000000,8.000000,21.000000,0.000000,0.000000:
0000
0000
0000
0000
,
0000
0000
0000
0000
,
0000
0000
0000
0000
,
0000
0000
0000
0000
,
2000
0000
3001
0000
,
1000
1000
0100
0010
,
0002
0000
1003
0000
,
0001
1000
1001
0000
,
0001
0100
0010
0000
,
0100
0001
0010
0100
,
1000
0010
0100
0000
,
0010
1000
1001
0000
,
1000
0100
0010
0000
,
0100
1000
0010
0100
,
0001
0010
0100
0000
,
0010
0001
1001
0000
,
0002
0000
0103
0000
,
0020
0000
1030
0000
,
0002
0000
0013
0000
,
0100
0100
1000
0001
,
2000
0000
3100
0000
,
0020
0000
0031
0000
,
2000
0000
3010
0000
,
0100
0001
1001
0000
,
2000
0000
3100
0000
,
0001
0100
1000
0001
,
2000
0000
3010
0000
,
0001
0010
0010
1000
,
0002
0000
0103
0000
,
1000
0100
0001
1000
,
0002
0000
0013
0000
,
1000
0010
0001
0000
,
1000
0010
0100
0010
,
1000
1000
0001
0001
,
0010
0010
0100
1000
,
0020
0100
0100
0130
,
0001
0010
0100
0010
,
0001
0001
1000
1000
,
0010
0010
0100
0001
,
0020
0100
0100
0130
,
2002
0000
3003
0000
,
1000
0010
0100
0000
,
0010
1000
0100
0010
,
0001
0100
0010
0000
,
0100
0001
1001
0000
,
0000
0000
0001
0010
,
0100
0000
0010
0001
,
0100
0010
1000
0100
,
0010
0000
0100
1000
,
1001
0000
2000
0000
,
3010
0000
1000
1000
,
0010
0100
0002
0000
,
0013
0000
0001
0001
,
0010
0100
2000
0000
,
3001
0000
1000
0001
,
0100
0010
1000
0100
,
0001
0100
1000
0001
,
2002
3003
0000
0000
;

//---------------dance-single - Daff_4K----------------
#NOTES:
     dance-single:
     Daff_4K:
     Medium:
     9:
     0.408080,0.462843,0.237148,0.280266,0.000000,265.000000,243.000000,22.000000,26.000000,0.000000,0.000000,0.408080,0.462843,0.237148,0.280266,0.000000,265.000000,243.000000,22.000000,26.000000,0.000000,0.000000:
0000
0000
0000
0000
,
0000
0000
0000
0000
,
0000
0000
0000
0000
,
0000
0000
0000
0000
,
0002
0100
1000
0103
,
0001
0100
0010
0010
,
2000
0100
0001
3100
,
1000
0001
1001
0000
,
1000
0000
0001
0100
0001
0000
1000
0000
,
0100
0000
0010
0001
1000
0000
0001
0000
,
0100
0000
0010
0100
0010
0000
1000
0001
,
0000
0001
0010
0000
0110
0000
1001
0000
,
0001
0000
1000
0100
1000
0000
0001
0000
,
0100
0000
0010
1000
0001
0000
1000
0000
,
0100
0000
0010
0100
0010
0000
0001
1000
,
0000
1000
0010
0000
0110
0000
1001
0000
,
2000
0001
0100
3001
,
1000
0000
0010
0000
0100
0010
0100
0000
,
0002
0010
1000
0013
,
0110
1001
0110
1001
,
0002
1000
0100
1003
,
0001
0000
0010
0000
0100
0010
0100
0000
,
2000
0010
0001
3010
,
1001
0110
2002
3003
,
0001
0000
0100
0010
0000
0010
1000
0000
,
0001
0010
1000
0010
,
0001
0000
1000
0010
0000
0010
0100
0000
,
0001
0000
1000
0001
0000
0010
0100
0000
,
1000
0000
0100
0010
0000
0010
0001
0000
,
1000
0010
0001
0010
,
1000
0000
0001
0010
0000
0010
0100
0000
,
1000
0000
0001
1000
0001
0000
1001
0000
,
2000
0010
3002
0100
,
1003
0001
1000
0000
0100
0010
0001
0000
,
0200
0010
0302
1000
,
0013
0010
0010
0000
0100
0100
0000
1000
,
0002
0010
2003
0100
,
3001
1000
0001
0000
0100
0010
1000
0000
,
0200
0010
2300
0001
,
3010
0010
0010
0000
0100
0100
0000
0001
,
2000
0001
3001
1001
,
0002
0100
1000
0013
,
0001
0100
0001
0000
1000
0100
1000
0000
,
0001
0000
0100
0010
0100
0000
0001
1000
,
0000
0100
0010
0000
2002
0000
0000
0000
,
3003
0000
2000
0100
,
0001
0000
3010
0000
1000
0100
1000
0000
,
0001
0100
0001
0000
1000
0000
0100
0010
,
0100
0000
1000
0001
0000
0001
0100
0000
,
0110
1001
2000
0100
,
0001
3100
1000
0001
,
0100
1000
0200
0010
,
0001
0310
1000
1100
,
0001
0011
0002
0100
,
1000
0103
0001
1000
,
0100
0000
0001
0000
0100
0010
0100
0010
,
0001
1000
0001
0000
1001
0000
0110
0000
,
2002
3003
0000
0000
;

//---------------dance-single - Daff_4K----------------
#NOTES:
     dance-single:
     Daff_4K:
     Hard:
     12:
     0.571312,0.555412,0.495855,0.625209,0.129354,371.000000,325.000000,46.000000,58.000000,0.000000,0.000000,0.571312,0.555412,0.495855,0.625209,0.129354,371.000000,325.000000,46.000000,58.000000,0.000000,0.000000:
0000
0000
0000
0000
,
0000
0000
0000
0000
,
0000
0000
0000
0000
,
0000
0000
0000
0000
,
2001
0000
3100
0020
0000
0031
1000
0000
,
1020
0000
0130
0002
0000
1003
0100
0010
,
0002
0000
0103
0020
0000
1030
0001
0000
,
1001
0110
2002
3003
,
1001
0000
0000
0001
0100
0000
0010
0000
2000
0000
0000
0000
3001
0000
1000
0000
,
0100
0001
0100
1000
0010
0100
0010
1000
,
0001
1000
0100
1000
0002
0000
1003
0020
,
0000
0130
0010
1000
0001
0000
0110
0000
,
1001
0000
0000
1000
0100
0000
0010
0000
0002
0000
0000
0000
1003
0000
0001
0000
,
0100
1000
0100
0001
0010
0100
0010
0001
,
1000
0001
0100
0001
2000
0000
3100
0020
,
0000
0031
0100
0010
1000
0000
0110
0000
,
1002
0000
0013
0200
0000
1000
1300
0000
,
0001
0100
0010
2000
0000
3001
1000
0100
,
1000
0001
0100
2000
0000
3100
0001
0000
,
0011
1100
1010
0101
,
2001
0000
3010
0200
0000
0001
0301
0000
,
1000
0100
0010
0002
0000
1003
0001
0100
,
0001
1000
0100
0002
0000
0103
1000
0000
,
1010
0101
2002
3003
,
1020
0000
0130
0020
0000
1030
0001
0010
,
0100
1000
0000
0000
1000
0001
0000
0000
0100
0000
0010
0000
1000
0000
0001
0000
,
0021
0000
0130
2000
0000
3001
1000
0010
,
0210
0000
0301
2001
0000
3100
0010
0001
,
0021
0000
0130
0020
0000
0031
1000
0010
,
0100
0001
0000
0000
0001
1000
0000
0000
0100
0000
0010
0000
0001
0000
1000
0000
,
1020
0000
0130
0002
0000
1003
0001
0010
,
0210
0000
1300
2002
0000
0000
3003
0000
,
1001
0000
0000
0001
0100
0000
0010
0000
1000
0100
0000
0000
0100
0001
0000
0000
,
0100
1000
0010
0001
0010
1000
0200
0000
,
0310
0000
0001
0000
1000
0000
0001
0000
0100
0010
0000
0000
0010
1000
0000
0000
,
1000
0001
1001
0000
0010
0100
0000
1001
,
1001
0000
0000
1000
0100
0000
0010
0000
0001
0100
0000
0000
0100
1000
0000
0000
,
0100
0001
0010
1000
0010
0001
0200
0000
,
0310
0000
1000
0000
0001
0000
1000
0000
0100
0010
0000
0000
0010
0001
0000
0000
,
0001
1000
1001
0000
0010
0100
0000
1001
,
0200
0010
0310
0110
,
1001
0000
0000
0001
0100
0000
0010
0000
2000
0000
0000
0000
3100
0000
0001
0000
,
0100
1000
0001
0100
1000
0001
0010
1000
,
0001
0010
0100
1000
0020
0000
0130
0002
,
0000
0013
0100
1000
2002
0000
0000
0000
,
0000
0000
0000
0000
3003
0000
0000
0000
1001
0000
0000
1000
0100
0000
0010
0000
,
0002
0000
0103
1000
0100
0001
1000
0100
,
0001
1000
0010
0001
1000
0010
0100
0001
,
0020
0000
0130
2000
0000
3010
0100
0001
,
1000
0000
0000
0000
1001
0000
0000
0000
0002
0000
0000
0010
0000
0000
0013
0000
,
0200
0000
0000
1000
0000
0000
1300
0000
0020
0000
0000
0230
0000
0000
0301
0000
,
1000
0000
1001
0000
0001
0010
0001
0010
,
0100
1000
0001
1000
1010
0000
0101
0000
,
0011
0000
0000
0000
1001
0000
0000
0000
2000
0000
0000
0010
0000
0000
3010
0000
,
0200
0000
0000
0001
0000
0000
0301
0000
0020
0000
0000
0230
0000
0000
1300
0000
,
0001
0000
1001
0000
1000
1000
0001
0001
,
0100
0010
1000
0001
1001
0000
0110
0000
,
2002
3003
0000
0000
;

//---------------dance-single - Daff_4K----------------
#NOTES:
     dance-single:
     Daff_4K:
     Challenge:
     14:
     0.663707,0.771405,0.603650,0.398840,0.307215,431.000000,375.000000,56.000000,37.000000,28.000000,0.000000,0.663707,0.771405,0.603650,0.398840,0.307215,431.000000,375.000000,56.000000,37.000000,28.000000,0.000000:
// measure 0
0000
0000
0000
0000
,  // measure 1
0000
0000
0000
0000
,  // measure 2
0000
0000
0000
0000
,  // measure 3
0000
0000
0000
0000
,  // measure 4
1001
0000
0000
0001
0100
0000
0020
0000
0000
0000
1030
0000
0200
0000
0000
0000
,  // measure 5
0310
0000
0000
0010
0001
0000
2000
0000
0000
0000
3010
0000
0100
0000
0001
0000
,  // measure 6
1001
0000
0000
1000
0100
0000
0020
0000
0000
0000
0031
0000
1000
0000
0000
0000
,  // measure 7
1001
0110
1001
MMMM
,  // measure 8
0001
0000
1000
0100
1000
0000
0010
0000
0200
0000
0000
0000
0310
0000
1000
0000
,  // measure 9
0100
0001
0100
1000
0010
0100
0001
1000
,  // measure 10
0001
0000
0010
0100
0010
0000
0001
0000
2000
0000
0000
0000
3010
0000
1002
0000
,  // measure 11
0000
0000
0013
0100
1000
0000
0001
0000
1001
0000
0000
0000
MMMM
0000
0000
0000
,  // measure 12
1000
0000
0001
0100
0001
0000
0010
0000
0200
0000
0000
0000
0310
0000
0001
0000
,  // measure 13
0100
1000
0100
0001
0010
0100
1000
0001
,  // measure 14
1000
0000
0010
0100
0010
0000
1000
0000
0002
0000
0000
0000
0013
0000
2001
0000
,  // measure 15
0000
0000
3010
0100
0001
0000
1000
0000
1001
0000
0000
0000
MMMM
0000
0000
0000
,  // measure 16
0011
0000
0000
0001
1000
0000
0020
0000
0000
0000
0100
0000
0130
0000
0001
0000
,  // measure 17
1000
0100
0010
0200
0000
1300
0001
1000
,  // measure 18
0010
0100
0001
2000
0000
0001
3001
1000
,  // measure 19
1100
1001
0101
0110
,  // measure 20
1010
0000
0000
1000
0001
0000
0020
0000
0000
0000
0100
0000
0130
0000
1000
0000
,  // measure 21
0001
0100
0010
0200
0000
0301
1000
0001
,  // measure 22
0010
0100
1000
0002
0000
1000
1003
0000
,  // measure 23
0101
1010
1001
MMMM
,  // measure 24
1200
0000
0310
1200
0000
0301
0100
1000
,  // measure 25
0010
0100
0000
0000
0100
0001
0000
0000
1000
0000
0100
0000
0001
0000
0100
0000
,  // measure 26
2100
0000
3001
2100
0000
3010
0100
0001
,  // measure 27
0021
0000
0130
2100
0000
3010
0100
0001
,  // measure 28
0201
0000
0310
0201
0000
1300
0100
0001
,  // measure 29
0010
0100
0000
0000
0100
1000
0000
0000
0001
0000
0100
0000
1000
0000
0100
0000
,  // measure 30
0102
0000
1003
0102
0000
0013
0100
1000
,  // measure 31
1001
0000
0110
2002
0000
3003
MMMM
0000
,  // measure 32
0001
0000
1000
0100
1000
0000
0010
0000
0100
0001
0000
0000
0001
1000
0000
0000
,  // measure 33
1000
0100
0001
0100
1000
0010
0100
0010
,  // measure 34
1000
0000
0001
0010
0001
0000
1000
0000
0001
0100
0000
0000
0100
1000
0000
0000
,  // measure 35
1100
1100
1100
0000
0101
0101
0000
1001
,  // measure 36
1000
0000
0001
0100
0001
0000
0010
0000
0100
1000
0000
0000
1000
0001
0000
0000
,  // measure 37
0001
0100
1000
0100
0001
0010
0100
0010
,  // measure 38
0001
0000
1000
0010
1000
0000
0001
0000
1000
0100
0000
0000
0100
0001
0000
0000
,  // measure 39
0101
0101
0101
0000
1100
1100
0000
1001
,  // measure 40
0001
1000
0001
1000
0010
0100
0001
1000
0001
0000
0000
0000
MMMM
0000
0000
0000
,  // measure 41
1000
0000
0001
0100
0001
0000
1000
0010
1000
0000
0001
0010
0100
0000
1000
0000
,  // measure 42
0001
0100
1000
0001
0010
1000
0001
0010
,  // measure 43
0100
0000
1000
0001
1000
0000
0010
0100
0001
0000
1000
0000
0100
0000
1002
0000
,  // measure 44
0000
0000
0103
0010
1000
0000
0001
0000
0020
0000
0000
0000
0000
0000
0000
0000
,  // measure 45
0000
0000
0000
0000
0000
0000
0000
0000
0031
0000
1000
0100
1000
0000
0001
0010
,  // measure 46
0001
0000
1000
0010
0100
0000
0001
0000
1000
0000
0100
0000
0001
0000
1000
0000
,  // measure 47
0010
0000
0001
0000
1000
0000
0010
0000
0100
0000
0001
1000
0001
0000
0010
0100
,  // measure 48
1000
0000
0001
0000
0100
0000
2001
0000
0000
0000
3100
0010
0001
0000
1000
0000
,  // measure 49
1001
0000
0000
0000
MMMM
0000
0000
0000
1002
0000
0000
0100
0000
0000
0013
0000
,  // measure 50
0200
0000
0000
1000
0000
0000
0310
0000
0001
0000
1000
0001
1000
0000
0010
0000
,  // measure 51
0100
0000
1001
0000
0001
0010
1000
0001
,  // measure 52
0100
1000
0010
0100
1001
0000
0110
0000
,  // measure 53
1001
0000
0000
0000
0110
0000
0000
0000
2001
0000
0000
0100
0000
0000
3010
0000
,  // measure 54
0200
0000
0000
0001
0000
0000
0310
0000
1000
0000
0001
1000
0001
0000
0010
0000
,  // measure 55
0100
0000
0000
0000
1001
0000
0000
0000
1000
0010
1000
0010
0100
0001
0100
0001
,  // measure 56
0010
0100
0010
0100
1000
0001
1000
0001
1000
0000
0000
0000
0110
0000
0000
0000
,  // measure 57
2002
3003
0000
0000
;
