#TITLE:Novi plan drugi san;
#SUBTITLE:;
#ARTIST:Filip Baloš;
#TITLETRANSLIT:;
#SUBTITLETRANSLIT:;
#ARTISTTRANSLIT:Filip Balos;
#GENRE:;
#CREDIT:;
#BANNER:;
#BACKGROUND:;
#LYRICSPATH:;
#CDTITLE:;
#MUSIC:Novi plan drugi san.ogg;
#OFFSET:-0.137000;
#SAMPLESTART:30.613016;
#SAMPLELENGTH:12.000000;
#SELECTABLE:YES;
#BPMS:0.000000=124.999992
,48.000000=62.499996
,56.000000=124.999992
,152.000000=62.499996
,168.000000=124.999992
;
#STOPS:
;
#BGCHANGES:;
#KEYSOUNDS:;
#ATTACKS:;

//---------------dance-single - ----------------
#NOTES:
     dance-single:
     :
     Hard:
     15:
     0.661266,0.686050,0.323311,0.433709,0.808277,587.000000,546.000000,41.000000,55.000000,0.000000,0.000000,0.661266,0.686050,0.323311,0.433709,0.808277,587.000000,546.000000,41.000000,55.000000,0.000000,0.000000:
0000
0000
0000
0000
,
0000
0000
0000
0000
,
0000
0000
0000
0000
,
0000
0000
0000
0000
,
0000
0000
0000
0000
2000
0000
0000
0000
0001
0000
0000
0000
3001
0100
0001
0000
,
1000
0000
0001
0010
0000
0001
1000
0000
0010
0000
0001
0000
0010
0000
1000
0000
,
0001
0000
0000
0011
0000
0000
1002
0000
0000
0000
1003
0000
0010
1000
0001
1000
,
0001
0000
0100
0001
0000
0010
0002
0000
0000
0000
1003
0000
0010
0000
1000
0000
,
0100
0000
0000
1200
0000
0000
0010
0000
0000
0000
1300
0000
0001
1000
0001
1000
,
0001
0000
0100
0000
2000
0000
3100
0002
0000
0000
0000
1003
0010
0000
0100
0000
,
0110
0000
0000
1000
0100
0000
1000
0000
1001
0000
0000
0001
0100
0000
0001
0000
,
0010
0000
0001
0000
0010
0000
1000
0000
0010
0001
0010
0001
1000
0001
1000
0010
,
1000
0000
0000
1010
0000
0000
2001
0000
0000
0000
3010
0000
0100
0000
0120
0000
0000
0000
0000
0000
1030
0000
0100
0000
2000
0000
0000
0000
3001
0000
0100
0000
,
0010
0000
0000
0100
0000
0000
0102
0000
0000
0000
1003
0000
0001
0000
2000
0000
0000
0000
0000
0000
3010
0000
0100
0000
0020
0000
0000
0000
1030
0000
0001
0000
,
1000
0100
0010
0001
1000
0000
0001
0000
1000
0100
0010
0001
1000
0000
0001
0000
,
1000
0100
0001
0100
2000
0000
3010
0200
0000
0000
0301
0000
1000
0000
0000
0000
,
0001
0010
0100
1000
0001
0000
1000
0000
0001
0010
0100
1000
0001
0000
1000
0000
,
0001
0010
1000
0010
0002
0000
0103
0020
0000
0000
1030
0000
0001
0100
0001
1000
,
0001
0010
0100
1000
0010
0000
0010
0000
1000
0100
0010
0001
0100
0000
0100
0000
,
0001
0100
1000
0100
0002
0000
0103
0020
0000
0000
0130
0000
0001
0010
0100
0000
,
1000
0100
0010
0001
0100
0000
0100
0000
0001
0010
0100
1000
0010
0000
0010
0000
,
1000
0010
0001
0010
2000
0000
3010
0200
0000
0000
0310
0000
1000
0100
0010
0001
,
0100
0100
0000
0000
0101
0000
0000
0000
0001
0001
0000
0000
1010
0000
0000
0000
,
1000
0100
0010
0001
0200
0000
0310
2000
0000
0000
3000
0001
0100
0000
0101
0000
,
1000
1000
0000
0000
1100
0000
0000
0000
0100
0100
0000
0000
0011
0000
0000
0000
,
0001
0010
0100
1000
0020
0000
0130
0002
0000
0000
1003
0000
0000
1001
0000
0000
,
0001
0001
0000
0000
0101
0000
0000
0000
0100
0100
0000
0000
1010
0000
0000
0000
,
1000
0100
0010
0001
0200
0000
0301
0020
0000
0000
0000
0031
0100
0000
0110
0000
,
1000
0100
0010
0001
1000
0000
1000
0000
0001
0010
0100
1000
0001
0000
0001
0000
,
1000
0010
0100
0001
0020
0000
0031
1000
0000
0000
0010
0000
0000
0110
0000
0000
,
1001
0000
0000
0011
0000
0000
1100
0000
0000
0000
1010
0000
0000
1000
0001
2000
,
0001
0000
0100
0000
3001
0000
0100
0002
1000
0000
0010
0000
1003
0000
0001
0000
,
0100
0000
0010
0000
0100
0000
0001
0000
0010
0000
0002
0000
0100
0003
0001
1000
,
0001
0000
0010
0000
1000
0000
0010
0001
1000
0000
0001
0000
1001
0000
0000
0000
,
1000
0100
0010
0001
0010
0100
1000
0100
0010
0001
0010
0100
1000
0000
0000
0000
,
0001
0010
0100
1000
0100
0010
0001
0010
0100
1000
0100
0010
0001
0000
0000
0000
,
1000
0100
0010
0001
1000
0100
0010
0001
1000
0010
0001
0010
1000
0000
0100
0000
,
1000
0010
1000
0001
0001
1000
1000
0000
,
0001
0000
0000
0101
0000
0000
1002
0000
0000
0000
0103
0000
0010
0000
0210
0000
0000
0000
0000
0000
0301
0000
0010
0000
0002
0000
0000
0000
1003
0000
0010
0000
,
0100
0000
0000
0010
0000
0000
2010
0000
0000
0000
3001
0000
1000
0000
0002
0000
0000
0000
0000
0000
0103
0000
0010
0000
0200
0000
0000
0000
0301
0000
1000
0000
,
0001
0000
0000
0010
0000
0000
0120
0000
0000
0000
0031
0000
1000
0000
2100
0000
0000
0000
0000
0000
3010
0000
0100
0000
0001
0000
0100
0000
0010
0000
1000
0000
,
0001
0000
0000
1000
0000
0000
1002
0000
0000
0000
0103
0000
0010
0000
2000
0000
0000
0000
3100
0000
0010
0000
0001
0000
1000
0000
0001
0000
1000
0000
0001
0000
,
1000
0100
0010
0001
1000
0000
0001
0000
1000
0100
0010
0001
1000
0000
0001
0000
,
1000
0010
0001
0010
2000
0000
3010
0200
0000
0000
0310
1000
0001
0000
1000
0000
,
0001
0010
0100
1000
0001
0000
1000
0000
0001
0010
0100
1000
0001
0000
1000
0000
,
0001
0100
1000
0100
0002
0000
0103
0010
1000
0100
0001
0100
1000
0100
0010
0001
,
1000
0100
0010
0001
0100
0000
0100
0000
0001
0010
0100
1000
0010
0000
0010
0000
,
1000
0010
0001
0010
2000
0000
3010
0200
0000
0000
0310
0000
1000
0100
0010
0000
,
0001
0010
0100
1000
0010
0000
0010
0000
1000
0100
0010
0001
0100
0000
0100
0000
,
0001
0100
1000
0100
0002
0000
0103
0020
0000
0000
0130
0000
0001
0010
0100
1000
,
0010
0010
0000
0000
1010
0000
0000
0000
1000
1000
0000
0000
0101
0000
0000
0000
,
0001
0010
0100
1000
0020
0000
0130
0002
0000
0000
0003
1000
0010
0000
1010
0000
,
0001
0001
0000
0000
0011
0000
0000
0000
0010
0010
0000
0000
1100
0000
0000
0000
,
1000
0100
0010
0001
0200
0000
0310
2000
3001
1000
0010
1000
0200
0000
1300
0001
,
1000
1000
0000
0000
1010
0000
0000
0000
0010
0010
0000
0000
0101
0000
0000
0000
,
0001
0010
0100
1000
0020
0000
1030
0200
0000
0000
0000
1300
0010
0000
0110
0000
,
0001
0010
0100
1000
0001
0000
0001
0000
1000
0100
0010
0001
1000
0000
1000
0000
,
0001
0100
0010
1000
0200
0000
1300
0001
0000
0000
0100
0000
0000
0110
0000
0000
,
1001
0000
0000
0000
;

//---------------dance-single - ----------------
#NOTES:
     dance-single:
     :
     Medium:
     10:
     0.461872,0.548840,0.165598,0.212912,0.110399,410.000000,389.000000,21.000000,27.000000,0.000000,0.000000,0.461872,0.548840,0.165598,0.212912,0.110399,410.000000,389.000000,21.000000,27.000000,0.000000,0.000000:
0000
0000
0000
0000
,
0000
0000
0000
0000
,
0000
0000
0000
0000
,
0000
0000
0000
0000
,
0000
0000
2000
0000
0001
0000
3001
0100
,
0001
0010
0100
1000
0100
0010
0001
1000
,
0002
0000
0000
1000
0000
0000
1003
0000
0000
0000
1001
0000
1000
0000
0001
0000
,
1000
0100
0010
0001
0010
0100
1000
0100
,
2000
0000
0000
0010
0000
0000
3010
0000
0000
0000
1010
0000
0010
0000
1000
0000
,
0010
0100
0001
0010
0001
0010
0100
1000
,
0001
0000
0000
0100
0000
0000
0001
0000
1000
0000
0000
0100
0000
0000
1000
0000
,
0200
1000
0000
0010
2000
0000
0000
3300
,
1001
0000
0000
0101
0000
0000
2200
0000
3300
0000
0000
0000
1000
0000
0000
0000
0001
0000
0000
0000
1000
0000
0000
0000
0010
0000
0000
0000
1000
0000
0000
0000
,
1001
0000
0000
1010
0000
0000
0022
0000
0033
0000
0000
0000
0001
0000
0000
0000
1000
0000
0000
0000
0001
0000
0000
0000
0100
0000
0000
0000
0001
0000
0000
0000
,
1000
0100
0010
0001
1000
0100
0010
0001
,
1000
0100
0001
0100
2000
0001
0000
3001
,
1000
0100
0010
0001
1000
0100
0010
0001
,
1000
0010
0001
0010
2000
0000
3001
1000
,
0001
0010
0100
1000
0001
0010
0100
1000
,
0001
0100
1000
0100
0002
1000
0000
1003
,
0001
0010
0100
1000
0001
0010
0100
1000
,
0001
0010
1000
0010
0001
0100
0010
1000
,
0100
0000
1000
0000
0000
1000
0000
0000
0001
0000
0100
0000
0000
0100
0000
0000
,
0001
0100
1000
0100
0001
0010
0100
1000
,
0001
0000
0100
0000
0000
0100
0000
0000
0010
0000
1000
0000
0000
1000
0000
0000
,
0001
0010
0100
1000
0100
0010
0100
1000
,
0010
0000
0001
0000
0000
0100
0000
0000
1000
0000
0100
0000
0000
0001
0000
0000
,
0010
1000
0010
1000
0001
1000
0010
1000
,
0001
0010
0100
1000
0001
0010
0100
1000
,
0001
0100
1000
0100
0001
0010
0100
2000
,
0000
0000
0000
0010
0000
0000
3010
0000
0000
0000
1001
0000
0000
0000
0001
0000
,
0010
0001
0100
0001
0010
0100
1000
0010
,
0100
0002
0000
1003
0200
0000
0300
1000
,
0010
0100
0010
1000
0010
0100
0010
0000
,
1000
0100
0010
0001
0010
0100
1000
0000
,
0001
0010
0100
1000
0100
0010
0001
0000
,
1000
0100
0010
0001
1000
0100
0010
0001
,
1000
0001
0100
0001
0010
0001
1000
0000
,
1001
0000
0000
0011
0000
0000
0202
0000
0303
0000
0000
0000
0010
0000
0000
0000
0100
0000
0000
0000
0001
0000
0000
0000
1000
0000
0000
0000
0001
0000
0000
0000
,
1001
0000
0000
1100
0000
0000
2020
0000
3030
0000
0000
0000
0100
0000
0000
0000
0010
0000
0000
0000
1000
0000
0000
0000
0001
0000
0000
0000
1000
0000
0000
0000
,
1001
0000
0000
0101
0000
0000
2200
0000
3300
0000
0000
0000
1000
0000
0000
0000
0001
0000
0000
0000
1000
0000
0000
0000
0010
0000
0000
0000
1000
0000
0000
0000
,
1001
0000
0000
1010
0000
0000
0022
0000
0033
0000
0000
0000
0001
0000
0000
0000
1000
0000
0000
0000
0001
0000
0000
0000
0100
0000
0000
0000
0001
0000
0000
0000
,
1000
0100
0010
0001
1000
0100
0010
0001
,
1000
0100
0001
0100
2000
0001
0000
3001
,
1000
0100
0010
0001
1000
0100
0010
0001
,
1000
0010
0001
0010
2000
0000
3001
1000
,
0001
0010
0100
1000
0001
0010
0100
1000
,
0001
0100
1000
0100
0002
1000
0000
1003
,
0001
0010
0100
1000
0001
0010
0100
1000
,
0001
0010
1000
0010
0001
0100
0010
1000
,
0200
0000
0000
0000
1300
0000
0000
0000
0001
0000
0100
0000
0000
0100
0000
0000
,
0001
0100
1000
0100
0001
0010
0100
1000
,
0001
0000
0100
0000
0000
0100
0000
0000
0010
0000
1000
0000
0000
1000
0000
0000
,
0001
0010
0100
1000
0100
0010
0100
1000
,
0010
0000
0001
0000
0000
0100
0000
0000
1000
0000
0100
0000
0000
0001
0000
0000
,
0010
1000
0010
1000
0001
1000
0010
1000
,
0001
0010
0100
1000
0001
0010
0100
1000
,
0001
0100
1000
0100
0001
0010
1000
0010
,
0001
0000
0000
0000
;

//---------------dance-single - ----------------
#NOTES:
     dance-single:
     :
     Easy:
     4:
     0.221924,0.251551,0.070971,0.149827,0.000000,197.000000,188.000000,9.000000,19.000000,0.000000,0.000000,0.221924,0.251551,0.070971,0.149827,0.000000,197.000000,188.000000,9.000000,19.000000,0.000000,0.000000:
0000
0000
0000
0000
,
0000
0000
0000
0000
,
0000
0000
0000
0000
,
0000
0000
0000
0000
,
0000
1000
0010
1000
,
0100
1000
0010
0100
,
0001
0100
0001
0010
,
0001
0010
0100
1000
,
0010
0100
0010
1000
,
0010
0100
0001
0010
,
0001
1000
0001
0010
,
0001
0010
0100
1000
,
0020
0230
0302
2003
,
3002
2003
3000
1001
,
1000
0100
0010
0001
,
0010
0100
1000
0000
,
0001
0010
0100
1000
,
0100
0010
0001
0000
,
1000
0010
0001
0010
,
1000
0100
0010
0000
,
0001
0100
1000
0100
,
0001
0010
0100
0000
,
1000
1000
0001
0001
,
1000
0100
0010
0000
,
0001
0001
1000
1000
,
0001
0010
0100
0000
,
0010
0010
0100
0100
,
1000
0100
0010
0000
,
0001
1000
0001
1000
,
0001
0100
0010
0100
,
0020
0000
0000
0030
,
0110
0000
1001
0000
,
2000
0000
0000
3000
,
1100
0000
0011
0000
,
1000
0010
1000
0100
,
1000
0001
1000
0010
,
1000
0100
0010
0001
,
1000
0010
0001
0010
,
2000
3020
0230
0302
,
0023
0230
0300
0110
,
2002
3003
2000
3002
,
0203
0300
0110
1001
,
0001
0010
0100
1000
,
0100
0010
0001
0000
,
1000
0100
0010
0001
,
0010
0100
1000
0000
,
0001
0100
1000
0100
,
0001
0010
0100
0000
,
1000
0010
0001
0010
,
1000
0100
0010
0000
,
0001
0001
1000
1000
,
0001
0010
0100
0000
,
1000
1000
0001
0001
,
1000
0100
0010
0000
,
0100
0100
0010
0010
,
0001
0010
0100
0000
,
1000
0001
1000
0001
,
1000
0010
0100
0010
,
0100
0000
0000
0000
;

//---------------dance-single - ----------------
#NOTES:
     dance-single:
     :
     Beginner:
     2:
     0.128423,0.228683,0.070971,0.118284,0.000000,114.000000,105.000000,9.000000,15.000000,0.000000,0.000000,0.128423,0.228683,0.070971,0.118284,0.000000,114.000000,105.000000,9.000000,15.000000,0.000000,0.000000:
// measure 0
0000
0000
0000
0000
,  // measure 1
0000
0000
0000
0000
,  // measure 2
0000
0000
0000
0000
,  // measure 3
0000
0000
0000
0000
,  // measure 4
0000
2000
0000
0000
,  // measure 5
0000
0000
0000
3000
,  // measure 6
0001
0200
0000
0000
,  // measure 7
0000
0000
0000
0300
,  // measure 8
0010
2000
0000
0000
,  // measure 9
0000
0000
0000
3000
,  // measure 10
0001
0000
1000
0000
,  // measure 11
0001
0000
1000
0000
,  // measure 12
2002
0000
3003
0110
,  // measure 13
2002
3003
0001
1000
,  // measure 14
0001
0000
0001
0000
,  // measure 15
1000
0000
1000
0000
,  // measure 16
0010
0000
0010
0000
,  // measure 17
0100
0000
0100
0000
,  // measure 18
0001
0000
1000
0000
,  // measure 19
0001
0000
0010
0000
,  // measure 20
0001
0000
1000
0000
,  // measure 21
0001
0000
0100
0000
,  // measure 22
0010
0000
0010
0000
,  // measure 23
0100
0000
0001
0000
,  // measure 24
1000
0000
1000
0000
,  // measure 25
0100
0000
1000
0000
,  // measure 26
0001
0000
0001
0000
,  // measure 27
0100
0000
0010
0000
,  // measure 28
1000
0000
0001
0000
,  // measure 29
1000
0000
0001
0000
,  // measure 30
1000
0000
1000
0000
,  // measure 31
0010
0000
0010
0000
,  // measure 32
1000
0000
1000
0000
,  // measure 33
0100
0000
0100
0000
,  // measure 34
1000
0000
0100
0000
,  // measure 35
0010
0000
0001
0000
,  // measure 36
1000
0000
0100
0000
,  // measure 37
0010
0000
0001
0000
,  // measure 38
2002
0000
3003
0110
,  // measure 39
2002
3003
0001
1000
,  // measure 40
2002
0000
3003
0110
,  // measure 41
2002
3003
0001
1000
,  // measure 42
0001
0000
0001
0000
,  // measure 43
1000
0000
1000
0000
,  // measure 44
0010
0000
0010
0000
,  // measure 45
0100
0000
0100
0000
,  // measure 46
0001
0000
1000
0000
,  // measure 47
0001
0000
0010
0000
,  // measure 48
0001
0000
1000
0000
,  // measure 49
0001
0000
0100
0000
,  // measure 50
0010
0000
0010
0000
,  // measure 51
0100
0000
0001
0000
,  // measure 52
1000
0000
1000
0000
,  // measure 53
0100
0000
1000
0000
,  // measure 54
0001
0000
0001
0000
,  // measure 55
0100
0000
0010
0000
,  // measure 56
1000
0000
0001
0000
,  // measure 57
1000
0000
0001
0000
,  // measure 58
1000
0000
0000
0000
;
