#VERSION:0.83;
#TITLE:No way;
#SUBTITLE:;
#ARTIST:影虎。;
#TITLETRANSLIT:;
#SUBTITLETRANSLIT:;
#ARTISTTRANSLIT:Kagetora.;
#GENRE:;
#CREDIT:;
#MUSIC:No way.ogg;
#BANNER:No way.png;
#BACKGROUND:No way-bg.png;
#CDTITLE:;
#SAMPLESTART:86.628;
#SAMPLELENGTH:15.000;
#SELECTABLE:YES;
#OFFSET:1.497;
#BPMS:0.000=160.000
,40.000=319.000
,42.000=322.000
,42.500=325.500
,43.000=160.000
,50.000=321.000
,52.000=160.000
,68.000=321.000
,68.750=160.000
,70.000=321.000
,70.750=160.000
,72.000=320.750
,75.000=160.000
,196.000=321.000
,200.000=160.000
,203.000=321.000
,204.000=160.000
,206.000=321.000
,208.000=160.000
,211.000=320.000
,213.000=160.000
,215.000=80.000
,216.000=160.000
,228.000=320.750
,231.000=160.000
,262.000=321.000
,264.000=160.000
,276.000=320.750
,280.000=160.000
,305.500=319.500
,308.500=640.000
,310.500=160.000
;
#STOPS:40.000=0.094
,40.500=0.047
,40.750=0.047
,41.000=0.047
,41.250=0.047
,41.500=0.094
,42.000=0.094
,42.500=0.094
,50.000=0.141
,50.750=0.141
,51.500=0.094
,68.000=0.141
,70.000=0.141
,72.000=0.141
,72.750=0.141
,73.500=0.141
,74.250=0.141
,104.000=0.189
,104.500=0.187
,105.000=0.186
,105.500=0.188
,134.000=0.189
,134.500=0.187
,135.000=0.186
,135.500=0.188
,196.000=0.094
,196.500=0.047
,196.750=0.047
,197.000=0.094
,197.500=0.094
,198.000=0.188
,199.000=0.188
,203.000=0.094
,203.500=0.094
,206.000=0.094
,206.500=0.094
,207.000=0.094
,207.500=0.047
,207.750=0.047
,228.000=0.188
,229.000=0.047
,229.250=0.047
,229.500=0.047
,229.750=0.047
,230.000=0.094
,230.500=0.094
,262.000=0.188
,263.000=0.094
,263.500=0.094
,276.000=0.094
,276.500=0.141
,277.250=0.141
,278.000=0.141
,278.750=0.141
,279.500=0.094
,292.000=0.189
,292.500=0.187
,293.000=0.186
,293.500=0.188
,301.000=0.188
,305.500=0.140
,306.250=0.140
,307.000=0.141
,307.750=0.141
;
#SCROLLS:0.000=1.000,
58.000=0.750,
60.000=1.000,
104.000=0.950,
104.500=0.900,
105.000=0.850,
105.500=0.800,
106.000=0.750,
134.000=0.800,
134.500=0.850,
135.000=0.900,
135.500=0.950,
136.000=1.000,
164.000=0.950,
164.250=0.940,
164.500=0.930,
164.750=0.920,
165.000=0.900,
165.250=0.890,
165.500=0.880,
165.750=0.870,
166.000=0.850,
166.250=0.840,
166.500=0.830,
166.750=0.820,
167.000=0.800,
167.250=0.790,
167.500=0.780,
167.750=0.770,
168.000=0.750,
192.000=0.800,
193.500=0.900,
195.000=0.950,
196.000=1.000,
292.000=0.950,
292.500=0.900,
293.000=0.850,
293.500=0.800,
294.000=0.750,
301.000=1.000
;
#DISPLAYBPM:160.000;
#BGCHANGES:;
#FGCHANGES:;

//--------------- dance-single - chronon ----------------
#NOTEDATA:;
#STEPSTYPE:dance-single;
#DESCRIPTION:chronon;
#DIFFICULTY:Beginner;
#METER:6;
#RADARVALUES:0,0,0,0,0;
#NOTES:
0000
0000
0000
0000
,
0000
0000
0000
0000
,
0000
0000
0000
0000
,
0000
0000
0000
0000
,
0000
0000
0000
0000
,
0000
0000
0000
0000
,
0000
0000
0000
0000
,
0001
0000
0010
0000
,
0100
0000
1000
0000
,
2002
0000
0000
0000
,
3003
0000
0000
0000
,
1000
0100
0100
1000
,
0001
0000
0200
0000
,
0301
0100
0010
0000
,
1000
0000
0001
1000
,
0001
0000
0010
0100
,
1000
0000
1000
0010
,
2000
0000
0000
3000
0000
0000
0000
0000
0002
0000
0000
0003
0000
0000
0000
0000
,
2000
0000
0000
3000
,
0001
0000
0010
0000
,
0100
0100
1000
0000
,
0001
0000
0100
0000
,
0010
0010
1000
0000
,
1000
0000
0100
0000
,
0010
0010
0001
0000
,
2002
0000
0000
0000
,
3003
0000
1000
0010
,
0100
0001
1000
0000
,
0001
0000
1000
0000
,
0100
0010
0001
0000
,
0100
0010
1000
0010
,
0100
0001
1000
0000
,
0001
0000
0010
0000
,
0100
0010
0001
0000
,
1000
0000
0010
0000
,
0100
0001
1000
0000
,
0001
0000
0010
0000
,
0100
0000
1000
0000
,
0001
0000
0010
0000
,
0100
1000
0001
0000
,
1000
0000
0010
0000
,
0100
0000
0000
0000
,
0001
0000
0000
0000
,
1000
0000
0000
0000
,
0100
0000
0000
0000
,
0000
0000
0000
0000
,
0010
0000
0000
0000
,
0000
0000
0000
0000
,
0001
0000
0000
0000
,
1001
0000
0000
0000
,
1000
0100
0010
0001
,
1000
0010
0100
0000
,
0001
0100
0010
1000
,
0000
0000
0000
0000
,
0001
0010
0100
1000
,
0001
0000
1000
0000
,
0001
0100
0010
1000
,
0001
0000
0000
0000
,
1000
0100
0010
0010
,
0001
1000
0001
0000
,
0001
0100
0010
0010
,
1000
0001
1000
0001
,
1000
0100
0010
0010
,
0001
1000
0001
0000
,
1000
0000
0010
0000
,
0100
0000
0001
0000
,
1000
0000
0100
0000
,
0010
0100
1000
0000
,
0001
0000
0100
0000
,
0020
0000
0000
0000
,
1030
0000
0010
0000
,
0100
0010
1000
0000
,
0001
0000
0010
0100
,
0010
0000
0001
0100
,
0010
1000
0001
0000
,
1000
0000
0001
0000
0000
0100
0000
0000
,
0000
0001
0000
2000
0000
0000
0000
0000
,
0000
0000
0000
0000
0000
3000
0000
0000
;

//--------------- dance-single - chronon ----------------
#NOTEDATA:;
#STEPSTYPE:dance-single;
#DESCRIPTION:chronon;
#DIFFICULTY:Easy;
#METER:9;
#RADARVALUES:0,0,0,0,0;
#NOTES:
0000
0000
0000
0000
,
0000
0000
0000
0000
,
0000
0000
0000
0000
,
0000
0000
0000
0000
,
0000
0000
0000
0000
,
0000
0000
0000
0000
,
0000
0000
0000
0000
,
1000
0010
0100
0010
,
1000
0001
1000
0000
0100
0010
0100
0000
,
2002
0000
0000
3003
,
0002
0000
0000
0003
,
0100
0000
1000
0000
0100
0000
0010
0010
,
1000
0000
0000
0000
0100
0000
0000
0000
0010
0000
0000
0100
0000
0000
0010
0000
,
0001
0000
0200
0000
0310
0000
0010
0010
,
0100
0000
0001
0000
1000
0000
0100
0010
,
0001
1000
0001
0000
0100
0000
0010
0010
,
1000
0100
2000
3010
,
1000
0000
0000
1000
0000
0000
0000
0000
0001
0000
0000
0001
0000
0000
0000
0000
,
1000
0000
0000
0100
0000
0000
0010
0000
0000
0001
0000
0000
1000
0000
0000
0000
,
0010
0000
0000
0000
0100
0000
0000
0000
0010
0000
0000
0010
0000
0000
1000
0000
,
0000
0000
0001
0000
0010
0000
0000
0000
0100
0000
0000
0100
0000
0000
1000
0000
,
0002
0000
0000
2003
0000
0000
3002
0000
,
1003
0010
0100
0001
,
0100
0000
0000
0000
0010
0000
0000
0000
0100
0000
0000
0100
0000
0000
0001
0000
,
0000
0000
1000
0000
0100
0000
0000
0000
0010
0000
0000
0010
0000
0000
0001
0000
,
0200
0000
0000
0000
,
0302
0000
0203
0010
,
0001
0310
0100
0020
,
1000
0130
0010
1000
,
0001
0010
0100
1000
,
0001
1000
0200
0010
,
1000
0310
0100
0020
,
0001
0130
0010
0001
,
1000
0010
2000
0000
,
3001
0010
0100
1000
,
0001
0100
0010
0010
,
1000
0000
0000
0001
0000
0000
0000
0000
0001
0000
0000
1000
0000
0000
0000
0000
,
0100
0010
0001
1000
,
0001
0100
0010
1000
,
0001
0010
0100
0100
,
1000
0000
0000
0001
0000
0000
0000
0000
0001
0000
0000
1000
0000
0000
0000
0000
,
0002
0000
0000
0000
,
1003
0000
0000
0010
0000
0000
0000
0000
,
0100
0000
0000
0001
0000
0000
0000
0000
,
1000
0000
0000
0100
0000
0000
0010
0000
,
0000
0000
0000
0000
,
0001
0000
0000
1000
0000
0001
0000
1000
,
0000
0000
0100
0000
,
0010
0000
0000
0001
0000
0000
1000
0000
,
0002
0000
0000
0003
,
1000
0010
0100
0002
,
1003
0100
0020
0000
,
0031
0100
0010
2000
,
0000
3000
0000
0002
,
1003
0001
1000
0000
0100
0010
0100
0000
,
1000
0001
1000
0000
0010
0100
0010
0000
,
1000
0010
0100
0000
0010
0100
0001
0000
,
2002
0000
0000
3003
,
1000
0001
1000
0000
0100
0000
0010
0000
,
0001
1000
0001
0000
0100
0000
0010
0000
,
1000
0000
0010
0100
0001
0000
1000
0000
,
0001
0010
0100
1000
,
0001
1000
0001
0000
0100
0000
0010
0000
,
1000
0001
1000
0000
0100
0000
0010
0000
,
1000
0010
0001
1000
,
0010
0100
0002
0000
,
1003
0000
0100
0000
0010
0100
1000
0000
,
0001
0000
0100
0000
0010
0100
0001
0000
,
1000
0000
0100
0000
0010
0100
1000
0000
,
0001
0000
1000
0000
0000
0001
0000
0000
1000
0000
0000
0001
0000
0000
1000
0000
,
0001
0000
0010
0000
0100
0010
0001
0000
,
1000
0000
0010
0000
0100
0010
1000
0000
,
0001
0000
0010
0000
0100
0010
0100
0000
,
2000
0000
3020
0100
,
1000
0130
0010
0100
,
0001
0000
2002
3003
0000
1000
0000
0100
,
0000
0000
0010
0000
0000
0000
0001
0000
0000
1000
0000
0000
0010
0000
0000
1000
,
0000
2002
0000
0000
0000
3003
0000
0000
;

//--------------- dance-single - chronon ----------------
#NOTEDATA:;
#STEPSTYPE:dance-single;
#DESCRIPTION:chronon;
#DIFFICULTY:Medium;
#METER:13;
#RADARVALUES:0,0,0,0,0;
#NOTES:
0000
0000
0000
0000
,
0000
0000
0000
0000
,
0000
0000
0000
0000
,
0000
0000
0000
0000
,
0000
0000
0000
0000
,
0000
0000
0000
0000
,
0000
0000
0000
0000
,
0001
0100
0010
0100
0001
0010
0100
0000
,
1000
0100
0010
0100
1000
0010
0100
0000
,
2002
0000
0000
3003
,
2000
0000
0000
0000
3001
1000
1001
0000
,
0001
0000
0010
0000
1000
0000
0000
0010
0000
0000
0100
0000
1000
0000
1000
0000
,
0001
0000
0100
0000
0010
0000
0200
0000
1000
0000
0000
0010
0000
0000
0301
0000
,
0001
0100
0020
0000
0130
0010
1000
1000
,
0001
0000
0000
0000
0010
0000
0100
0000
1000
0001
0000
0001
0100
0000
0010
0000
,
0100
0000
0000
0000
0000
0000
1000
0000
0000
0000
0000
0000
0100
0000
0000
0000
0010
0000
0000
0000
0100
0000
0000
0000
0001
0000
0000
0000
0000
0000
1000
0000
0000
0001
0000
0000
1000
0000
0000
0000
0000
0000
1000
0000
0000
0000
0000
0000
,
0100
0010
0100
0000
2000
3020
0130
0001
,
0101
0000
0000
1002
0000
0000
0013
0000
0011
0000
0000
2001
0000
0000
3010
0000
,
1010
0000
0000
0110
0000
0000
0101
0000
0000
1001
0000
0000
1100
0000
0000
0000
,
1000
0000
0100
0000
0010
0000
0000
0000
0100
0000
1000
0001
0000
1000
0010
0000
,
1000
0000
0010
0000
0100
0000
0000
0000
1000
0000
0100
0010
0000
0100
0001
0000
,
1000
0000
0010
1000
0000
0100
1000
0100
,
0010
0001
1000
0001
0100
0000
0210
0000
,
0301
0000
0100
0000
0010
0000
0000
0000
0100
0000
0001
1000
0000
0001
0010
0000
,
0001
0000
0010
0000
0100
0000
0000
0000
0001
0000
0100
0010
0000
0100
1000
0000
,
0020
0000
0000
0000
,
0230
0300
0000
0000
0200
0300
0000
0000
0200
0300
0000
0000
0200
0300
0000
0000
0020
0000
0000
0000
0000
0000
0000
0000
0001
0000
0000
0000
0000
0000
0000
0000
,
0100
0000
0000
0000
1030
0000
0000
0000
0001
0000
0000
0020
0000
1000
0000
0000
,
0100
0000
0031
0000
1000
0010
0100
0000
,
0001
0010
0100
0010
0001
0000
1000
0000
,
0001
0100
0010
1000
0200
0000
0001
0000
,
0010
0000
0000
0000
1300
0000
0000
0000
0001
0000
0000
0200
0000
1000
0000
0000
,
0010
0000
0301
0000
0010
0010
0100
0010
,
0001
0000
0000
0000
0000
0000
0000
0000
0100
0000
0000
0000
0100
0000
0000
0000
0020
0030
0000
0000
0020
0030
0000
0000
0020
0030
0000
0000
0020
0030
0000
0000
,
1000
0000
0010
0000
0100
0000
0000
0010
0000
0000
0010
0000
1000
0000
0000
0000
,
0001
0000
0010
0000
0100
0010
0000
0100
1000
0000
0001
0000
1000
0000
0000
0000
,
0001
0000
0100
0010
0000
0100
0010
0000
1000
0000
0100
0010
0000
0100
0010
0000
,
0000
0000
0010
0000
0001
0000
0000
1000
0000
0000
1000
0000
0010
0000
0100
0000
,
0001
0000
0100
0000
0010
0000
0000
0100
0000
0000
0100
0000
0001
0000
0000
0000
,
1000
0000
0100
0000
0010
0100
0000
0010
0001
0000
1000
0000
0001
0000
0000
0000
,
1000
0000
0010
0100
0000
0010
0100
0000
0001
0000
0010
0100
0000
0010
0100
0000
,
2000
0000
0000
0000
,
3001
0000
0100
0020
0000
0000
0000
0000
,
0130
0000
0000
1000
0000
0000
0100
0000
,
0001
0000
0000
0010
0000
0000
0200
0000
,
0000
0000
0000
1300
,
0010
0000
0000
0100
0000
0010
0000
0100
,
0000
0001
1000
0100
,
0020
0000
0000
0032
0000
0000
0203
0000
,
0301
0000
0100
0002
1000
0000
0013
0000
,
0001
0000
0010
0100
0000
0010
0001
0000
1000
0001
0000
0000
0200
0000
0000
0000
,
0301
0000
0100
0010
0000
0100
0001
0000
1000
0000
0001
0000
2000
0000
0000
0000
,
3001
0000
0010
0100
0000
0010
0001
0000
1000
0001
0000
0000
0200
0000
0000
0000
,
0000
0000
0000
0000
0301
0000
0000
0100
0000
0000
1000
0000
0200
0320
0230
0302
,
1003
0100
0010
0100
1000
0001
1000
0000
,
0001
0100
0010
0100
0001
1000
0001
0000
,
1000
0100
0010
0100
1000
0100
0010
0001
,
2000
0000
0000
0000
3001
1000
0002
0000
,
0103
0000
0010
0000
1000
0010
0000
1000
0001
0000
1000
0100
0000
0010
0000
0010
,
0000
0001
0010
0000
0100
0010
0000
0001
0100
0000
0010
0000
0110
0000
0000
0000
,
0020
0000
0000
1000
0000
0000
0230
0000
0001
0000
0310
0000
0110
0000
0000
0000
,
0100
0001
0000
0100
0001
0000
1000
0100
0000
0010
0100
0000
0110
0000
0000
0000
,
0100
0000
0010
0000
0001
0010
0000
0001
1000
0000
0001
0100
0000
0010
0000
0010
,
0000
1000
0010
0000
0100
0010
0000
1000
0100
0000
0010
0000
0110
0000
0000
0000
,
0100
0010
0100
0000
0010
0000
0001
1000
0000
0010
0100
0000
0110
0000
0000
0000
,
0010
0000
0010
1000
0000
1000
0001
0000
2000
0000
0000
0000
0000
0000
0000
0000
,
3001
0000
0100
0010
0000
0000
0010
0100
0000
0001
0000
1000
0000
0100
0000
0010
,
0000
0100
0010
0000
0000
0010
0100
0000
1000
0000
0001
0000
1001
0000
0000
0000
,
1000
0000
0010
0100
0000
0000
0100
0010
0000
1000
0000
0001
0000
0010
0000
0100
,
0010
0000
0110
0000
0000
0011
0000
0000
0101
0000
0000
0110
0000
0000
1001
0000
,
0001
0000
0010
0100
0000
0000
0100
0010
0000
0001
0000
1000
0000
0010
0000
0100
,
0000
0010
0100
0000
0000
0100
0010
0000
1000
0000
0001
0000
1001
0000
0000
0000
,
0001
0100
0010
0100
0001
1000
0001
1000
,
0200
0300
0000
0000
0200
0300
0000
0000
0200
0300
0000
0000
0200
0300
0000
0000
0020
0000
0000
0000
0000
0000
0000
0000
1000
0000
0000
0000
0000
0000
0000
0000
,
0100
0000
0000
0000
0031
0000
0000
0000
1000
0000
0000
0010
0000
0000
0100
0000
,
0010
0000
0000
0000
0000
0000
0000
0000
2002
3003
0000
0000
1001
0000
0000
0000
1000
0000
0000
0000
0100
0000
0000
0000
0000
0000
0010
0000
0000
0000
0000
0000
,
0010
0000
0001
0000
0000
0000
0011
0000
0000
1001
0000
0000
1010
0000
0000
1001
,
0000
0220
0000
0000
0000
0330
0000
0000
;

//--------------- dance-single - chronon ----------------
#NOTEDATA:;
#STEPSTYPE:dance-single;
#DESCRIPTION:chronon;
#DIFFICULTY:Hard;
#METER:16;
#RADARVALUES:0,0,0,0,0;
#NOTES:
0000
0000
0000
0000
,
0000
0000
0000
0000
,
0000
0000
0000
0000
,
0000
0000
0000
0000
,
0000
0000
0000
0000
,
0000
0000
0000
0000
,
0000
0000
0000
0000
,
1000
0100
0010
0100
1000
0010
0100
0010
,
1000
0010
0100
0001
1000
0010
0100
0001
1000
0100
0010
0001
1000
0100
0010
0001
,
0200
0000
0000
0000
0000
0000
0000
0000
0301
0100
0010
0100
0001
1000
0001
0010
,
0200
0000
0000
0000
1300
0100
0120
0000
,
0031
0000
0010
0000
0100
1000
0000
0010
0000
0000
1000
0000
0010
0000
0010
0000
,
0100
0000
0001
0100
0010
0100
1000
0000
1100
0000
0000
0110
0000
0000
0101
0000
,
1002
0000
0013
0000
0100
2000
0000
0000
3010
0000
1000
0001
0010
0000
0010
0000
,
0001
0000
1000
0000
0010
0100
0001
1000
0001
0010
0000
0010
0100
0000
1000
0000
,
0100
0000
0000
0000
0000
0000
1100
0000
0000
0000
0000
0000
1000
0000
0000
0000
0001
0000
0000
0000
0100
0000
0000
0000
0010
0000
0000
0000
0000
0000
1000
0000
0000
0001
0000
0000
0010
0000
0000
0000
0000
0000
0010
0000
0000
0000
0000
0000
,
0001
0000
1000
0000
1100
0000
0000
0000
1000
0001
0010
0001
0200
0000
0010
0000
,
0301
0000
0000
0201
0000
0000
1000
0000
0301
0000
0000
0021
0000
0000
1000
0000
,
0031
0000
0000
0101
0000
0000
1010
0000
0000
1100
0000
0000
0120
0000
0000
0000
,
0031
1000
0001
0000
0100
0010
0000
1000
0001
0000
0010
0100
0000
1000
0001
0000
,
1000
0001
1000
0000
0100
0010
0000
0010
0100
0000
0001
0100
0000
0100
1000
0000
,
0001
0100
0010
0100
0001
0000
1000
0100
0010
0100
1000
0000
0001
1000
0001
0100
,
0001
1000
0010
0000
1000
0001
0010
0000
0100
0000
1000
0001
0000
1000
0010
0000
,
1000
0001
1000
0000
0100
0010
0000
0001
1000
0000
0010
0100
0000
0001
1000
0000
,
0001
1000
0001
0000
0100
0010
0000
0010
0100
0000
1000
0100
0000
0100
0010
0000
,
2010
0000
0000
0000
0001
0000
0000
0000
3100
1000
0100
0010
0001
1000
0001
0100
,
0020
0030
0000
0000
0020
0030
0000
0000
0020
0030
0000
0000
0020
0030
0000
0000
0210
0000
0000
0000
0000
0000
0000
0000
2000
0000
0000
0000
3000
0000
0000
0000
,
0020
0000
0030
0000
0302
0000
0000
0000
1003
0000
0000
0200
0000
0002
0000
0003
,
0020
0000
0030
0000
2300
0000
0000
0000
3001
0000
0100
0000
0010
0100
0001
0000
,
0001
1000
0100
0000
0100
1000
0001
0000
0010
0001
1000
0001
0100
0000
0100
0010
,
1000
0001
0010
0100
0010
0000
0100
0000
0120
0000
0000
0000
2000
0000
3000
0000
,
0200
0000
0300
0000
0032
0000
0000
0000
1003
0000
0000
0020
0000
0002
0000
0003
,
0200
0000
0300
0000
2030
0000
0000
0000
3100
0000
0100
0000
0010
0001
1000
0010
,
0100
0000
0000
0000
0100
0000
0001
0000
0010
0000
0000
0000
0010
0000
0000
0000
0200
0300
0000
0000
0200
0300
0000
0000
0200
0300
0000
0000
0200
0300
0000
0000
,
1000
0000
0100
0010
0000
0100
1000
0000
0001
0100
0000
0010
0000
0010
1000
0001
,
0010
0000
0010
0000
0100
1000
0000
1000
0001
0000
0100
0000
0120
0000
0000
0000
,
1030
0000
0010
0100
0000
0010
0100
0001
1000
0000
0100
0010
0000
0100
0010
0001
,
1000
0010
0100
0010
1000
0100
0110
0010
,
0001
0000
0010
0001
0000
0010
0100
0000
1000
0010
0000
0100
0000
0100
0001
1000
,
0100
0000
0100
0000
0010
0001
0000
0001
1000
0000
0010
0000
0210
0000
0000
0000
,
0301
0000
0100
0010
0000
0100
0010
1000
0001
0000
0010
0100
0000
0010
0100
1000
,
0020
0000
0000
0000
,
1030
0010
0100
0020
0000
0000
0000
0000
,
0230
0000
0000
2300
0000
0000
3200
0000
,
0302
0000
0000
2003
0000
0000
3200
0000
,
0000
0000
0000
2300
,
3020
0000
0000
0230
0000
0320
0000
2030
,
0000
0000
3001
1000
0010
1000
0001
0010
,
0200
0000
0000
0001
0000
0000
0010
0000
,
2300
0000
3100
0010
0110
0000
1001
0000
,
0001
0010
0100
1000
0001
0010
0100
1000
0001
0010
0100
1000
0001
0000
2010
0000
,
3001
0100
0010
1000
0001
0100
0010
1000
0001
0000
0010
0000
0100
0000
0010
0100
,
1000
0010
0100
0001
1000
0010
0100
0001
1000
0010
0100
0001
2000
0000
0000
0000
,
0000
0000
0000
0000
3001
0010
0100
1000
0001
0100
0010
0100
2000
3200
0302
0023
,
0031
0010
0100
0010
0001
0010
0100
0010
0001
1000
0010
1000
0001
1000
0010
1000
,
0001
0100
0010
0100
0001
0100
0010
0100
0001
1000
0100
1000
0001
1000
0100
1000
,
0001
0010
0100
1000
0100
0010
0100
1000
0001
0100
0010
1000
0010
0100
0001
1000
,
0200
0000
0000
0000
0310
0001
1000
0001
0100
0000
0010
0000
1000
0100
0010
0100
,
1000
0000
0001
0000
0200
0010
0000
0301
1000
0000
0100
0020
0000
0001
0000
0001
,
0000
0230
0010
0000
2300
0001
0000
3010
0100
0000
1000
0000
0100
0000
0001
0000
,
2000
0001
0000
3100
0000
2000
0001
0000
3010
0000
0100
0000
0010
0000
1000
0000
,
0020
0100
0000
2030
0001
0000
3200
0010
0000
2300
0001
0000
3010
0000
0001
0000
,
0010
0000
1000
0000
0200
0010
0000
1300
0001
0000
0100
0020
0000
1000
0000
1000
,
0000
0230
0010
0000
0302
1000
0000
0013
0100
0000
0001
0000
0100
0000
1000
0000
,
0001
0010
0100
1000
0000
1000
0001
1000
0000
1000
0010
0000
0100
0000
1000
0000
,
0100
0000
0010
0100
0000
0100
0001
0000
2001
0000
0000
0000
0010
0000
0010
0000
,
3001
0100
0010
0100
0000
0100
0010
2000
0000
0001
0000
3100
0000
1000
0000
0010
,
0000
0010
0100
0001
0000
0001
0100
0010
0001
0000
0010
0000
1000
0000
0001
0000
,
1000
0100
0010
0100
0000
0100
0010
0002
0000
1000
0000
0103
0000
0001
0000
0010
,
0100
0000
0110
0000
0000
0011
0000
0000
0101
0000
0000
1001
0000
0000
1010
0000
,
1000
0010
0100
0010
0000
0010
0100
0002
0000
1000
0000
0013
0000
0001
0000
0100
,
0000
0100
0010
1000
0000
1000
0100
0010
1000
0000
0010
0000
0001
0000
1000
0000
,
0001
0000
0001
0000
0100
0000
0100
0000
0010
1000
0001
0100
0010
0100
0001
1000
,
0200
0300
0000
0000
0200
0300
0000
0000
0200
0300
0000
0000
0200
0300
0000
0000
0020
0000
0000
0000
0000
0000
0000
0000
2000
0000
0000
0000
3000
0000
0000
0000
,
0200
0000
0300
0000
0032
0000
0000
0000
1003
0000
0000
0010
0000
0000
0100
0000
,
0110
0000
0000
0000
0000
0000
0000
0000
2002
3003
0000
0000
1001
0000
0000
0000
0001
0000
0000
0000
0010
0000
0001
0000
0000
0000
1000
0000
0000
0000
0000
0000
,
0001
0000
0100
0000
1000
0000
1100
0000
0000
0110
0000
0000
0101
0000
0000
0011
,
0000
0220
0000
0000
0000
0330
0000
0000
;
