#TITLE:西新宿清掃曲;
#SUBTITLE:;
#ARTIST:サイモンマン;
#TITLETRANSLIT:Nishishinjuku seisou kyoku;
#SUBTITLETRANSLIT:;
#ARTISTTRANSLIT:SIMONMAN;
#GENRE:;
#CREDIT:;
#MUSIC:Nishishinjuku seisou kyoku.ogg;
#BANNER:;
#BACKGROUND:;
#CDTITLE:;
#SAMPLESTART:37.191;
#SAMPLELENGTH:15.000;
#SELECTABLE:YES;
#OFFSET:-1.191;
#BPMS:0.000=140.000
,32.000=70.000
,33.000=35.000
,33.500=17.500
,34.000=70.000
,36.000=140.000
,159.000=280.000
,173.000=140.000
;
#STOPS:34.000=1.714;
#DISPLAYBPM:18.000:140.000;
#BGCHANGES:;
#FGCHANGES:;

//--------------- dance-single - eataninja ----------------
#NOTES:
     dance-single:
     eataninja:
     Beginner:
     3:
     0,0,0,0,0:
0000
0000
0000
0000
,
0000
0000
0000
0000
,
0000
0000
0000
0000
,
0000
0000
0000
0000
,
0000
0000
0000
0000
,
1000
0000
0001
0000
,
1000
0000
0001
0000
,
0100
0100
0100
0000
,
2002
0000
0000
0000
,
0000
0000
3003
0000
,
1000
0000
0100
0000
,
1000
0000
0100
0000
,
0010
0000
0001
0000
,
0010
0000
0001
0000
,
1000
0000
0010
0000
,
1000
0000
0010
0000
,
0100
0000
0100
0000
,
0100
0100
0100
0000
,
0001
0001
0000
0000
,
1000
1000
0000
0000
,
0100
0100
0000
0000
,
1000
1000
0000
0000
,
0001
0001
0000
0000
,
0100
0100
0000
0000
,
0010
0010
0010
0000
,
0010
0010
0010
0000
,
1000
0000
0001
0000
,
0010
0000
0100
0000
,
1000
0000
0001
0000
,
0100
0000
0010
0000
,
1000
0000
0001
0000
,
1000
0000
0001
0000
,
0010
0010
0010
0000
,
2002
0000
0000
0000
,
0000
0000
0000
0000
,
0000
0000
0000
0000
,
0000
0000
0000
0000
,
0000
0000
0000
0000
,
0000
0000
0000
0000
,
0000
0000
0000
0000
,
0000
0000
0000
0000
,
0000
0000
0000
0000
,
0000
0000
0000
0000
,
3003
0100
0100
0100
,
1000
0000
0001
0000
,
0100
0100
0000
0001
,
0000
1000
0000
0100
,
0100
0000
1000
0000
,
0001
0000
0010
0010
,
0000
0001
0000
1000
,
0000
0010
0010
0010
,
1000
1000
0000
0000
,
0001
0001
0000
0010
,
0010
0000
0000
0001
,
0001
0000
1000
1000
,
0000
0000
0010
0010
,
0000
0100
0100
0100
,
0000
0100
0100
0100
,
0001
0000
0000
0000
;

//--------------- dance-single - eataninja ----------------
#NOTES:
     dance-single:
     eataninja:
     Easy:
     6:
     0,0,0,0,0:
0000
0000
0000
0000
,
0000
0000
0000
0000
,
0000
0000
0000
0000
,
0000
0000
0000
0000
,
0000
0000
0000
0000
,
1001
0000
0110
0000
,
1001
0000
0110
0000
,
1001
0110
1001
0000
,
2200
0000
0300
0000
,
0010
0010
0010
3010
,
1000
0001
0010
0110
,
1000
0001
0100
0100
,
0001
1000
0100
0110
,
0001
1000
0010
0010
,
1000
0001
0100
0110
,
1000
0001
0010
0010
,
1001
0000
0110
0000
,
1001
0110
1001
0000
,
1000
1000
0100
0000
,
1000
1000
0001
0012
,
1003
1000
0100
0000
,
1000
1000
0010
1001
,
0001
0001
0010
0000
,
0001
0001
1000
2010
,
3001
0001
1000
1000
,
1001
0110
1001
0000
,
0001
0100
0010
1001
,
1000
0100
0010
0100
,
1000
0010
0100
1001
,
0001
0100
0010
0100
,
1001
0000
0110
0000
,
1001
0000
0110
0000
,
1001
0110
1001
0000
,
0001
0001
0100
0100
,
0010
0010
1000
1000
,
0100
0100
0010
0010
,
0001
0001
0100
0100
,
0010
0010
1000
1000
,
0100
0100
0010
0010
,
0001
0002
2000
0000
,
0000
0000
0000
0000
,
0000
0000
0000
0000
,
0000
0000
0000
0000
,
3003
1001
0110
1001
,
1000
0100
0010
1001
,
0001
0100
0010
0100
,
0001
0010
1001
1000
,
0100
0010
0001
0010
,
0100
1001
1000
0010
,
0100
1001
0000
0110
,
0000
1001
0110
1001
,
1000
1000
0010
0000
,
0010
0010
0100
0001
,
0001
0010
0000
0010
,
0010
0100
1000
1000
,
0001
0000
0001
0001
,
0100
0110
0001
0110
,
1000
1001
0110
1001
,
0001
0000
0000
0000
;

//--------------- dance-single - eataninja ----------------
#NOTES:
     dance-single:
     eataninja:
     Medium:
     10:
     0,0,0,0,0:
0000
0000
0000
0000
,
0000
0000
0000
0000
,
0000
0000
0000
0000
,
0000
0000
0000
0000
,
0000
0000
0000
0000
,
1001
0001
0110
0100
,
1001
1000
0110
0010
,
1001
0001
0100
0000
1001
1000
0100
0000
,
2002
0000
3000
0000
,
1003
0000
0001
0000
1000
0000
0000
0000
1100
0000
0000
0100
0010
0000
0001
0000
,
1000
0010
0001
0000
0010
1000
0200
0000
,
1300
0000
0100
0000
0001
0000
0000
0000
0100
0000
0000
0100
0010
0000
0000
0000
,
0001
0100
1000
0000
0100
0010
0100
0000
,
0001
0010
1000
0000
0010
0100
2100
0000
,
3001
0100
1000
0000
0100
0001
0020
0000
,
0031
0000
0010
0000
1000
0000
0000
0000
0010
0000
0000
0010
0100
0000
0000
0000
,
1100
1000
0001
0000
0101
0001
1000
0000
,
0010
1000
0100
1000
0010
0100
1001
0000
,
0001
0000
0000
0001
0000
0000
0010
0000
0100
0000
0000
0000
1002
0000
0000
0000
,
0013
0000
0000
0010
0000
0000
0100
0000
1000
0000
0010
0000
0010
0000
0000
0000
,
1000
0000
0000
1000
0000
0000
0010
0000
0100
0000
0000
0000
2001
0000
0000
0000
,
3100
0000
0000
0100
0000
0000
0010
0000
0001
0000
0100
0000
1000
0000
0000
0000
,
0100
0000
0000
0100
0000
0000
0010
0000
1000
0000
0000
0000
2001
0000
0000
0000
,
3010
0000
0000
0010
0000
0000
0100
0000
0001
0000
0010
0000
0010
0000
0000
0000
,
0011
0001
1000
0000
1010
1000
0001
0000
,
1000
0100
0001
0100
1000
0010
1001
0000
,
0001
0000
0100
0000
0010
0000
0000
0000
0100
0000
0000
0001
0010
0000
0100
0000
,
1000
0000
0001
0000
0100
0000
0000
0000
1000
0000
0000
0100
0001
0000
0000
0000
,
1000
0000
0010
0000
0100
0000
0000
0000
0010
0000
0000
1000
0100
0000
0010
0000
,
0001
0000
1000
0000
0010
0000
0000
0000
0001
0000
0000
0010
2000
0000
0000
0000
,
3001
0000
0000
0010
0200
0000
0000
0000
1300
0000
0000
0010
0200
0000
0000
0000
,
0301
0000
0000
0010
0200
0000
0000
0000
1300
0000
0000
0010
0200
0000
0000
0000
,
0301
0000
0000
1000
0100
0000
0000
1000
0001
0000
0000
1000
0100
0000
0000
1000
,
0001
0100
0001
0100
0001
0100
0001
0100
,
0001
1000
0001
1000
0001
1000
0001
1000
,
0100
1000
0100
1000
0100
1000
0100
1000
,
0100
0010
0100
0010
0100
0010
0100
0010
,
0001
0010
0001
0010
0001
0010
0001
0010
,
0001
1000
0001
1000
0010
0100
0001
0010
,
0100
1000
0010
0100
0002
2000
0000
0000
,
0000
0000
0000
0000
,
0000
0000
0000
0000
,
0000
0000
0000
0000
,
0000
3003
1001
0000
0110
0000
0101
0000
,
0001
0000
0100
0000
0010
0000
0000
0010
1000
0000
0100
0000
0001
0000
0000
0000
,
0100
0000
0010
0000
0001
0000
0000
1000
0001
0000
0000
0000
1000
0000
0010
0000
,
0001
0000
0010
1000
1001
0000
0001
0010
,
0100
0010
1001
0000
1000
0010
0100
0100
,
0001
0000
0010
0000
1000
0000
0000
0000
0010
0000
0100
0000
1000
0000
0000
0001
,
1000
0000
1010
1000
0001
0000
0011
0001
,
1000
0000
0100
0001
0100
1000
0001
0100
,
0010
0000
0000
0010
0000
0000
1000
0000
0001
0000
0100
0000
2001
0000
0000
0000
,
3001
0000
0000
0001
0000
0000
0100
0000
1000
0000
0100
0000
0010
0000
0000
0010
,
0000
0000
1000
0000
0001
0000
0010
0000
0012
0000
0000
0000
1003
0000
0000
1000
,
0000
0000
0010
0000
2001
0000
0000
0000
3100
0000
0000
0100
0000
0000
1000
0000
,
0001
0000
0100
0000
1002
0000
0000
0000
1003
0000
0000
1000
0000
0000
0100
0000
,
0001
0000
0100
0000
0010
0000
0000
0010
0000
0000
0001
0000
1000
0000
0000
1000
,
0000
0000
0010
0000
0100
0000
0000
0100
0000
0000
0001
0000
0010
0000
0100
0000
,
1001
0000
0000
0000
;

//--------------- dance-single - eataninja ----------------
#NOTES:
     dance-single:
     eataninja:
     Hard:
     14:
     0,0,0,0,0:
0000
0000
0000
0000
,
0000
0000
0000
0000
,
0000
0000
0000
0000
,
0000
0000
0000
0000
,
0000
0000
0000
0000
,
0001
0101
1000
1010
,
0001
0011
1000
1100
,
0001
0010
1000
0010
0100
1000
0010
0100
,
2002
0000
3000
0000
,
1003
0000
0010
0000
0001
0000
0000
0000
0011
0000
0000
0010
0100
0000
0010
0000
,
1000
0000
0001
0000
0020
0030
0000
0000
0010
0000
1000
0000
1001
0000
0000
0000
,
0001
0000
1000
0000
0010
0000
0000
0000
1020
0030
0000
0010
0001
0000
0000
0000
,
1000
0000
0001
0000
0200
0300
0000
0000
0100
0000
1100
0000
1001
0000
0000
0000
,
0001
0000
1000
0000
0100
0000
0000
0000
0020
0030
0010
1000
0001
0000
0000
0000
,
0001
0000
0100
0000
0020
0030
0000
0000
0010
0000
0001
0000
1100
0000
0000
0000
,
1000
0000
0100
0000
0010
0000
0000
0000
0210
0300
0000
0100
0001
0000
0000
0000
,
0001
0101
1001
0000
1000
1010
1001
0000
,
1000
0010
0001
0010
0100
0101
1001
0000
,
1000
0000
0001
0010
0001
0000
0100
0000
0020
0030
0010
0000
0011
0000
0000
0000
,
0001
0000
1000
0100
1000
0000
0010
0000
0100
0000
0001
0000
0001
0000
0000
0000
,
1000
0000
0001
0100
0001
0000
0010
0000
0200
0300
0100
0000
0101
0000
0000
0000
,
0001
0000
1000
0010
1000
0000
0100
0000
0010
0000
0001
1000
0010
0000
0000
0000
,
0100
0000
0001
1000
0001
0000
0100
0000
0020
0030
0010
0000
0011
0000
0000
0000
,
0010
0000
0001
1000
0001
0000
0010
0000
0100
0000
1000
0000
1000
0000
0000
0000
,
1100
0001
0101
0000
0011
1000
1010
0000
,
1000
0100
0001
0100
0010
0011
1001
0000
,
1000
0000
0001
0010
0100
0000
0000
0000
0020
0030
0000
0010
0100
0000
0001
0000
,
1000
0000
0001
0100
0010
0000
0000
0000
0200
0300
0000
0100
1000
0000
0010
0000
,
0100
0000
0001
1000
0100
0000
0000
0000
0020
0030
0000
0010
1000
0000
0100
0000
,
0010
0000
0001
1000
0010
0000
0000
0000
0200
0300
0000
0100
1000
0000
0001
0000
,
0201
0300
0000
0100
1000
0000
0000
0000
1020
0030
0000
0010
0001
0000
0000
0000
,
0021
0030
0000
0010
1000
0000
0000
0000
1200
0300
0000
0100
0001
0000
0000
0001
,
0010
0000
0000
0010
0100
0000
0000
0100
1000
0000
0000
1000
0010
0000
0000
0010
,
1000
0001
1000
0001
0010
0001
0010
0100
1000
0001
1000
0010
0100
0010
1000
0001
,
0100
0010
0100
0001
1000
0001
0010
0100
1000
0001
1000
0001
0100
0001
0100
0010
,
1000
0001
1000
0100
0010
0001
1000
0010
1000
0010
0100
0001
1000
0001
0010
0100
,
1000
0001
0100
0001
0100
0010
1000
0010
1000
0001
0010
0001
1000
0100
0010
0001
,
1000
0010
1000
0001
0010
0100
1000
0001
1000
0010
0100
0001
1000
0100
1000
0100
,
0010
0001
0010
0001
1000
0001
0100
0010
0100
0001
1000
0100
0010
0001
0100
0010
,
1000
0100
0010
0001
0100
0010
1000
0100
0010
0002
2000
0000
0000
0000
0000
0000
,
0000
0000
0000
0000
,
0000
0000
0000
0000
,
0000
0000
0000
0000
,
0000
3003
0011
0000
1010
0000
1100
0000
,
0001
0000
1000
0000
1010
0000
0001
0000
0200
0300
0100
0000
1000
0000
0000
0000
,
0001
0000
1000
0000
1020
0030
0000
0010
0001
0000
0000
0000
1000
0000
0001
0000
,
0011
0000
1000
0000
0020
0030
0010
0000
0011
0000
0000
0000
1000
0000
0001
0000
,
0101
0110
1001
0000
0001
1000
1100
0001
,
0020
0030
0010
0000
1000
0000
0000
0000
0001
0000
1000
0000
1200
0300
0000
0100
,
0001
0000
0101
1000
1010
0000
1100
0001
,
0011
0000
0000
0000
0001
0000
0010
0000
1000
0000
0010
0000
0200
0300
0100
0000
,
0001
0000
1000
0010
0100
0000
0001
0000
1000
0000
0100
0000
1001
0000
0000
0000
,
0001
0000
1000
0100
0010
0000
0001
0000
1000
0000
0020
0030
0010
0000
0001
0100
,
0010
0000
1000
0000
0001
0000
0010
0000
1001
0000
0000
0000
1000
0000
0001
0010
,
0200
0300
0100
0000
0101
0000
0000
0000
0001
0000
1000
0010
0100
0000
1000
0000
,
0100
0000
0010
0000
1001
0000
0000
0000
0001
0000
1000
0100
0010
0000
1000
0000
,
0010
0000
0200
0300
0100
0000
0001
0000
0101
0000
0000
0000
0010
0000
1000
0000
,
1010
0000
1100
0001
0011
1000
1010
0001
,
1001
0000
0000
0000
;
