#VERSION:0.83;
#TITLE:Nijirate Fanatics;
#SUBTITLE:;
#ARTIST:yukitani;
#TITLETRANSLIT:;
#SUBTITLETRANSLIT:;
#ARTISTTRANSLIT:;
#GENRE:;
#CREDIT:;
#MUSIC:Nijirate Fanatics.ogg;
#BANNER:Nijirate Fanatics.png;
#BACKGROUND:Nijirate Fanatics-bg.png;
#CDTITLE:;
#SAMPLESTART:25.455;
#SAMPLELENGTH:15.002;
#SELECTABLE:YES;
#OFFSET:0.831;
#BPMS:0.000=210.000
,144.000=190.000
,148.000=170.000
,152.000=160.000
,156.000=155.000
,306.000=175.000
,310.000=190.000
,314.000=210.000
;
#STOPS:;
#WARPS:242.000=1.000,
252.000=1.000
;
#SCROLLS:0.000=1.000,
33.000=0.800,
34.000=0.700,
35.000=0.600,
36.000=0.500,
40.000=0.600,
41.000=0.700,
42.000=0.800,
43.000=0.900,
44.000=1.000,
76.000=0.900,
77.000=0.800,
78.000=0.700,
79.000=0.600,
80.000=0.500,
80.500=0.550,
81.000=0.600,
81.500=0.650,
82.000=0.700,
82.500=0.750,
83.000=0.800,
83.500=0.850,
84.000=0.900,
84.500=0.950,
85.000=1.000,
86.000=1.400,
87.000=1.200,
88.000=1.000,
156.000=1.050,
160.000=1.150,
164.000=1.250,
168.000=1.300,
172.000=1.350,
204.000=1.000,
236.000=0.900,
237.000=0.800,
238.000=0.700,
239.000=0.600,
240.000=0.500,
242.000=2.000,
243.000=0.500,
252.000=2.000,
253.000=0.500,
274.000=0.600,
282.000=0.800,
290.000=1.000,
298.000=1.250,
306.000=1.000,
390.000=0.500,
394.000=1.000,
398.000=0.500,
402.000=1.000
;
#BGCHANGES:;
#FGCHANGES:;

//--------------- dance-single - chronon -baby mode- ----------------
#NOTEDATA:;
#STEPSTYPE:dance-single;
#DESCRIPTION:chronon -baby mode-;
#DIFFICULTY:Beginner;
#METER:6;
#RADARVALUES:0,0,0,0,0;
#NOTES:
0000
0000
0000
0000
,
0000
0000
0000
0000
,
0000
0000
0000
0000
,
0000
0000
0000
0000
,
0000
0000
0000
0000
,
0001
0000
0010
0000
,
0100
0000
1000
0000
,
0001
0000
0100
0000
,
0020
0000
0000
0000
,
0030
0000
0000
0000
,
2000
0000
0000
0000
,
3001
1000
0001
0000
,
1000
0000
0100
0000
,
0010
0001
1000
0000
,
0001
0000
0100
0000
,
0010
1000
0001
0000
,
1000
0000
0100
0000
,
0010
0001
1000
0000
,
0001
0000
0100
0000
,
2002
0000
0000
0000
,
0000
0000
0000
0000
,
0000
0000
0000
3003
,
1000
0010
0100
0000
,
1000
0000
0100
0000
,
0001
0010
0100
0000
,
0001
0000
0100
0000
,
1000
0010
0100
0000
,
1000
0000
0100
0000
,
0001
0010
0100
0000
,
0001
0000
0100
0000
,
1000
0001
1000
0001
,
1000
0000
0010
0100
,
0010
0000
1000
0000
,
0001
0000
0010
0100
,
0010
0000
0001
0000
,
1000
0000
0010
0100
,
0010
0000
1000
0000
,
0001
0000
0010
0100
,
0010
0000
0001
0000
,
2002
0000
0000
0000
,
0000
0000
0000
0000
,
0000
0000
0000
0000
,
0000
0000
0000
3003
,
1000
0000
1000
0010
,
0100
0000
0001
0000
,
0001
0000
0001
0010
,
0100
0000
0100
0000
,
1000
0000
1000
0010
,
0100
0000
0001
0000
,
0001
0000
0001
0010
,
0100
0000
0100
1000
,
0001
0000
0000
0000
,
1000
0000
0001
0001
,
0001
0000
1000
1000
,
1000
0000
0001
0000
,
1000
0001
1000
0000
,
0001
0000
1000
0000
,
0001
1000
0001
1000
,
0001
0000
0000
0000
,
1001
0000
1001
0000
,
1000
0000
0000
0000
0000
0000
0000
0000
0000
0000
0000
0000
0000
0000
0000
0000
0000
0000
0000
0000
0000
0000
0000
0000
0000
0000
0000
0000
0000
0000
0000
0000
0000
0000
0000
0000
0000
0000
0000
0000
0000
0000
0000
0000
0000
0000
0000
0000
0000
0000
0000
0000
0000
0000
0000
0000
0000
0000
0000
0000
0000
0000
0000
0000
0000
0000
0000
0000
0000
0000
0000
0000
0000
0000
0000
0000
0000
0000
0000
0000
0000
0000
0000
0000
0000
0000
0000
0000
0000
0000
0000
0000
0000
0000
0000
0000
0000
0000
0000
0000
0000
0MMM
0000
0000
0000
000M
0000
0000
00M0
0000
0000
0M00
0000
0000
M000
0000
0000
0000
MMMM
0000
0000
000M
00M0
000M
00M0
0M00
00M0
0M00
M000
0000
M000
0000
M000
0M0M
M0M0
0M0M
00M0
0000
0000
0000
0000
0000
0000
0000
0000
0000
0000
0000
0000
0000
0000
0000
0000
0000
0000
0000
0000
0000
0000
0000
0000
0000
0000
0000
0000
0000
0000
0000
0000
0000
0000
0000
0000
0000
0000
0000
0000
0000
0000
0000
0000
0000
0000
0000
0000
0000
0000
0000
0000
0000
0000
0000
,
0000
0100
0000
0010
,
0000
1001
0000
0000
,
0000
000M
00M0
0M00
M000
0M00
00M0
000M
0000
0000
0000
0000
0000
0000
0000
0000
0000
0000
0000
0000
0000
0000
0000
0000
0000
0000
0000
0000
0000
0000
0000
0000
,
0000
0000
0001
0000
,
0100
0000
0010
0000
,
1000
0000
0001
0000
,
0010
0000
0100
0000
,
1000
0000
0020
0000
,
1000
0000
1000
1000
,
1030
0000
0200
0000
,
1000
1000
1000
0000
,
1300
0100
0020
0000
,
0001
0001
0001
0000
,
0031
0000
0100
0000
,
0010
1000
0001
0000
,
0010
0100
2000
0000
,
0000
0000
3002
0000
,
0000
0000
2003
0000
,
0000
0000
0000
0000
,
0000
3010
0100
0000
,
0001
1000
0001
0000
,
0010
0000
0100
0000
,
1000
0001
1000
0000
,
0010
0000
0100
0000
,
0001
1000
0001
0000
,
0010
0000
0100
0000
,
1000
0001
1000
0001
,
1000
0001
1000
0010
,
0100
0001
1000
0001
,
1000
0000
0100
0010
,
0100
1000
0001
0000
,
1000
0000
0001
0100
,
0010
1000
0001
1000
,
0001
0000
0010
0100
,
0010
0001
1000
0001
,
1000
0001
1000
0000
,
0010
0100
0001
1000
,
0001
1000
0001
0000
,
0010
0100
1000
0001
,
1000
0001
1000
0001
,
0100
0000
0001
1000
,
0100
0000
1000
0001
,
0010
0000
0001
1000
,
0010
0000
1001
0000
;

//--------------- dance-single - chronon -normal- ----------------
#NOTEDATA:;
#STEPSTYPE:dance-single;
#DESCRIPTION:chronon -normal-;
#DIFFICULTY:Easy;
#METER:9;
#RADARVALUES:0,0,0,0,0;
#NOTES:
0000
0000
0000
0000
,
0000
0000
0000
0000
,
0000
0000
0000
0000
,
0000
0000
0000
0000
,
0000
0000
0000
0000
,
0001
0000
0000
1000
0000
1000
0100
0000
,
1000
0000
0000
0001
0000
0001
0100
0000
,
0001
0000
0000
1000
0000
1000
0010
0000
,
0200
0000
0000
0000
,
0300
0000
0000
0000
,
0002
1000
1000
1000
,
1003
0100
0010
0001
,
1000
0000
0000
0001
0000
0001
0100
0000
,
0001
0000
0000
1000
0000
1000
0100
0000
,
1000
0000
0000
0001
0000
0001
0010
0000
,
0001
0100
0010
1000
,
0001
0000
0000
1000
0000
1000
0010
0000
,
1000
0000
0000
0001
0000
0001
0010
0000
,
0001
0000
0000
1000
0000
1000
0100
0000
,
2002
0000
0000
0000
,
0000
0000
0000
0000
,
0000
0000
0000
3003
,
1000
0010
0100
0001
,
2000
0000
3100
0000
0010
0100
0010
0000
,
0001
1000
0001
0100
,
0002
0000
0103
0000
0010
0100
0010
0000
,
1000
0000
0001
0000
1000
0000
0100
0010
,
0002
0000
0013
0100
0010
0000
0100
0000
,
1000
0001
1000
0010
,
2000
0000
3010
0100
0010
0000
0100
0000
,
0001
1000
0100
1000
,
0001
0010
0100
0010
,
0001
1000
0010
0100
,
0001
0100
0010
0100
,
0001
0000
0100
0000
1000
0000
0100
0010
,
1000
0010
0100
0010
,
1000
0001
0010
0100
,
1000
0100
0010
0100
,
1000
0001
1000
0001
,
2002
0000
0000
0000
,
0000
0000
0000
0000
,
0000
0000
0000
0000
,
0000
0000
0000
3003
,
0001
0010
0100
1000
,
0001
0000
1000
0000
0001
0100
0010
0000
,
1000
0010
0100
0001
,
1000
0000
0001
0000
1000
0100
0010
0000
,
0001
0100
0010
1000
,
0001
0000
1000
0000
0001
0010
0100
0000
,
1000
0100
0010
0001
,
1000
0000
0001
0000
0100
0010
1000
0001
,
1000
0000
0100
0010
0001
0000
0100
0010
,
1000
0001
0010
0010
,
0001
0000
0010
0100
1000
0000
0010
0100
,
0001
0100
0010
0100
,
0001
0000
0100
0010
1000
0000
0100
0010
,
0001
0100
0010
0010
,
1000
0000
0010
0100
0001
0000
0010
0100
,
1000
0000
0001
1000
0001
0000
1000
0000
,
1100
0110
0011
1001
,
1000
0000
0000
0000
0000
0000
0000
0000
0000
0000
0000
0000
0000
0000
0000
0000
0000
0000
0000
0000
0000
0000
0000
0000
0000
0000
0000
0000
0000
0000
0000
0000
0000
0000
0000
0000
0000
0000
0000
0000
0000
0000
0000
0000
0000
0000
0000
0000
0000
0000
0000
0000
0000
0000
0000
0000
0000
0000
0000
0000
0000
0000
0000
0000
0000
0000
0000
0000
0000
0000
0000
0000
0010
0000
0000
0000
0000
0000
0000
0000
0000
0000
0000
0000
0000
0000
0000
0000
0000
0000
0000
0000
0000
0000
0000
0000
0000
0000
0000
0000
0000
0MMM
0000
0000
0000
000M
0000
0000
00M0
0000
0000
0M00
0000
0000
M000
0000
0000
0000
MMMM
0000
0000
000M
00M0
000M
00M0
0M00
00M0
0M00
M000
0000
M000
0000
M000
0M0M
M0M0
0M0M
00M0
0000
0000
0000
0000
0000
0000
0000
0000
0000
0000
0000
0000
0000
0000
0000
0000
0000
0000
0000
0000
0000
0000
0000
0000
0000
0000
0000
0000
0000
0000
0000
0000
0000
0000
0000
0000
0000
0000
0000
0000
0000
0000
0000
0000
0000
0000
0000
0000
0000
0000
0000
0000
0000
0000
0000
,
0000
0000
0100
0000
0000
0001
0000
0000
,
0010
0000
1000
0000
0000
0010
0000
0000
,
0000
000M
00M0
0M00
M000
0M00
00M0
000M
0000
0000
0000
0000
0000
0000
0000
0000
0001
0000
0000
0000
0000
0000
0000
0000
0000
0000
0000
0000
1000
0000
0000
0000
,
0000
0000
0010
0000
1000
0000
0000
0100
,
0000
0000
0010
0000
0001
0000
0000
1000
,
0000
0000
1000
0000
0001
0000
0000
0100
,
0000
0000
0010
0000
1000
0000
0000
0001
,
0000
0001
2000
0001
,
0001
0000
0001
0000
0001
0001
0001
0000
,
0001
0000
3001
0000
0002
0000
1000
1000
,
1000
1000
1000
1000
,
1000
0000
1003
0000
2000
0000
0001
0001
,
0001
0000
0001
0000
0001
0001
0001
0000
,
0001
0000
3001
0000
0001
0000
1000
0100
,
0010
0000
0001
0100
0010
0000
1000
0000
,
0001
1000
0100
0010
,
0001
1000
0010
0100
,
0001
1000
0100
0010
,
0001
1000
0010
0100
,
0020
0000
0100
0000
1030
0000
0001
1000
,
0001
0000
0010
0000
0100
0010
0100
0000
,
1000
0000
0001
0000
1000
0000
0001
1000
,
0001
0000
0100
0000
0010
0100
0010
0000
,
1000
0001
1000
0000
0001
0000
1000
0001
,
1000
0000
0100
0000
0010
0100
0010
0000
,
0001
0000
1000
0000
0001
0000
1000
0001
,
1000
0000
0010
0000
0100
0010
0100
0000
,
0001
1000
0001
0000
0010
0000
0100
0010
,
0001
0000
1000
0000
0010
0100
0001
0000
,
0010
0100
1000
0000
0001
0000
0100
0000
,
0010
1000
0001
0000
0010
0001
1000
0000
,
0010
0000
0100
0000
0010
0000
0100
0010
,
1000
0000
0001
0000
0010
0100
1000
0000
,
0010
0100
0001
0000
1000
0000
0100
0000
,
0010
0001
1000
0000
0010
1000
0001
0000
,
1000
0001
1000
0010
,
0100
0010
1000
1001
,
0001
1001
1000
0100
,
0010
0100
1000
0010
,
0100
0001
0100
0010
,
0100
0010
1000
0100
,
0010
0001
0010
0100
,
0010
0100
1000
0010
,
0100
0001
1001
0000
;

//--------------- dance-single - chronon -still unhinged but a lot less so- ----------------
#NOTEDATA:;
#STEPSTYPE:dance-single;
#DESCRIPTION:chronon -still unhinged but a lot less so-;
#DIFFICULTY:Medium;
#METER:12;
#RADARVALUES:0,0,0,0,0;
#NOTES:
0000
0000
0000
0000
,
0000
0000
0000
0000
,
0000
0000
0000
0000
,
0000
0000
0000
0000
,
0000
0000
0000
0000
,
1000
0000
0010
0100
0000
0100
0001
0000
,
1000
0000
0100
0010
0000
0010
0001
0000
,
0001
0000
0100
0010
0000
0010
1000
0000
,
2002
0000
0000
0000
,
3003
0000
0000
0000
,
0002
1000
1000
1000
,
1003
0100
0010
0001
1000
0000
0001
0000
,
1000
0000
0010
0100
0000
0001
1000
0000
,
0001
0000
0010
0100
0000
1000
0001
0000
,
1000
0000
0010
0100
0000
0001
1000
0000
,
0100
0000
0010
0100
0000
0100
1000
0000
,
0001
0000
0100
0010
0000
1000
0001
0000
,
1000
0000
0100
0010
0000
0001
1000
0000
,
0001
0000
0100
0010
0000
1000
0001
0000
,
2002
0000
0000
3003
,
0001
1000
0001
1000
0000
0200
0000
0000
,
0310
0000
0100
0000
1000
0000
0002
0000
0000
0000
0000
0000
,
1003
0010
0100
0000
0001
0010
0100
0000
,
0002
0000
0103
0000
1000
0001
1000
0000
,
0001
0100
0010
0000
1000
0000
0020
0000
,
0032
0000
0013
0000
1000
0001
1000
0000
,
0100
0010
0001
0000
0010
0000
0010
0000
,
2000
0000
3010
0000
0001
1000
0001
0000
,
0100
0010
1000
0000
0010
0000
0100
0000
,
2000
0000
3100
0000
0001
1000
0001
0000
,
0010
1001
0100
1001
,
1000
0010
0100
0010
1000
0000
0001
0000
,
0010
0001
1000
0001
0100
0000
0010
0000
,
1000
0100
0010
0100
1000
0000
0001
0000
,
0100
0001
0100
0010
0001
0000
0010
0100
,
0001
1000
0001
0010
0100
0000
0010
0000
,
0100
1000
0001
1000
0010
0000
0100
0000
,
0001
1000
0001
0100
0010
0000
1000
0000
,
0001
0010
0100
1000
0001
1000
0001
1000
,
0002
0000
0000
0000
,
0203
0000
0000
0000
,
0320
0000
0000
0000
,
1030
0001
0010
0100
1000
0000
0001
0001
,
1000
0000
1000
0010
0100
0000
0100
0001
,
1000
0000
0001
0000
1000
0100
0010
0000
,
0001
0000
0001
0010
0100
0000
0100
1000
,
0001
0000
1000
0000
0010
0100
0001
0000
,
1000
0000
1000
0100
0010
0000
0010
0001
,
1000
0000
0001
0000
1000
0010
0100
0000
,
0001
0000
0001
0100
0010
0000
0010
1000
,
0001
0000
1000
0000
0001
0010
0100
1000
,
0001
0000
0100
0001
0010
0000
0010
0001
,
0100
0000
0100
0010
1000
0000
0001
0000
,
1000
0000
0100
1000
0010
0000
0010
1000
,
0100
0000
0100
0010
0001
0000
1000
0000
,
0001
0000
0010
0001
0100
0000
0100
0001
,
0010
0000
0010
0100
1000
0000
0001
0000
,
1000
0000
0010
1000
0100
0000
0100
1000
,
0010
0000
0010
0100
0001
0000
1000
0000
,
1001
0101
1001
1100
,
1000
0000
0000
0000
0000
0000
0000
0000
0000
0000
0000
0000
0000
0000
0000
0000
0000
0000
0000
0000
0000
0000
0000
0000
0000
0000
0000
0000
0000
0000
0000
0000
0000
0000
0000
0000
0000
0000
0000
0000
0000
0000
0000
0000
0000
0000
0000
0000
0100
0000
0000
0000
0000
0000
0000
0000
0000
0000
0000
0000
0000
0000
0000
0000
0000
0000
0000
0000
0000
0000
0000
0000
0010
0000
0000
0000
0000
0000
0000
0000
0000
0000
0000
0000
0000
0000
0000
0000
0000
0000
0000
0000
0000
0000
0000
0000
0000
0000
0000
0000
0000
0MMM
0000
0000
0000
000M
0000
0000
00M0
0000
0000
0M00
0000
0000
M000
0000
0000
0000
MMMM
0000
0000
000M
00M0
000M
00M0
0M00
00M0
0M00
M000
0000
M000
0000
M000
0M0M
M0M0
0M0M
00M0
0000
0000
0000
0000
0000
0000
0000
0000
0000
0000
0000
0000
0000
0000
0000
0000
0000
0000
0000
0000
0000
0000
0000
0000
0000
0000
0000
0000
0000
0000
0000
0000
0000
0000
0000
0000
0000
0000
0000
0000
0000
0000
0000
0000
0000
0000
0000
0000
0000
0000
0000
0000
0000
0000
0000
,
0000
0000
0001
1000
0001
0100
0000
0010
,
0200
0000
1000
0000
0000
0310
0000
1000
,
0000
000M
00M0
0M00
M000
0M00
00M0
000M
0000
0000
0000
0000
0000
0000
0000
0000
0001
0000
0000
0000
0000
0000
0000
0000
0000
0000
0000
0000
0010
0000
0000
0000
,
0000
0100
1000
0001
1000
0000
0010
0100
,
0000
0001
0100
0000
0001
1000
0001
0010
,
0000
0100
0010
0000
0001
0000
1000
0010
,
0000
0100
0001
0000
1000
0001
1000
0100
,
0000
0010
0100
1000
0020
0000
1000
1000
,
1000
0000
1000
1000
1030
0010
0100
0000
,
0001
0000
1000
0000
0200
0000
1000
1000
,
1000
0000
1000
1000
2300
0000
3010
0100
,
0010
1000
0001
0000
0020
0000
0001
0001
,
0001
0000
0001
0001
0001
0000
0001
0001
,
0031
0000
0020
0000
0230
0000
1300
0001
,
0100
0010
1000
0001
0010
0100
1000
1000
,
0001
0001
0100
0000
0101
0000
0100
0000
,
0110
0010
1010
1000
,
1100
0000
0100
0000
0010
0001
0010
0000
,
0001
1000
0001
0000
0100
0010
0100
0000
,
0020
0000
0100
0000
2030
0000
3001
0010
,
0100
1000
0001
0000
1000
0010
0100
0001
,
1000
0000
0001
0000
0002
0000
1003
0100
,
0010
0001
1000
0000
0010
0100
0010
1000
,
0001
1000
0100
0010
0002
0000
1003
0010
,
0100
0001
1000
0000
0001
0010
0100
1000
,
0001
0000
1000
0000
2000
0000
3001
0100
,
0010
1000
0001
0000
0010
0100
0010
0001
,
1000
0001
0100
0010
1000
0001
0010
0100
,
1000
0000
0000
0010
0000
0000
0100
0000
0001
0000
0100
0000
0010
0000
0100
0000
,
0001
1000
0001
0000
1000
0100
0010
0100
,
1000
0001
0100
0000
1000
0100
0001
1000
,
0001
0000
0010
0000
0001
1000
0100
0010
,
0001
0000
0000
0100
0000
0000
0010
0000
1000
0000
0010
0000
0100
0000
0010
0000
,
1000
0001
1000
0000
0001
0010
0100
0010
,
0001
1000
0010
0000
0100
0010
1000
0001
,
1000
0001
1000
0001
1000
0100
0010
0100
,
1000
0001
2010
3100
,
0012
0000
0103
0000
0001
0100
0010
0100
,
0001
1000
0100
1001
,
0010
0000
1001
0000
0001
0200
0010
0000
,
0301
0200
0010
0000
0301
0100
0010
1000
,
0001
0000
0010
0000
0001
0020
0100
0000
,
0031
0020
0100
0000
0031
1000
0001
0100
,
0010
1000
0001
1000
0001
0000
0000
0000
;

//--------------- dance-single - chronon -slightly less unhinged- ----------------
#NOTEDATA:;
#STEPSTYPE:dance-single;
#DESCRIPTION:chronon -slightly less unhinged-;
#DIFFICULTY:Hard;
#METER:15;
#RADARVALUES:0,0,0,0,0;
#NOTES:
0000
0000
0000
0000
,
0000
0000
0000
0000
,
0000
0000
0000
0000
,
0000
0000
0000
0000
,
0000
0000
0000
0000
,
0001
0000
0010
0100
0000
0100
1000
0000
,
0001
0000
0100
0010
0000
0010
1000
0000
,
0001
0010
0100
1000
0001
1000
0010
0100
,
0002
0000
0000
0000
,
0003
0000
0000
0000
,
0200
0001
0001
0001
,
0310
0100
0001
1000
0100
0010
0100
0000
,
1000
0100
0010
0001
0000
0001
1000
0000
,
0001
0100
0010
1000
0000
1000
0001
0000
,
1000
0010
0100
0001
0000
0001
1000
0000
,
0001
0010
0100
0010
0000
0010
0001
0000
,
1000
0010
0100
0001
0000
0001
1000
0000
,
0001
0010
0100
1000
0000
1000
0001
0000
,
1000
0100
0010
0001
0000
0001
1000
0000
,
0020
0000
0000
0000
,
1030
0000
0000
0001
0000
0000
0010
0000
0000
0100
0000
0000
0000
0000
0000
0010
0000
0000
0001
0000
1000
0000
0001
0000
,
1000
0000
0010
0000
0100
0000
0020
0000
0000
0000
0000
0000
,
0130
0010
0100
0000
0001
0000
0001
0000
0010
0000
0010
0000
0100
0000
1000
0000
,
0020
0000
0130
0010
0100
0001
1000
0000
,
0100
0010
0100
1000
0100
0010
0002
0000
,
0203
0000
0310
0100
0010
1000
0001
0000
,
0010
0100
0010
0001
0010
0100
1000
1000
,
0020
0000
0130
0010
0100
0001
1000
0000
,
0100
0010
0100
1000
0100
0010
0002
0000
,
0203
0000
0310
0100
0010
1000
0001
0000
,
0011
1001
1010
0210
,
0301
1000
0001
0010
1000
0010
0001
1000
,
0100
1000
0010
1000
0100
0010
0001
0100
,
0001
1000
0001
0100
1000
0100
0001
1000
,
0010
1000
0100
0010
1000
0010
0100
0000
,
1000
0001
1000
0010
0001
0010
1000
0001
,
0010
0001
0100
0001
0010
0100
1000
0010
,
1000
0001
1000
0100
0001
0100
1000
0001
,
0100
0000
0010
0000
1000
0000
0001
0000
0010
0100
1000
0100
0010
0001
1000
0001
,
0200
0010
0001
0310
,
2000
0010
0001
3010
,
0100
0010
1000
0001
0010
0100
1000
0001
,
1000
0010
0100
0010
1000
0000
0100
0000
0010
0100
1000
0001
0100
0000
0100
0000
,
0001
0000
0000
0001
0100
0000
0010
0000
1000
0000
0000
0000
0100
0000
0010
0000
,
0002
0010
2003
0010
3001
0001
0100
0010
,
1000
0000
0000
1000
0010
0000
0100
0000
0001
0000
0000
0000
0010
0000
0100
0000
,
2000
0100
3002
0100
1003
1000
0010
0100
,
0001
0000
0000
0001
0010
0000
0100
0000
1000
0000
0000
0000
0010
0000
0100
0000
,
0002
0100
2003
0100
3001
0001
0010
0100
,
1000
0000
0000
1000
0100
0000
0010
0000
0001
0000
0000
0000
0100
0000
0010
0000
,
2000
0010
3002
0010
1003
0010
0001
0010
,
1000
0000
0010
1000
0200
0000
0310
0001
,
0200
0000
0310
1000
0001
0010
0100
0010
,
0001
0000
0010
0001
0200
0000
0310
1000
,
0200
0000
0310
0001
1000
0010
0100
0010
,
1000
0000
0010
0100
2000
0000
3100
0010
,
0002
0000
0013
0100
0001
1000
0001
0010
,
0001
0000
0010
0100
0002
0000
0103
0010
,
2000
0000
3010
0100
1000
0001
1000
0010
,
1010
1001
0011
1001
,
0001
0000
0000
0000
0000
0000
0000
0000
0000
0000
0000
0000
0000
0000
0000
0000
0000
0000
0000
0000
0000
0000
0000
0000
0000
0000
0000
0000
0000
0000
0000
0000
0000
0000
0000
0000
0000
0000
0000
0000
0000
0000
0000
0000
0000
0000
0000
0000
0100
0000
0000
0000
0000
0000
0000
0000
0000
0000
0000
0000
0000
0000
0000
0000
0000
0000
0000
0000
0000
0000
0000
0000
0010
0000
0000
0000
0000
0000
0000
0000
0000
0000
0000
0000
0000
0000
0000
0000
0000
0000
0000
0000
0000
0000
0000
0000
0000
0000
0000
0000
0000
0MMM
0000
0000
0000
000M
0000
0000
00M0
0000
0000
0M00
0000
0000
M000
0000
0000
0000
MMMM
0000
0000
000M
00M0
000M
00M0
0M00
00M0
0M00
M000
0000
M000
0000
M000
0M0M
M0M0
0M0M
00M0
0000
0000
0000
0000
0000
0000
0000
0000
0000
0000
0000
0000
0000
0000
0000
0000
0000
0000
0000
0000
0000
0000
0000
0000
0000
0000
0000
0000
0000
0000
0000
0000
0000
0000
0000
0000
0000
0000
0000
0000
0000
0000
0000
0000
0000
0000
0000
0000
0000
0000
0000
0000
0000
0000
0000
,
0000
0000
0000
0000
1000
0000
0001
1000
0001
0000
0010
0000
0000
0000
0010
0000
,
0100
0020
1000
0000
0130
0010
0000
0010
,
0000
0000
0000
000M
0000
0000
00M0
0000
0000
0M00
0000
0000
M000
0000
0000
0M00
0000
0000
00M0
0000
0000
000M
0000
0000
0000
0000
0000
0000
0000
0000
0000
0000
0000
0000
0000
0000
0000
0000
0000
0000
0000
0000
0000
0000
0000
0000
0000
0000
0001
0000
0000
0000
0000
0000
0000
0000
1000
0000
0000
0000
0000
0000
0000
0000
0001
0000
0000
0000
0000
0000
0000
0000
0000
0000
0000
0000
0000
0000
0000
0000
0000
0000
0000
0000
0100
0000
0000
0000
0000
0000
0000
0000
0000
0000
0000
0000
,
0000
0100
0010
1000
0001
0000
1000
0100
,
0000
0000
0100
0000
0010
0000
0001
0000
1000
0001
1000
0001
1000
0000
0010
0000
,
0000
0010
0100
0001
1000
0000
0001
0010
,
0000
0000
0010
0000
0100
0000
1000
0000
0001
1000
0001
0000
0100
0000
0010
0000
,
0000
0010
1000
0001
0020
0000
0001
0001
,
0001
0001
0001
0001
0031
0010
0100
0020
,
0001
0031
0200
0000
0320
0000
1000
1000
,
1000
1000
1000
1000
2030
0000
3010
0100
,
0100
0001
0001
0010
0200
0000
1000
1000
,
1000
1000
1000
1000
1000
1000
1000
1000
,
1000
0000
1300
0000
0200
0000
0000
0000
0320
0000
0000
0000
0130
1000
0001
0100
,
0010
0000
0010
0000
0010
0100
0001
1000
0100
0000
0100
0000
0100
0000
0010
0000
,
0001
1000
0010
0100
0101
0000
1001
0000
,
1100
0000
1001
1000
1010
0000
1001
0000
,
0011
0000
1001
0001
0101
0100
0010
1000
,
1001
0001
0010
0100
1000
0100
0010
0001
,
2000
0000
0100
0000
3020
0000
0130
0001
,
1000
0000
0001
0000
0020
0000
0000
0000
0130
0010
0001
0000
1000
0000
0010
0000
,
0100
1000
0100
0001
0020
0000
0130
1000
,
0001
1000
0020
0000
0130
1000
0100
0001
,
0010
1000
0010
0001
0200
0000
0310
1000
,
0001
0000
1000
0000
0200
0000
0000
0000
0310
0100
1000
0000
0001
0000
0100
0000
,
0010
0001
0010
1000
0200
0000
0310
0001
,
1000
0001
0200
0000
0310
0001
0010
1000
,
0100
0000
0001
0000
0100
0000
1000
0000
0001
0000
1000
0100
0010
0000
0100
0010
,
0001
0000
1000
0010
0000
0100
0001
0000
1000
0010
0100
0000
0001
0000
1000
0000
,
0001
0010
0100
0000
1000
0000
0001
0000
1000
0010
0100
0000
0010
0000
0100
0010
,
1000
0001
0010
0100
0001
0100
0010
0001
,
0100
0000
0010
0000
1000
0000
0001
0000
1000
0000
0001
0100
0010
0000
0100
0010
,
1000
0000
0001
0010
0000
0100
1000
0000
0001
0010
0100
0000
1000
0000
0001
0000
,
1000
0010
0100
0000
0001
0000
1000
0000
0001
0010
0100
0000
0010
0000
0100
0010
,
0001
1000
0010
0100
1000
0100
0010
1000
,
0100
0010
0001
0100
0010
1000
0001
0010
,
1000
0010
0001
1000
0001
0100
0010
1000
,
0001
0010
0100
1000
0100
1000
0001
0100
,
1000
0100
0001
1000
1100
0000
1001
0000
,
0101
0100
0010
0000
0100
0001
0100
0010
,
0100
0001
0100
0010
1000
0001
0010
0100
,
1000
0001
1000
0010
0100
0001
0100
0010
,
0100
0001
0100
0010
1000
0001
0010
0100
,
0001
0100
1000
0001
1001
0000
0000
0000
;

//--------------- dance-single - chronon -unhinged- ----------------
#NOTEDATA:;
#STEPSTYPE:dance-single;
#DESCRIPTION:chronon -unhinged-;
#DIFFICULTY:Challenge;
#METER:18;
#RADARVALUES:0,0,0,0,0;
#NOTES:
0000
0000
0000
0000
,
0000
0000
0000
0000
,
0000
0000
0000
0000
,
0000
0000
0000
0000
,
0000
0000
0000
0000
,
1000
0000
0010
0100
0000
0100
0001
0000
,
1000
0000
0100
0010
0000
0010
0001
0000
,
1000
0010
0100
0001
1000
0001
0010
0100
,
2000
0001
0001
0010
,
3010
0000
0000
0000
,
0020
1000
1000
1000
,
0130
0010
1000
0000
0001
0000
0010
0000
0100
0000
1000
0000
0001
0000
0000
0000
,
1000
0001
0010
0100
0000
0100
1000
0000
,
0001
1000
0010
0100
0000
0100
0001
0000
,
0100
0010
1000
0001
0000
0001
0010
0000
,
0100
0010
0001
1000
0000
1000
0010
0100
,
0001
1000
0100
0010
0000
0010
0001
0000
,
1000
0001
0100
0010
0000
0010
1000
0000
,
0010
0100
0001
1000
0000
1000
0100
0000
,
2100
0001
0001
3010
,
0100
0000
0000
0001
0000
0000
1000
0000
0000
0001
0000
0000
0000
0000
0000
0001
0000
0000
0010
0000
0100
0000
1000
0000
,
0001
0000
1000
0000
0010
0000
0200
0000
0000
0000
0000
0310
,
1000
0001
1000
0000
0100
0000
0010
0000
0100
0000
1000
0000
0100
0000
0020
0000
,
1000
0000
0130
0100
1000
1000
0020
0000
,
0130
0010
1000
0001
0100
0000
0100
0000
0010
0000
0010
0000
0200
0000
0000
0000
,
1000
0000
0310
0010
1000
1000
0200
0000
,
0310
0100
1000
0001
0010
0000
0010
0000
0100
0000
0100
0000
1000
0000
0020
0000
,
0001
0000
0130
0100
0001
0001
0020
0000
,
0130
0010
0001
1000
0100
0000
0100
0000
0010
0000
0010
0000
0200
0000
0000
0000
,
0001
0000
0310
0010
0001
0001
0100
0000
,
0101
1100
0101
1001
,
1000
0010
0100
0000
0010
0000
0010
0000
0001
0000
0010
0000
0100
0000
0001
0000
,
0010
0000
0100
1000
0010
0000
0100
0001
1000
0000
0100
0000
0010
0000
0100
0000
,
1000
0100
0010
0000
0100
0000
0100
0000
0001
0000
0100
0000
0010
0000
0001
0000
,
0100
0000
0010
1000
0100
0000
0010
0100
0001
0000
0100
0000
0100
0000
1000
0000
,
0001
0100
0010
0000
0100
0000
0100
0000
1000
0000
0100
0000
0010
0000
1000
0000
,
0100
0000
0010
0001
0100
0000
0010
1000
0001
0000
0100
0000
0010
0000
1000
0000
,
0001
0010
0100
0000
0010
0000
0010
0000
1000
0000
0010
0000
0100
0000
1000
0000
,
0001
1000
0010
0100
0001
1000
0100
0010
0001
1000
0010
1000
0001
1000
0010
1000
,
0002
1000
0010
0100
,
2003
0001
0100
0010
,
3001
0100
0010
1000
0001
0010
0100
1000
,
0001
0010
0100
0020
0001
0000
0130
1000
0001
0100
0010
1000
0001
0000
0001
0000
,
1000
0000
0000
1000
0010
0000
0100
0000
0001
0000
1000
0000
0100
0000
0010
0000
,
0002
0100
2003
0100
3010
0100
0001
1000
,
0001
0000
0000
0001
0010
0000
0100
0000
1000
0000
0001
0000
0100
0000
0010
0000
,
2000
0100
3002
0100
0013
0100
1000
0001
,
0100
0000
0000
0100
0010
0000
1000
0000
0001
0000
0010
0000
0001
0000
1000
0000
,
0020
1000
0230
0001
0310
1000
0001
0010
,
0010
0000
0000
0010
0100
0000
1000
0000
0001
0000
0100
0000
0001
0000
1000
0000
,
0200
1000
0320
0001
0130
1000
0010
0100
,
0001
0000
0000
0000
0100
0000
0001
0000
0020
0000
0000
0000
0130
0000
0010
0001
,
0200
0000
0000
0000
0310
0000
1000
0000
0001
0000
0010
0100
1000
0000
0001
0000
,
1000
0000
0000
0000
0010
0000
1000
0000
0200
0000
0000
0000
0310
0000
0100
1000
,
0020
0000
0000
0000
0130
0000
0001
0000
1000
0000
0100
0010
0001
0000
1000
0000
,
0001
0000
0000
0000
0100
0000
0010
0000
0002
0000
0000
0000
0013
0000
1000
0100
,
0002
0000
0000
0000
0103
0000
0010
0000
0100
0000
1000
0001
0100
0000
0010
0000
,
1000
0000
0000
0000
0010
0000
0100
0000
2000
0000
0000
0000
3100
0000
0001
0010
,
2000
0000
3010
0100
1000
0000
0001
1000
,
1100
0101
1100
1001
,
1010
0000
0000
0000
0000
0000
0000
0000
0000
0000
0000
0000
0000
0000
0000
0000
0000
0000
0000
0000
0000
0000
0000
0000
0000
0000
0000
0000
0000
0000
0000
0000
0000
0000
0000
0000
0000
0000
0000
0000
0000
0000
0000
0000
0000
0000
0000
0000
0010
0000
0000
0000
0000
0000
0000
0000
0000
0000
0000
0000
0000
0000
0000
0000
0000
0000
0000
0000
0000
0000
0000
0000
0100
0000
0000
0000
0000
0000
0000
0000
0000
0000
0000
0000
0000
0000
0000
0000
0000
0000
0000
0000
0000
0000
0000
0000
0000
0000
0000
0000
0000
0MMM
0000
0000
0000
000M
0000
0000
00M0
0000
0000
0M00
0000
0000
M000
0000
0000
0000
MMMM
0000
0000
000M
00M0
000M
00M0
0M00
00M0
0M00
M000
0000
M000
0000
M000
0M0M
M0M0
0M0M
00M0
0000
0000
0000
0000
0000
0000
0000
0000
0000
0000
0000
0000
0000
0000
0000
0000
0000
0000
0000
0000
0000
0000
0000
0000
0000
0000
0000
0000
0000
0000
0000
0000
0000
0000
0000
0000
0000
0000
0000
0000
0000
0000
0000
0000
0000
0000
0000
0000
0000
0000
0000
0000
0000
0000
0000
,
0000
0000
0000
0000
0001
0000
0010
0100
1000
0000
0001
0000
0000
0000
0001
0000
,
1000
0000
0010
0200
1000
0000
0000
0000
0310
0000
0100
0000
0000
0000
0100
0000
,
0000
0000
0000
000M
0000
0000
00M0
0000
0000
0M00
0000
0000
M000
0000
0000
0M00
0000
0000
00M0
0000
0000
000M
0000
0000
0000
0000
0000
0000
0000
0000
0000
0000
0000
0000
0000
0000
0000
0000
0000
0000
0000
0000
0000
0000
0000
0000
0000
0000
0001
0000
0000
0000
0000
0000
0000
0000
0010
0000
0000
0000
0000
0000
0000
0000
0100
0000
0000
0000
0000
0000
0000
0000
0000
0000
0000
0000
0000
0000
0000
0000
0000
0000
0000
0000
1000
0000
0000
0000
0000
0000
0000
0000
0000
0000
0000
0000
,
0000
0000
1000
0000
0001
0000
0100
0010
1000
0000
0000
0000
0010
0000
0100
0000
,
0000
0000
0100
0000
0001
0000
1000
0000
0001
0010
0100
1000
0001
0000
0100
0000
,
0000
0000
0100
0000
0010
0000
1000
0001
0010
0000
0000
0000
0100
0000
1000
0000
,
0000
0000
1000
0000
0010
0000
0100
0000
0001
0100
0010
1000
0001
0000
0010
0000
,
0000
0000
0010
0000
0100
0000
1000
0001
0200
0000
0000
0000
0010
0000
0001
0000
,
0001
0000
0001
0000
0001
0000
0301
0000
0010
0100
1000
0001
0020
0000
0001
0000
,
0001
0000
0031
2000
0010
0000
0000
0000
3200
0000
0000
0000
1300
0100
0010
0100
,
1000
0100
0010
0100
1000
0100
0010
0100
2000
0000
0000
3010
1000
0010
0100
0010
,
1000
0010
0100
0010
1000
0001
0010
0100
0020
0000
0000
0000
0031
0010
0100
0010
,
0001
0010
0100
0010
0001
0010
0100
0010
0001
0100
0010
0100
0001
0100
0010
0100
,
0001
0000
0000
0100
0000
0000
0010
0000
0000
0100
0000
0000
0002
0000
0000
0000
0000
0000
0000
0000
0000
0000
0000
0000
2003
0000
0000
0000
0000
0000
0000
0000
0000
0000
0000
0000
3100
0000
0010
0000
0001
0000
1000
0000
0000
0001
0000
0000
,
1000
0000
0000
0010
0000
0000
0100
0000
0000
0001
0000
0000
0100
0000
0010
0000
1000
0000
0001
0000
1000
0000
0100
0000
0010
0000
0000
0100
0000
0000
1000
0000
0000
0001
0000
0000
0100
0000
0000
0000
0000
0000
0100
0000
0000
0000
0000
0000
,
0010
1000
0001
0010
0100
0000
0100
0000
1100
0000
0000
0000
1001
0000
0000
0000
,
0101
0000
1001
0001
0011
0000
1001
0000
,
1010
0000
1001
1000
1100
0100
0010
0001
,
1001
0000
1000
0000
0010
0000
0100
0000
0001
0100
0010
0000
1000
0000
0001
0000
,
0020
0000
2030
0000
3002
0000
0103
0010
,
0100
0000
1000
0000
0020
0000
0000
0000
0130
0010
0100
0001
0100
0000
0010
0000
,
1000
0100
0020
0000
2030
0000
3010
0100
,
0010
0000
0001
0000
0200
0000
0000
0000
0301
0100
0010
0100
0001
1000
0100
0010
,
0001
0010
0100
1000
0001
0000
0100
0000
2000
0000
0000
0000
3100
0000
0010
0000
,
0100
0000
0001
0000
0020
0000
0000
0000
0130
0010
0100
1000
0100
0000
0010
0000
,
0001
0100
0020
0000
0032
0000
0013
0100
,
0010
0000
1000
0000
0200
0000
0000
0000
1300
0100
0010
0100
1000
0001
0100
0010
,
1000
0010
0100
0001
1000
0100
0010
0100
1000
0000
0001
1000
0001
0000
0100
0010
,
1000
0001
0010
0100
0000
0100
1000
0001
1000
0010
1000
0010
0100
0000
0001
0010
,
0100
0010
0001
1000
0010
0000
0100
0010
1000
0001
0010
0000
0100
0000
0010
0001
,
1000
0000
0010
0000
0001
0000
0010
0100
0001
1000
0001
0010
0100
0000
0010
0001
,
0100
0000
0010
0000
1000
0000
0001
1000
0001
0000
1000
0001
1000
0000
0100
0010
,
0001
1000
0010
0100
0000
0100
0001
1000
0001
0010
0001
0010
0100
0000
1000
0010
,
0100
0010
1000
0001
0010
0000
0100
0010
0001
1000
0010
0000
0100
0000
0010
1000
,
0001
0000
0010
0000
1000
0000
0010
0100
1000
0001
1000
0010
0100
0001
0100
0010
,
1000
0010
0100
0001
0100
0010
1000
0001
1000
0100
0010
0000
0100
0000
0100
0000
,
0001
0000
0100
0000
0010
0000
0001
0000
1000
0010
0100
0000
0001
0010
0100
0000
,
1000
0010
0100
0000
0001
0010
0100
0000
1000
0010
0100
0000
0010
0000
0010
0000
,
0001
0010
0100
0001
0101
0000
1100
0000
,
1020
0000
0130
0000
0010
0000
1000
0000
0001
0010
0100
0000
0010
0000
0010
0000
,
0001
0010
0100
0000
0010
0000
0010
0000
0001
0000
1000
0010
0100
0001
1000
0001
,
0010
0100
1000
0000
0010
0000
0100
0000
0001
0100
0010
0000
0100
0000
0100
0000
,
0001
0100
0010
0000
0100
0000
0100
0000
0001
0000
0010
0001
0100
0000
0010
1000
,
0100
0010
0001
0010
0100
1000
0001
1000
0010
0000
0000
0000
0000
0000
0000
0000
;
