#TITLE:Night's Dream;
#SUBTITLE:;
#ARTIST:Hatsunetsumiko's;
#TITLETRANSLIT:;
#SUBTITLETRANSLIT:;
#ARTISTTRANSLIT:;
#GENRE:Touhou;
#CREDIT:Melody Love;
#MUSIC:Night's Dream.ogg;
#BANNER:Night's Dream.png;
#BACKGROUND:Night's Dream-bg.png;
#CDTITLE:;
#SAMPLESTART:69.182;
#SAMPLELENGTH:15.324;
#SELECTABLE:YES;
#OFFSET:-0.144;
#BPMS:0.000=185.984
,159.000=92.992
,171.500=185.984
;
#STOPS:159.000=0.645
,199.500=0.484
;
#JACKET:Night's Dream-jacket.png;
#BGCHANGES:-1.344=Night's Dream.avi=1.000=1=0=0=StretchNoLoop==CrossFade==,
99999.000=-nosongbg-=1.000=0=0=0=StretchNoLoop====
;
#FGCHANGES:;

//--------------- dance-single - Melody Love ----------------
#NOTES:
     dance-single:
     Melody Love:
     Beginner:
     3:
     0,0,0,0,0:
0000
0000
0000
0000
,
0000
0000
0000
0000
,
0000
0000
0000
0000
,
0000
0000
0000
0000
,
0000
0000
0000
0000
,
0000
0000
0000
0000
,
0000
0000
0000
1000
,
0000
0000
0000
0000
,
0000
0010
0000
0000
,
0000
0000
0000
1000
,
0000
0000
0000
0000
,
0000
0001
0000
0000
,
0000
0000
0000
0100
,
0000
0000
0000
0000
,
0000
0100
0000
0000
,
0100
0000
0000
0010
,
0000
0000
0000
0000
,
0000
0010
0000
0000
,
0010
0000
0000
1000
,
0000
0000
0000
0000
,
0000
1000
0000
0000
,
1000
0000
0000
0001
,
0000
0000
0000
0000
,
0000
0001
0000
0000
,
0001
0000
0000
0010
,
0000
0000
0010
0000
,
0000
0100
0000
0000
,
0010
0000
0000
0100
,
0000
0000
0100
0000
,
0000
0010
0000
0000
,
0100
0000
0000
1000
,
0000
0000
1000
0000
,
0000
0001
0000
0000
,
0001
0000
0000
0200
,
0000
0300
0000
0000
,
0000
0020
0000
0030
,
0000
0000
0000
2000
,
0000
3000
0001
0000
,
0000
2002
0000
3003
,
0000
0000
0000
0000
,
0000
0100
0000
0000
,
0100
0000
0000
0010
0000
0000
0100
0000
,
0000
0001
0000
0000
1000
0000
0000
2002
,
0000
0000
0000
0000
0000
3003
0000
0000
,
0000
0000
0000
0100
0000
0000
0000
0000
,
0000
0100
0000
0000
0000
0000
0000
0010
,
0000
0000
0000
0000
0000
0010
0000
0000
,
0000
0000
0000
0200
0000
0000
0000
0000
,
0300
0000
0000
0000
0000
0000
0000
0020
,
0000
0000
0030
0000
,
0000
0000
0100
0100
,
0000
0000
0000
0000
,
0001
0001
0000
0000
,
0000
0000
1000
1000
,
0000
0000
0000
0000
,
0010
0010
0000
0000
,
1000
0000
0000
0001
,
0000
0000
1000
0000
,
0000
0100
0000
0000
,
1000
0000
0000
0001
,
0000
0000
1000
0000
,
0000
0010
0000
0000
,
0000
0000
0100
0100
,
0000
0000
0000
0000
,
0010
0010
0000
0000
,
1000
0000
0000
0001
,
0000
0000
1000
0000
,
0000
0001
0000
0000
,
1000
0000
1000
1000
,
0000
0000
0001
0000
,
0001
0001
0000
0000
,
0100
0000
0100
0100
,
0000
0000
0010
0000
,
0010
0010
0000
0000
,
1000
0000
0000
0010
,
0000
0000
1000
0000
,
0000
0001
0000
0000
,
0100
0000
0000
0001
,
0000
0000
0100
0000
,
0000
0010
0000
0000
,
2000
0000
0000
3200
,
0000
0000
0320
0000
,
0000
0032
0000
0000
,
2003
0000
0000
3020
,
0000
0000
0230
0000
,
0000
0302
0000
0000
,
1003
0000
0000
1001
;

//--------------- dance-single - Melody Love ----------------
#NOTES:
     dance-single:
     Melody Love:
     Easy:
     5:
     0,0,0,0,0:
0000
0000
0000
0000
,
0000
0000
0000
0000
,
0000
0000
0000
0000
,
0000
0000
0000
0000
,
0000
0000
0000
0000
,
0000
0000
0000
0000
,
0000
0000
0000
2000
,
0000
0000
0000
3000
,
0000
0020
0000
0000
,
0000
0030
0000
0200
,
0000
0000
0000
0300
,
0000
0002
0000
0000
,
0000
0003
0000
1000
,
0001
1000
0100
0000
,
0000
1000
0001
1000
,
0100
0000
0000
0010
,
0100
0010
0010
0000
,
0000
0010
0100
0010
,
0010
0110
0000
0001
,
1000
0001
0100
0000
,
0000
0001
1000
0001
,
0100
0000
0000
0100
,
0010
0100
0100
0000
,
0000
0100
0010
0100
,
0100
0000
0000
0001
,
0000
0001
0001
1000
,
0100
0010
0000
0010
,
0010
0001
0100
0010
,
0000
0010
0010
1000
,
0100
0010
0000
0010
,
0010
0001
0100
0020
,
0000
0000
2030
0000
,
0000
3200
0000
0000
,
0320
0000
0000
0031
,
0010
0001
0010
0000
,
0010
0100
1000
0100
,
1000
0000
1000
0001
,
0100
0001
0010
0000
,
0100
2000
0000
0000
,
0000
0000
3000
0000
,
0000
0000
1001
0000
0000
0100
0000
0000
,
0010
0000
0000
1000
0000
0000
0100
0000
,
0000
0010
0000
0000
0001
0000
0000
0001
,
0000
0010
0000
0001
0000
1000
0000
0000
,
0000
0000
0000
1000
0000
0010
0000
1000
,
0000
0001
0000
0000
0000
0000
0000
0100
,
0000
0001
0000
0100
0000
0001
0000
1000
,
0000
0001
0000
0020
0000
0000
0000
0000
,
0000
0000
0000
0000
0030
0000
0000
0200
,
0000
0020
0000
0000
0000
0000
0330
0000
,
0100
0100
0010
0001
,
0000
0100
0010
0010
,
1000
0001
0000
0000
,
0010
0010
0100
1000
,
0000
0010
0100
0100
,
0001
1000
0000
0000
,
0001
0100
0010
0100
,
0001
0000
1000
0010
,
0100
0010
1000
0000
,
0001
0010
0100
1000
,
1000
0000
1000
0100
,
0010
0001
0001
0001
,
0100
0100
0010
0100
,
0000
0000
0001
0001
,
1000
0010
1000
0000
,
0020
0000
0130
0200
,
0000
0301
0002
0000
,
0013
0020
0000
0130
,
0100
0100
0010
0100
,
0000
1000
1000
0001
,
0100
0001
0000
0000
,
0010
0010
0100
0010
,
0000
0000
0001
0001
,
1000
0010
0100
0001
,
2000
0000
3010
0200
,
0000
0301
0020
0000
,
0130
2000
0000
3000
,
0002
0000
0103
0020
,
0000
1030
0200
0000
,
0310
0002
0000
0003
,
2000
0000
0000
3010
,
0100
0001
0020
0000
,
0000
0230
0000
0000
,
2300
3200
0320
0032
,
0000
0003
0001
0010
,
0100
1000
0000
0000
,
0100
0100
0000
0010
,
0220
0000
0000
0330
0000
0000
0000
0000
;

//--------------- dance-single - Melody Love ----------------
#NOTES:
     dance-single:
     Melody Love:
     Medium:
     9:
     0,0,0,0,0:
0000
0000
0000
0000
,
0000
0000
0000
0000
,
0000
0000
0000
0000
,
0000
0000
0000
0000
,
0000
0000
0000
0000
,
0000
0000
0000
0000
,
0000
0000
0000
2000
,
0000
0000
0010
0010
,
3010
0200
0000
0001
,
0301
0000
0000
0020
,
0000
0000
0100
0100
,
0130
2000
0000
0001
,
3001
0000
0000
1002
,
0013
0100
0010
0000
,
0100
2001
3010
0100
,
0010
0000
0100
0012
,
1000
0100
0013
0000
,
0001
2100
0010
0001
,
3100
1100
0000
2010
,
3100
1000
0100
0000
,
0010
0012
0103
0001
,
0100
0000
0010
2010
,
0100
0010
3001
0000
,
1000
0012
0100
1000
,
0013
0000
0000
0010
0001
0000
0100
0000
,
0000
0010
0000
0000
1000
0000
0010
0000
,
1000
0000
0020
0000
0000
0130
0000
0000
,
0001
0100
0001
0200
,
0000
0310
0000
0000
1000
0000
0010
0000
,
1000
0000
0010
0100
0020
0000
0000
0000
,
0130
0001
1000
2001
,
0000
3001
0102
0000
,
0103
0210
0000
0310
,
1020
0000
1030
0000
0000
0000
1000
0100
,
0010
0001
0020
0032
,
0023
0000
0031
0010
0100
0000
1000
0000
,
0200
0000
2300
0000
3200
0000
1300
0100
,
0010
0001
0020
0032
,
0023
0230
0000
0300
,
0010
0000
0010
0100
0000
2000
0000
0002
,
3003
0000
1001
0001
0010
0100
1000
0010
,
0100
0000
0000
0210
0000
0301
1002
0000
,
0013
0210
0000
1300
2001
0000
3010
0110
,
0000
0010
0100
0000
0100
0010
0000
1000
,
0100
1000
0000
0001
0000
0001
0100
0001
,
0000
1000
0000
1001
0000
0000
0000
0001
,
0000
0010
0000
0100
0000
1000
0000
0010
,
0000
0100
0000
0001
0000
0000
1000
0000
,
1000
0100
0000
0010
0000
0100
0000
2000
,
0000
0002
0000
0000
0000
0000
3003
0000
,
1000
0000
1000
0100
0000
0000
0010
0000
,
0100
0000
0110
0000
0001
0000
0001
0010
,
0000
0100
0010
0110
,
1000
0000
1000
0010
0000
0000
0100
0000
,
0010
0000
0110
0000
0001
0000
0001
0100
,
0000
0010
0100
0110
,
2000
0000
0010
3010
,
0000
0000
1000
0100
0010
0000
0001
0000
,
0010
0210
0320
0230
,
1300
0000
1000
0100
0000
0000
0010
0000
,
0001
0010
0100
0000
2000
0000
0000
0000
,
3000
1100
0110
0011
,
0001
0000
0001
0100
0000
0000
0010
0000
,
0100
0000
0110
0000
1000
0000
1000
0100
,
0000
0010
0100
0110
,
0020
0001
0130
0200
,
1000
0310
0020
0001
,
0130
0200
1300
0001
,
0200
0000
0010
0310
,
1000
0100
0010
0000
0001
0000
1000
0000
,
0100
0120
0230
0320
,
0031
0000
0001
0100
0000
0000
0010
0000
,
1000
0100
0010
0000
0002
0000
0000
0000
,
0003
0011
0110
1100
,
1000
0000
1000
0100
0000
0000
0010
0000
,
0010
0000
0010
0000
0001
0000
0001
0010
,
0000
0100
0100
0100
,
1000
0000
1000
0010
0000
0000
0100
0000
,
0100
0000
0100
0000
0001
0000
0001
0100
,
0000
0010
0010
0010
,
2000
0000
0000
3020
,
0230
0320
2030
0000
,
0000
3002
0000
0000
,
0013
0000
0100
0010
0000
0000
0002
0000
,
1003
0000
1000
0000
0010
0000
0010
0100
,
0000
0002
1003
1000
,
0101
0000
0101
0000
0000
0010
1000
0000
,
2020
0000
0000
3030
0000
0000
0000
0000
;

//--------------- dance-single - Melody Love ----------------
#NOTES:
     dance-single:
     Melody Love:
     Hard:
     12:
     0,0,0,0,0:
0000
0000
0000
0000
,
0000
0000
0000
0000
,
0000
0000
0000
0000
,
0000
0000
0000
0000
,
0000
0000
0000
0000
,
0000
0000
0000
0000
,
0000
0000
0000
1000
,
0000
0010
0000
0000
0100
0000
0001
0000
,
0001
0000
0010
0000
0000
0100
0000
0000
,
1000
0100
0000
0010
0000
0000
0001
0000
,
0000
0100
0000
0000
0001
0000
1000
0000
,
1000
0000
0010
0000
0000
1000
0000
0000
,
0001
0100
0000
0000
0010
1000
0200
0000
,
0310
0001
0100
0001
0200
0000
0000
0000
,
0310
1000
0020
0000
0130
0001
0010
0001
,
0020
0000
0031
2010
,
0001
3100
0210
0000
,
0310
0012
1000
0103
,
0120
0000
0130
0000
0100
0001
0020
0000
,
0130
1000
0010
1000
0020
0000
0000
0000
,
0130
0001
0200
0000
0310
1000
0100
1000
,
0200
0000
0000
1300
0000
0000
0102
0000
,
1000
0013
0120
0000
,
0130
2100
0001
3010
,
0110
0000
0010
0100
0000
0010
1000
0000
,
0000
0100
0000
0000
0010
0000
0001
0000
,
0100
0000
0010
0000
0100
0001
0100
0010
,
1000
1010
1000
0100
,
0010
0001
0010
0000
0200
0000
1000
0000
,
0310
0000
0001
0100
0000
0001
0000
0010
,
0100
0000
1000
0100
0010
0100
0020
0000
,
0000
0031
0000
0001
0200
0000
0320
0000
,
2030
0000
3002
0000
0000
0013
0000
0010
,
0200
0000
1300
0000
0000
0000
1000
0100
,
0010
0001
0100
0000
0010
0000
1000
0000
,
0001
0000
0001
0010
0100
1000
0100
0000
,
0010
0000
0001
0000
1000
0000
1000
0100
,
0010
0001
0100
0000
0010
0000
1000
0000
,
0001
0000
2000
0000
0000
0100
3000
0100
,
0010
0000
0001
1000
0000
0020
0000
1000
,
1030
0000
0010
0000
0100
0000
0010
0100
0001
0100
0010
0000
0100
0010
1000
0010
,
0100
0000
0000
0000
0000
0000
0102
0000
0000
0103
0000
0000
2010
0000
0010
0000
,
3010
0021
0001
0031
1200
0000
0000
1300
,
0000
0100
0010
0001
1000
0010
0000
0100
,
0010
0000
1000
0010
0100
0010
0000
0100
,
0010
0100
0000
0101
0000
0000
0000
1000
,
0000
0010
0000
0100
0000
0001
0000
0010
,
0000
0100
0000
1000
0000
0000
0001
0000
,
0001
0010
0100
1000
0010
0100
0001
1000
,
0000
0010
0000
0000
0000
0000
0000
0020
,
1030
0000
0001
0100
0010
0100
0001
0000
,
0000
0000
0001
0010
0100
0000
0100
1000
,
0000
1000
0100
0000
1000
0010
0100
0010
,
1000
0000
0001
0100
0010
0100
0001
0000
,
0000
0100
0101
0100
,
0010
0000
1010
0000
1000
0010
0100
0010
,
2000
0001
0100
3001
,
0000
0000
0001
0010
0100
1000
0010
0100
,
0001
0000
1001
0000
1000
0010
0100
0010
,
1000
0000
1000
0100
0000
0100
0010
0000
,
0001
0100
0010
0100
0001
0000
0000
0000
,
0100
0120
0230
0320
,
1030
0000
0100
1000
0000
1000
0100
0000
,
0110
0000
0000
0000
0010
0000
0010
0001
,
0000
0001
0010
0000
0100
0000
0010
0000
,
0001
0000
0001
0010
0000
0010
0100
0000
,
0100
1000
0010
0100
0002
0000
0000
0103
,
0020
0000
1030
0000
1000
0100
0010
0001
,
0100
0000
0001
0010
0100
1000
0100
0000
,
1100
0100
0010
0001
1000
0000
1000
0100
,
0000
0100
0010
0000
0001
0100
0010
0100
,
0002
1000
0100
1003
,
1000
0100
0010
0001
0200
0000
0000
0000
,
0310
0210
0301
0120
,
1030
0000
1000
0100
0000
0100
1000
0000
,
0100
0000
1000
0000
0010
0000
0010
0100
,
0000
0100
0010
0000
0100
0000
0001
0000
,
1000
0100
0010
0000
0011
0000
0001
0010
,
0100
0000
1100
0000
1000
0100
0010
0000
,
0011
0000
0001
1000
0000
0000
0001
0000
,
0011
0000
0001
0020
0000
0000
0100
0000
,
1000
0000
0130
0000
1100
0000
1000
0200
,
0000
0010
0001
0310
,
0002
0023
0230
2300
,
3000
0100
1000
0000
1000
0100
0010
0000
,
0002
0010
1000
0103
,
0101
0000
1010
0000
0000
0010
0100
0000
,
0220
0000
0000
0330
0000
0000
0000
0000
;
