#TITLE:!!New Game Start!!;
#SUBTITLE:;
#ARTIST:Teikyou;
#TITLETRANSLIT:;
#SUBTITLETRANSLIT:;
#ARTISTTRANSLIT:;
#GENRE:;
#CREDIT:;
#BANNER:New Game Start.png;
#BACKGROUND:New Game Start-bg.png;
#LYRICSPATH:;
#CDTITLE:;
#MUSIC:New Game Start.ogg;
#OFFSET:0.873000;
#SAMPLESTART:99.929955;
#SAMPLELENGTH:12.000000;
#SELECTABLE:YES;
#BPMS:0.000000=200.000000
,268.000000=100.000000
,276.000000=200.000000
;
#STOPS:
;
#BGCHANGES:2.500=New Game Start.mp4=1.000=0=0=1=====,
99999=-nosongbg-=1.000=0=0=0 // don't automatically add -songbackground-
;
#KEYSOUNDS:;
#ATTACKS:;

//---------------dance-single - ----------------
#NOTES:
     dance-single:
     :
     Hard:
     16:
     0.778850,1.165237,0.204842,0.606648,0.405745,692.000000,666.000000,26.000000,77.000000,0.000000,0.000000,0.778850,1.165237,0.204842,0.606648,0.405745,692.000000,666.000000,26.000000,77.000000,0.000000,0.000000:
0000
0000
0000
0000
,
0000
0000
0000
0000
,
0000
0000
0000
0000
,
0000
0000
0000
0000
,
0000
0000
0000
0000
,
0000
0000
0000
0000
,
0000
0000
0000
0000
,
0000
0000
0000
0000
,
0000
0000
0000
0000
1001
0000
0001
1000
,
2100
0000
3001
0200
0000
0000
0320
0000
,
1030
0200
0000
1300
0010
0100
0001
0000
,
0101
0002
0000
2003
0000
3100
0020
0000
,
0331
2000
0000
3001
0100
1000
0100
0001
,
1000
2000
0000
3100
0000
1000
0001
1000
,
0010
0000
0020
0000
0000
0000
0130
0000
0000
0000
0001
0000
0010
0000
0001
1000
,
0001
0100
0010
1000
0100
0010
0001
1000
,
1010
0110
0101
1001
,
0001
0010
1000
0010
0100
1000
0001
0100
,
1000
0000
0100
0000
0010
0000
1000
0000
0001
0000
0010
0100
0010
0000
0001
0000
,
1000
0100
0001
0100
0010
0001
1000
0010
,
0001
0000
0010
0000
0100
0000
0001
0000
1000
0000
0100
0010
0100
0000
1000
0000
,
0001
0000
0100
0000
0010
0000
0100
0000
1000
0000
0100
0000
0001
0100
0001
0000
,
1000
0000
0100
0000
0010
0000
0100
0000
0001
0000
0100
0000
1000
0100
1000
0000
,
0001
0000
0100
0010
1000
0000
0001
0000
1000
0100
1000
0100
0010
0000
0002
0000
,
0000
1000
1003
0000
0000
0000
0000
0000
,
0001
0100
0001
0000
1000
0100
1000
0000
0001
0010
0001
0000
1000
0010
1000
0000
,
0001
1000
0001
1000
0001
1000
0001
1000
0010
0000
0010
0000
0000
0000
0000
0000
,
1000
0000
0010
0000
0100
0000
0001
0010
0100
0000
1000
0000
0001
0000
0100
0000
,
0010
1000
0010
0001
0010
1000
0001
0000
,
1001
0000
1001
0000
0001
0100
0101
0000
,
1000
0010
0100
0001
1000
0000
0000
0000
0010
0000
0010
0000
1001
0000
0000
0000
,
1000
0000
0100
0010
0001
0000
2000
0000
0000
0000
3002
0000
0000
0000
0203
0000
,
0000
0000
0310
0000
0010
0000
1000
0000
0001
0000
1000
0100
0010
0000
0001
0000
,
0100
0000
0001
0100
0010
0000
0200
0000
0000
0000
0302
0000
0000
0000
1003
0000
,
0100
0010
0001
1000
0010
0100
1001
0000
,
0001
0000
1000
0000
0010
0000
0100
0001
2000
0000
0000
0000
3001
0010
0001
0010
,
0001
0000
1000
0000
0001
0000
0100
0010
2000
0000
0000
0000
3001
0100
0001
0100
,
0001
0000
1000
0000
0100
0000
0010
0001
0200
0000
0000
0000
0310
1000
0010
1000
,
0010
0000
0100
0000
0001
0000
1000
0100
0010
0000
0001
1000
0001
0000
0000
0000
,
1000
0000
0100
0000
0001
0000
0100
0010
0100
0000
0010
0001
1000
0000
0010
0000
,
0100
1300
0100
0301
0010
0100
1100
0000
,
0001
0100
0010
0100
0001
0000
1000
0100
0010
0000
0001
0100
0010
0000
1000
0000
,
0001
0010
0100
1000
0013
0100
1001
0000
,
0001
0100
0001
0000
0100
0001
0100
0000
0001
0000
0010
0000
0100
0000
0100
0000
,
1000
0001
1000
0000
0010
0000
0100
0000
0001
0100
0010
0100
0001
0000
0000
0000
,
1000
0100
1300
0000
0100
1000
0100
0000
1000
0000
0010
0000
0100
0000
0001
0000
,
1000
0001
1000
0000
0010
0000
0100
0000
0002
0000
0000
0000
1003
0000
0000
0000
,
0001
0100
0010
0100
0001
0100
0010
0100
0001
0000
1000
0000
0100
0000
0010
0000
,
0001
0000
1000
0100
1000
0000
0001
1000
0000
0001
1000
0000
0020
0000
0000
0000
,
0130
0000
0100
0000
0001
0000
1000
0100
1000
0000
0001
0000
0100
0000
0010
0000
,
1000
0100
1000
0000
0100
0000
0010
0000
0002
0000
0000
0000
1003
0000
0000
0000
,
0001
0000
0100
0000
0010
0000
1000
0000
0001
0010
0001
0010
0100
1000
0100
1000
,
0002
0203
0310
1000
0200
0320
0032
0000
,
1003
0010
0100
0010
2000
0000
3002
0000
0013
0000
0010
0000
0100
0000
1000
0000
,
0001
0100
0010
1000
0001
0000
0010
0000
0100
0000
1000
0000
0010
0100
0001
1000
,
0200
0000
0000
0000
0310
0000
0001
0000
1000
0010
1000
0010
0100
0001
0100
0001
,
2000
3200
0310
0010
0001
1000
0020
0000
,
0130
0000
0000
0000
,
0000
0000
0002
0203
,
2300
0000
3200
0320
,
2030
0000
3100
0002
0000
0103
0010
0100
,
2000
0000
0000
3002
0000
0000
0203
0000
,
0000
0320
0000
0000
1030
0000
0001
0000
,
1002
0000
0023
0230
,
2300
0300
3010
0200
0000
0301
0010
1000
,
0020
0000
0000
0032
0000
0000
2000
0000
,
0000
0000
0000
3003
,
1000
0000
0001
0000
,
0100
0000
0000
0000
0020
0000
0100
0130
,
1001
0000
1000
1100
0000
0000
1001
0001
,
0000
0000
1000
0000
0100
0000
1000
0000
0001
0000
0100
0000
0001
0000
1000
0001
,
1000
0000
0010
0000
0100
0000
0001
0000
1000
0000
0100
0010
0001
0000
2000
0000
,
0000
0001
3001
0000
0000
0000
0000
0000
,
0000
0000
0000
0000
,
2000
3100
2000
3001
,
2000
0000
3100
0000
1000
0100
1000
1000
,
0002
0103
0002
1003
,
0002
0000
0103
0000
0001
0100
0001
0001
,
2000
3010
2000
3001
,
2000
0000
3010
0000
1000
0010
1000
0000
,
0002
0000
0013
0200
0000
2300
0000
3002
,
0000
0203
0302
2030
,
3303
0000
0000
0000
1001
1000
0010
0001
,
0010
0000
0100
0000
0001
0000
1000
0000
0001
0000
0010
0100
0010
0000
0001
0000
,
1000
0010
0001
0010
0100
0001
1000
0100
,
0001
0000
0100
0000
0010
0000
0001
0000
1000
0000
0010
0100
0010
0000
1000
0000
,
0001
0100
1000
0100
0010
1000
0001
0010
,
1000
0010
0100
1000
0010
0100
0001
1000
,
1200
0000
0310
0001
0012
0000
1003
0010
,
1010
0110
0101
1001
,
1000
0000
0001
0100
0001
0000
1000
0000
0100
0000
0010
0000
0001
0000
1000
0010
,
1000
0000
0001
0000
0100
0000
0010
0000
1000
0000
0100
0010
0001
0000
0100
0000
,
0001
0000
1000
0010
1000
0000
0001
0000
0010
0000
0100
0000
1000
0000
0001
0100
,
0001
0000
1000
0000
0010
0000
0100
0000
0001
0000
0010
0100
1000
0000
0001
0000
,
0201
0000
0000
0000
0310
0000
1000
0000
0001
0000
1000
0000
0001
0010
0100
1000
,
0020
0003
0000
0000
0130
0000
0001
0000
1000
0000
0001
0000
1000
0100
0010
0001
,
1000
0000
0000
0000
0001
0000
0100
0000
0010
1000
0001
1000
0010
0000
0200
0000
,
0000
0010
0310
0000
0000
0000
0000
0000
,
2000
3000
0000
0000
0002
0003
0000
0000
,
1000
0100
1000
0000
0001
0100
0001
0000
1000
0100
1000
0000
0001
0100
0001
0000
,
1000
0010
1000
0000
0001
0010
0001
0000
1000
0010
1000
0000
0001
0010
0001
0000
,
1000
0001
1000
0001
1000
0001
1000
0001
1000
0001
1000
0001
1000
0001
1000
0001
,
0100
0000
0000
0000
;

//---------------dance-single - ----------------
#NOTES:
     dance-single:
     :
     Challenge:
     18:
     0.921790,1.325959,0.330899,0.732705,0.732705,819.000000,777.000000,42.000000,93.000000,0.000000,0.000000,0.921790,1.325959,0.330899,0.732705,0.732705,819.000000,777.000000,42.000000,93.000000,0.000000,0.000000:
// measure 0
0000
0000
0000
0000
,  // measure 1
0000
0000
0000
0000
,  // measure 2
0000
0000
0000
0000
,  // measure 3
0000
0000
0000
0000
,  // measure 4
0000
0000
0000
0000
,  // measure 5
0000
0000
0000
0000
,  // measure 6
0000
0000
0000
0000
,  // measure 7
0000
0000
0000
0000
,  // measure 8
0000
0000
0000
0000
0000
0000
0000
0000
1001
0000
0000
0000
1000
0100
0010
0001
,  // measure 9
1000
0100
1000
0020
0000
1033
0100
1000
,  // measure 10
0010
0000
2000
0000
0000
0000
3010
0000
0100
0000
0001
0010
0100
0000
1000
0000
,  // measure 11
0001
0010
0001
0200
0000
3301
0010
0001
,  // measure 12
0100
0000
0002
0000
0000
0000
0103
0000
0010
0000
1000
0100
0010
0000
0001
0000
,  // measure 13
1000
2100
0000
3002
0000
0103
0010
1000
,  // measure 14
0001
0000
0012
0000
0000
0000
1003
0000
0010
0000
3001
0000
0010
0000
0100
0001
,  // measure 15
1000
0000
0100
0000
0010
0000
0020
0000
0031
0000
0200
0000
0310
3000
2000
0000
,  // measure 16
3001
0100
0010
1000
0100
0000
0010
0001
1000
0000
0001
1000
0001
0000
0000
0000
,  // measure 17
1000
0000
0001
0100
0001
0000
0020
0000
0130
0000
1000
0000
0010
0000
1000
0001
,  // measure 18
1000
0000
0020
0000
0130
0000
0001
0000
1000
0000
0100
0010
0001
0000
1000
0000
,  // measure 19
0001
0000
1000
0010
1000
0000
0020
0000
0130
0000
0001
0000
0010
0000
0001
1000
,  // measure 20
0001
0000
0200
0000
0310
0000
1000
0000
0001
0000
0010
0100
1000
0000
0001
0000
,  // measure 21
0101
0000
0100
0000
0010
0000
1000
0000
0100
0000
0010
0000
0001
1000
0001
1000
,  // measure 22
0010
0000
0000
0000
0000
0000
0100
0000
0000
0000
0000
0000
0001
0000
0000
0000
0000
0000
1000
0000
0000
0000
0000
0000
0100
0000
0000
0000
0000
0000
1000
0000
0001
0000
1000
0000
0001
0000
0000
0100
0000
0000
0010
0000
0000
1000
0000
0000
,  // measure 23
0001
0000
1000
0100
0010
0000
0001
0000
0100
0010
1000
0001
1000
0000
0200
0000
,  // measure 24
0000
0010
0310
0000
0002
3003
2000
3003
,  // measure 25
0001
1000
0001
1000
0001
1000
0001
1000
0001
1000
0001
1000
0001
1000
0001
1000
,  // measure 26
0001
1000
0001
1000
0001
1000
0001
1003
0010
0000
0110
0000
0000
0000
0000
0000
,  // measure 27
0001
0000
0100
0000
1000
0000
0100
0001
1000
0000
0001
0010
0100
0000
1000
0000
,  // measure 28
0020
0130
0020
0031
0010
1000
0001
0000
,  // measure 29
2000
0100
3002
0010
1003
0010
0110
0000
,  // measure 30
0001
0010
0100
1000
0010
0000
0100
0000
1001
0000
0110
0000
1001
0000
0000
0000
,  // measure 31
0101
0000
0100
0010
1000
0000
1100
0000
0100
0000
0101
0000
1000
0000
1020
0000
,  // measure 32
0000
0000
0130
0000
0100
0000
0001
0010
0100
0000
1000
0010
0100
0000
0000
0000
,  // measure 33
1010
0000
0010
0100
0001
0000
0011
0000
0010
0000
1010
0000
0001
0000
0200
0000
,  // measure 34
2300
3200
0302
0023
0230
2300
3001
0000
,  // measure 35
1000
0100
0010
0100
1000
0000
0001
0100
0020
0000
0031
0000
0010
1000
0001
1000
,  // measure 36
0200
0000
0310
0000
1000
0010
0100
0010
0002
0000
1003
0000
0001
0100
0010
0100
,  // measure 37
0001
0000
1000
0000
0001
0010
0100
1000
0020
0000
0031
0000
0010
1000
0001
1000
,  // measure 38
0200
0000
0310
0000
0001
0100
0010
1000
0001
0000
1000
0100
0010
0000
0000
0000
,  // measure 39
0001
0000
1000
0000
0001
0000
0100
0010
1000
0000
0100
0000
0010
0000
0001
0000
,  // measure 40
0012
1003
2010
3001
1001
0110
1001
0000
,  // measure 41
1000
0000
0001
0010
0100
0000
1000
0010
0100
0000
0001
0010
0100
0000
1000
0001
,  // measure 42
0100
0010
0100
0000
0010
0100
0010
0000
1000
0100
0010
0000
1001
3000
0000
0000
,  // measure 43
0001
0100
0010
0100
0001
0100
0010
0100
0001
0000
1000
0000
0001
0010
0100
0000
,  // measure 44
1000
0100
1000
0000
0001
1000
0001
1000
0010
0100
0001
1000
0100
0000
0000
0000
,  // measure 45
1000
0100
1000
0100
1000
0001
1000
0001
0100
0000
0010
0000
1000
0000
0001
0000
,  // measure 46
1000
0100
0010
0000
0001
0000
0100
0000
0010
0000
0000
0000
0110
0000
0000
0000
,  // measure 47
1000
0010
0100
0010
1000
0010
0100
0010
1000
0100
1000
0100
0010
0001
0010
0000
,  // measure 48
0001
1000
0001
1000
0010
0000
1000
0010
0000
0100
0001
0000
2000
0000
0000
0000
,  // measure 49
3001
0010
0001
0010
0001
1000
0001
1000
0010
0000
0100
0000
0001
0000
1000
0000
,  // measure 50
0100
1000
0100
1000
0010
0000
0100
0001
2000
0000
0000
0000
3001
0000
0000
0000
,  // measure 51
0101
0000
0100
0000
0010
0000
1000
0000
0001
0010
0100
1000
0001
0100
0010
1000
,  // measure 52
0020
0000
0230
0000
0301
0000
1000
0100
0020
0000
0031
0000
0022
0000
0033
0000
,  // measure 53
1000
0001
0100
0010
2000
0000
3002
0000
0013
0000
0010
0000
0100
0010
0100
0000
,  // measure 54
1000
0100
0010
0001
0100
0000
0010
0000
1000
0001
1000
0000
0001
0010
0100
1000
,  // measure 55
0020
0000
0230
0000
0302
0000
0000
0000
1003
0100
0010
0001
1000
0010
0100
0001
,  // measure 56
0200
0000
0320
0000
1030
0000
0001
0010
0200
0000
1300
0000
0001
1000
0301
1000
,  // measure 57
0000
0000
0000
0000
,  // measure 58
0000
0000
0002
0103
,  // measure 59
0201
0000
2300
3200
,  // measure 60
0320
0000
1030
0230
0000
0301
0100
1000
,  // measure 61
0020
0000
0130
0002
0300
0013
0200
0030
,  // measure 62
1303
0002
0000
0103
0010
1003
0001
1000
,  // measure 63
1200
0000
0332
0203
,  // measure 64
0320
0000
0331
0200
0000
1330
0100
0001
,  // measure 65
0320
0000
0300
0032
0000
0000
2000
0000
,  // measure 66
0000
0000
0000
3003
,  // measure 67
1000
0000
0010
0000
,  // measure 68
0100
0000
0000
0000
0000
0000
0000
0000
0000
0000
0000
0000
0000
0000
0000
0000
0002
0000
0000
0000
0000
0000
0000
0000
1003
0100
1000
0100
1000
0000
0000
0000
,  // measure 69
0101
0100
0010
2010
0000
3001
0011
0000
,  // measure 70
1001
0000
1000
0000
0010
0000
0001
0000
0010
0000
0100
0000
0001
0000
1000
0100
,  // measure 71
0010
0000
0001
0100
0010
0000
1000
0000
0001
0010
0100
0000
1000
0000
1010
0000
,  // measure 72
0010
0100
1001
0000
0000
0000
0000
0000
,  // measure 73
0000
0000
0000
0000
0000
0000
0000
0000
0000
0000
0000
0000
0001
0010
0100
1000
,  // measure 74
0020
0001
1000
0001
,  // measure 75
1000
0001
1000
0001
,  // measure 76
0230
1000
0001
1000
,  // measure 77
0001
1000
0001
1000
,  // measure 78
0320
0001
1000
0001
,  // measure 79
1000
0001
1000
0001
,  // measure 80
0230
0000
0301
0020
0000
0230
0000
2300
,  // measure 81
0000
0010
0100
3001
,  // measure 82
0000
0000
0000
0000
0000
0000
0000
0000
1001
0000
1000
0000
0010
0000
0100
0010
,  // measure 83
0100
0000
0002
0000
1003
0000
0100
0000
0010
0000
0001
0100
0010
0000
1000
0000
,  // measure 84
0001
0000
1000
0100
1000
0000
0200
0000
0310
0000
0001
0000
1000
0000
0001
0100
,  // measure 85
0001
0000
2000
0000
3010
0000
0100
0000
0001
0000
1000
0100
0010
0000
0001
0000
,  // measure 86
0101
0000
0100
0010
1000
0000
0002
0000
1003
0000
0100
0010
0001
0000
1000
0000
,  // measure 87
1010
0000
0010
0100
0001
0000
2000
0000
3100
0000
0010
0001
1000
0000
0010
0000
,  // measure 88
1020
0000
0000
0000
0130
0001
2000
0000
0000
0000
3002
0000
0000
0000
0103
0000
,  // measure 89
0101
0110
1010
1001
,  // measure 90
1000
0100
0010
0100
1000
0000
0002
0000
0103
0000
0010
0000
1000
0001
0100
0001
,  // measure 91
1000
0000
0200
0000
0310
0000
0001
0000
1000
0000
0001
0100
0010
0000
1000
0000
,  // measure 92
0001
0010
0100
0010
0001
0000
2000
0000
3010
0000
0100
0000
0001
1000
0010
1000
,  // measure 93
0001
0000
0020
0000
0130
0000
1000
0000
0001
0000
1000
0010
0100
0000
0001
0000
,  // measure 94
0101
0000
0100
0000
0010
0000
0010
0000
1000
0000
1000
0000
0001
0010
0100
1000
,  // measure 95
0001
0000
0000
0000
0000
0000
0001
0000
0000
0000
0000
0000
0100
0000
0000
0000
0000
0000
0100
0000
0000
0000
0000
0000
0010
0000
0000
0000
0000
0000
1000
0000
0001
0000
1000
0000
0001
0000
0000
0010
0000
0000
0100
0000
0000
1000
0000
0000
,  // measure 96
0001
0000
0100
0010
1000
0000
0001
0010
0100
1000
0010
0100
0001
1000
0020
0000
,  // measure 97
0000
0100
0133
0000
0000
0000
0000
0000
,  // measure 98
0002
3303
0000
0000
2000
3033
0000
0000
,  // measure 99
0001
1000
0001
1000
0001
1000
0001
1000
0001
1000
0001
1000
0001
1000
0001
1000
,  // measure 100
0001
1000
0001
1000
0001
1000
0001
1000
0001
1000
0001
1000
0001
1000
0001
1000
,  // measure 101
0001
1000
0001
1000
0001
1000
0001
1000
0001
1000
0001
1000
0001
1000
0001
1000
,  // measure 102
0001
0000
0000
0000
;

//---------------dance-single - ----------------
#NOTES:
     dance-single:
     :
     Medium:
     13:
     0.593142,0.723250,0.212721,0.598769,0.000000,527.000000,500.000000,27.000000,76.000000,0.000000,0.000000,0.593142,0.723250,0.212721,0.598769,0.000000,527.000000,500.000000,27.000000,76.000000,0.000000,0.000000:
0000
0000
0000
0000
,
0000
0000
0000
0000
,
0000
0000
0000
0000
,
0000
0000
0000
0000
,
0000
0000
0000
0000
,
0000
0000
0000
0000
,
0000
0000
0000
0000
,
0000
0000
0000
0000
,
0000
0000
0000
0000
1001
0000
0001
0010
,
0200
0000
0000
0001
0000
0000
1000
0000
,
0000
0001
0000
0000
0310
0001
1000
0000
,
0010
0020
0000
0001
0000
0000
1000
0000
,
0000
0001
0000
0000
0130
0100
0001
1000
,
0001
0001
0000
0000
0200
0000
0310
0000
,
1030
1000
0000
0000
0200
0000
0310
0000
,
0011
0011
1100
1100
,
0001
0100
0010
0100
1000
0100
0001
0000
,
1000
0010
0100
0020
0000
1030
0100
0010
,
0001
2000
0000
3031
0100
0010
1000
0000
,
0001
0010
0100
0020
0000
0331
0100
0010
,
1000
0002
0000
1303
0010
0100
0001
0000
,
1000
0100
1000
0100
0010
0001
1000
0010
,
0100
0001
0100
0001
1000
0100
0010
0001
,
1001
0000
0001
0200
0000
0320
0000
2030
,
0000
0001
3001
0000
0000
0000
0000
0000
,
1000
0001
1000
0001
1000
0001
1000
0001
,
1000
0001
1000
0001
0100
0100
0000
0000
,
0001
0010
0001
0010
1000
0010
0001
1000
,
0010
0100
0010
0100
0001
0010
0100
0000
,
1100
0000
0101
0000
1000
0001
0100
0000
,
0001
1000
0010
0000
1000
0001
0010
0000
,
0002
0000
0103
0200
0000
2300
0000
3200
,
0000
0310
0020
0000
1030
0100
0010
0001
,
2000
0000
3010
0020
0000
0032
0000
0013
,
0100
0031
0010
0100
1300
0000
1001
0000
,
0001
0100
1000
0001
0020
0000
1030
0001
,
1000
0100
0001
1000
0020
0000
0031
1000
,
0001
0010
1000
0001
0200
0000
1300
0001
,
1000
0010
0001
1000
0200
0000
0301
0000
,
1000
0100
1000
0100
0010
0001
0100
0010
,
1000
0001
1000
0001
0100
0010
1000
0000
,
0001
0100
0001
0100
0010
1000
0100
0010
,
0001
0000
0000
0000
,
1000
0100
1000
0100
0001
0100
0001
0100
,
1000
0010
0100
0001
0010
0100
1000
0000
,
0001
0100
0001
0100
0010
0100
0010
0100
,
0001
0010
0100
1000
0001
0000
1001
0000
,
1000
0010
0100
0000
0001
0010
0100
0000
,
1000
0001
1000
0001
0100
0010
1000
0000
,
0001
0010
1000
0010
0001
0010
1000
0010
,
0001
0100
0010
1000
0100
0010
0001
0000
,
2000
0000
3002
0000
0103
0010
0100
0010
,
1000
1000
0002
0000
0013
0000
2001
0000
,
3010
0100
0001
0001
0010
0100
1000
1000
,
0002
0203
0310
0000
1000
0100
2000
3002
,
0203
0000
0320
0000
1030
0100
0001
0100
,
0010
0010
0002
0000
1003
0000
2001
0000
,
3010
0000
0000
0000
,
0000
0000
2000
3002
,
0203
0000
0320
2030
,
3002
0000
1003
0100
0000
0100
0010
0001
,
2000
0000
0000
3002
0000
0000
0203
0000
,
0000
0320
0000
0000
1030
0000
0001
0000
,
0021
0000
0230
2300
,
3020
0000
1030
0001
0000
0001
0010
0100
,
2000
0000
0000
0010
0000
0000
0002
0000
,
0000
0000
0000
3003
,
0001
0000
0100
0000
,
0010
0000
0000
0000
2000
0000
0001
3001
,
1001
0000
0000
1100
0000
0000
1001
0000
,
1001
0000
0000
0101
0000
0000
1001
0000
,
1000
0010
0100
0001
0010
0100
1000
0002
,
0000
1000
1003
0000
0000
0000
0000
0000
,
0000
0000
0000
0000
,
0002
0103
0002
0103
,
0002
0103
0002
0103
,
0020
1030
0020
1030
,
0020
1030
0020
1030
,
2000
3100
2000
3100
,
2000
3100
2000
3100
,
0020
0000
0031
2000
0000
3020
0000
0230
,
0000
0302
2003
3001
,
0000
0000
0000
0000
1001
0000
0001
0100
,
0001
0100
0010
0000
1000
0100
0010
0000
,
0001
0010
0001
0010
0100
0000
1000
0010
,
1000
0010
0100
0000
0001
0010
0100
0000
,
1000
0001
1000
0001
0100
0000
0001
1000
,
0001
1000
0100
0000
1000
0100
0010
0000
,
0011
1100
1010
0101
,
1000
0100
0010
0001
0100
0010
1000
0000
,
0001
0100
1000
1000
0100
0001
0010
1000
,
0010
0010
0100
0010
0001
1000
0010
0000
,
1000
0010
0001
0001
0010
1000
0100
0001
,
0100
0100
0010
0100
1000
0001
0100
0000
,
0101
0000
1000
0010
1000
0100
1000
0000
,
1100
0000
0001
0010
0001
0100
0001
0000
,
0101
0000
1000
0020
0000
0230
0000
0302
,
0000
1000
1003
0000
0000
0000
0000
0000
,
2000
3000
0000
0000
0002
0003
0000
0000
,
1000
0001
1000
0001
1000
0001
1000
0001
,
1000
0001
1000
0001
1000
0001
1000
0001
,
1000
0001
1000
0001
1000
0001
1000
0001
,
0100
0000
0000
0000
;

//---------------dance-single - ----------------
#NOTES:
     dance-single:
     :
     Easy:
     9:
     0.401806,0.683070,0.141814,0.259992,0.000000,357.000000,339.000000,18.000000,33.000000,0.000000,0.000000,0.401806,0.683070,0.141814,0.259992,0.000000,357.000000,339.000000,18.000000,33.000000,0.000000,0.000000:
0000
0000
0000
0000
,
0000
0000
0000
0000
,
0000
0000
0000
0000
,
0000
0000
0000
0000
,
0000
0000
0000
0000
,
0000
0000
0000
0000
,
0000
0000
0000
0000
,
0000
0000
0000
0000
,
0000
0000
1001
1000
,
0020
0000
0000
0000
,
0230
0000
0301
1000
,
0200
0000
0000
0000
,
0320
0000
0031
1000
,
2002
3003
0001
1000
,
0020
0030
1000
0010
,
0100
0100
0001
0001
,
1000
0100
0010
1001
,
1000
0000
1000
0100
0000
0000
1000
0000
,
1000
0100
0000
0000
1000
0001
1000
0000
,
0001
0000
0001
0100
0000
0000
0001
0000
,
0001
0100
0000
0000
0001
1000
0001
0000
,
2020
3030
0001
1000
,
0022
0033
1000
0001
,
0100
0000
0100
0010
0000
0010
0000
1000
,
0000
0001
0001
0000
0000
0000
0000
0000
,
1000
0001
1000
0001
1000
0001
1000
0001
,
1000
0001
1000
0001
1000
0000
0000
0000
,
0001
0100
0010
0010
,
1000
0100
0010
0000
,
0001
0000
0001
0000
1000
0100
1000
0000
,
0001
0100
0001
0000
1000
0000
0000
0000
,
0001
0000
0001
0100
0000
0100
0000
0010
,
0000
0010
0010
0000
1000
0000
1001
0000
,
0001
0000
1000
0100
0000
0100
0000
0010
,
0010
0001
1000
1001
,
0001
0100
0001
0000
0200
0000
0300
0000
,
0010
1000
0010
0000
2000
0000
3000
0000
,
0001
0010
0001
0000
0020
0000
0030
0000
,
0100
1000
0100
0000
2000
0000
3000
0000
,
0001
1000
0010
0100
,
0010
0100
0010
0000
0100
0010
0100
0000
,
0001
0010
0100
1000
,
0010
0000
0000
0000
,
1000
0000
0001
0000
1000
0100
1000
0000
,
0100
0010
0001
1000
,
0001
0100
0001
0000
0100
0001
0100
0000
,
0001
1000
0010
0000
,
1000
0001
1000
0000
0100
0000
0100
0000
,
0010
0001
1000
0000
,
0001
0010
0001
0000
1000
0100
1000
0000
,
0001
0100
0010
0000
,
1000
0000
0010
0000
0100
0001
0100
0001
,
0100
0010
1000
0000
,
0001
0000
0010
0000
0100
1000
0100
0000
,
1000
1000
0001
0000
1000
1000
0001
0000
,
1000
0000
0010
0000
0100
0001
0100
0001
,
1000
0000
0001
0000
0010
0010
0100
0000
,
1000
0000
0000
0000
,
0000
0000
0002
1003
,
2001
0000
0010
0000
,
3002
0000
0010
0000
,
2003
0000
0000
3020
0000
0000
0230
0000
,
0000
0302
0000
0000
1003
0000
0001
0000
,
1002
0000
0010
0000
,
2003
0000
0010
0000
,
3002
0000
0000
0023
0000
0000
0200
0000
,
0000
0000
0000
0330
,
1000
0000
0001
0000
,
0100
0000
0010
0010
,
1000
0000
0000
1000
0000
0000
1000
0000
,
0001
0000
0000
0001
0000
0000
0001
0000
,
0010
0000
0100
0000
1000
0001
0000
0100
,
0000
0010
0010
0000
0000
0000
0000
0000
,
0000
0000
0000
0000
,
2000
3000
0000
0000
,
2000
3000
0000
0000
,
0002
0003
0000
0000
,
0002
0003
0000
0000
,
0200
0300
0000
0000
,
0200
0300
0000
0000
,
0010
0000
0010
0000
,
0010
1000
0001
1000
,
0000
0000
1001
1000
,
0100
0000
0010
0000
0001
0010
0001
0000
,
1000
0001
0100
0010
,
1000
0000
0001
0000
1000
0100
1000
0000
,
1100
0000
0100
0010
,
0011
0000
0001
0100
,
0101
0000
1010
0000
,
1001
1001
0110
1001
,
1000
0100
1000
0100
0000
0000
1000
0001
,
1000
0001
0000
0000
1000
0000
0010
0000
,
0100
0001
0100
0001
0000
0000
1000
0010
,
1000
0010
0000
0000
0100
0000
0001
0000
,
1000
0001
1000
0001
0000
0000
1000
0001
,
1000
0001
0000
0000
1000
0000
0001
0000
,
0010
0000
0010
0100
0000
0100
0000
1000
,
0000
0001
0001
0000
0000
0000
0000
0000
,
0000
0000
0000
0000
,
1000
0001
1000
0001
1000
0001
1000
0001
,
1000
0001
1000
0001
1000
0001
1000
0001
,
1000
0001
1000
0001
1000
0001
1000
0001
,
1000
0000
0000
0000
;

//---------------dance-single - ----------------
#NOTES:
     dance-single:
     :
     Beginner:
     4:
     0.165449,0.361625,0.031514,0.000000,0.000000,147.000000,143.000000,4.000000,0.000000,0.000000,0.000000,0.165449,0.361625,0.031514,0.000000,0.000000,147.000000,143.000000,4.000000,0.000000,0.000000,0.000000:
0000
0000
0000
0000
,
0000
0000
0000
0000
,
0000
0000
0000
0000
,
0000
0000
0000
0000
,
0000
0000
0000
0000
,
0000
0000
0000
0000
,
0000
0000
0000
0000
,
0000
0000
0000
0000
,
0000
0000
0000
0000
,
1000
0000
0000
0000
,
0001
0000
0000
0000
,
0100
0000
0000
0000
,
0100
0000
0000
0000
,
0010
0000
0000
0000
,
1000
0000
0000
0000
,
0001
0000
0001
0000
,
0001
0000
0000
0000
,
1000
1000
0000
1000
,
1000
0000
0000
0000
,
0010
0010
0000
0010
,
0010
0000
0000
0000
,
1001
0000
0000
0000
,
1001
0000
0000
0000
,
0001
0000
0001
0000
,
1000
0000
0000
0000
,
0010
0010
0010
0010
,
0010
0010
0010
0000
,
1000
0000
0000
0000
,
0001
0000
0000
0000
,
0010
0000
0010
0000
,
0010
0000
0000
0000
,
0001
0001
0000
0000
,
0001
0000
0001
0000
,
1000
1000
0000
0000
,
1000
0000
0000
0000
,
0010
0010
0010
0000
,
0010
0000
0000
0000
,
0100
0100
0100
0000
,
0100
0000
0000
0000
,
0001
0000
0001
0000
,
0001
0000
0000
0000
,
1000
0000
1000
0000
,
1000
0000
0000
0000
,
0001
0000
0010
0000
,
0100
0000
0000
0000
,
1000
0000
1000
0000
,
1000
0000
0000
0000
,
1000
0000
0010
0000
,
0100
0000
0000
0000
,
0001
0000
0001
0000
,
0001
0000
0000
0000
,
1000
0000
0001
0000
,
0100
0100
0000
0000
,
0001
0000
1000
0000
,
0010
0010
0000
0000
,
1000
0000
0001
0000
,
0010
0010
0000
0000
,
0100
0000
0000
0000
,
0000
0000
0000
0000
,
1001
0000
0000
0000
,
1000
0000
0000
0000
,
0010
0000
0000
0000
,
0010
0000
0000
0000
,
0100
0000
0000
0000
,
0001
0000
0000
0000
,
1000
0000
0000
0000
,
0001
0000
0000
0000
,
0010
0000
0000
0000
,
0000
0000
0000
0000
,
0001
0000
0000
0001
,
0001
0000
0000
0000
,
1000
0000
1000
0000
,
1000
1000
0000
0000
,
0000
0000
0000
0000
,
0010
0000
0000
0000
,
0000
0000
0000
0000
,
0100
0000
0000
0000
,
0000
0000
0000
0000
,
0001
0000
0000
0000
,
0000
0000
0000
0000
,
1000
0000
1000
0000
,
1000
0000
1000
0000
,
0000
0000
1001
0000
,
0000
0000
1000
1000
,
1000
0000
0000
0001
,
0001
0000
0000
0000
,
0100
0000
0000
0000
,
0100
0000
0000
0000
,
0010
0000
0010
0000
,
0010
0000
0000
0000
,
1000
1000
0000
1000
,
1000
0000
0000
0000
,
0001
0001
0000
0001
,
0001
0000
0000
0000
,
0010
0010
0000
0010
,
0010
0000
0000
0000
,
0100
0000
0100
0000
,
0100
0100
0000
0000
,
0000
0000
0000
0000
,
1000
1000
1000
1000
,
1000
1000
1000
1000
,
1000
1000
1000
1000
,
1000
0000
0000
0000
;

//---------------dance-double - ----------------
#NOTES:
     dance-double:
     :
     Hard:
     16:
     0.784478,1.165237,0.244235,0.638162,0.425441,697.000000,666.000000,31.000000,81.000000,0.000000,0.000000,0.784478,1.165237,0.244235,0.638162,0.425441,697.000000,666.000000,31.000000,81.000000,0.000000,0.000000:
00000000
00000000
00000000
00000000
,
00000000
00000000
00000000
00000000
,
00000000
00000000
00000000
00000000
,
00000000
00000000
00000000
00000000
,
00000000
00000000
00000000
00000000
,
00000000
00000000
00000000
00000000
,
00000000
00000000
00000000
00000000
,
00000000
00000000
00000000
00000000
,
00000000
00000000
00000000
00000000
00011000
00000000
00001000
00010000
,
02000000
00000000
13000000
00100000
00000000
00100000
01000000
00000000
,
00010000
00100000
00000000
00100000
00001000
00010000
00001000
00000000
,
00010100
00020000
00000000
00032000
00000000
00003100
00000010
00001000
,
00000001
00000020
00000000
00000130
00001000
00000001
00001000
00000100
,
00010000
00020000
00000000
00032000
00000000
00103000
00010000
01000000
,
00001000
00002000
00000000
00013000
00010000
00030010
00001000
00000100
,
00000020
00000000
00000031
00000001
00000100
00000010
00001000
00000100
,
00010100
00000000
00101000
00000000
00001000
00010000
00011000
00000000
,
00010000
00100000
10000000
00100000
01000000
00010000
10000000
01000000
,
00010000
00000000
01000000
00000000
00100000
00000000
00001000
00000000
00010000
00000000
00000100
00010000
00000100
00000000
00001000
00000000
,
00000001
00000100
00001000
00000100
00000010
00001000
00000001
00000010
,
00001000
00000000
00000010
00000000
00000100
00000000
00001000
00000000
00000010
00000000
00010000
00000100
00010000
00000000
00001000
00000000
,
00201000
00000000
00000000
00000000
00310000
00000000
00010000
00000000
10000000
00000000
00100000
00000000
10000000
01000000
00100000
00010000
,
01000000
00000000
00001000
00000000
00010000
00000000
00001000
00000000
00001000
00000000
00010000
00000100
00000010
00000001
00001000
00000001
,
00000100
00000000
00000001
00000100
00000001
00000000
00001000
00000000
00000100
00010000
00001000
00100000
00010000
00000000
02000000
00000000
,
00000000
00001000
03001000
00000000
00002000
00003000
00020000
00030000
,
00001000
00100000
00001000
00000000
00010000
00000010
00010000
00000000
00001000
01000000
00001000
00000000
00010000
00000100
00010000
00000000
,
00001000
00010000
00001000
00010000
00001000
00010000
00001000
00010000
00100000
00000000
01100000
00000000
00000000
00000000
00000000
00000000
,
10100000
00000000
10000000
00000000
00010000
00000000
10000000
01000000
00100000
00000000
00010000
01000000
00100000
00000000
00010000
00000000
,
00002000
00103000
00002000
00013000
00001000
00030100
00000101
00000000
,
00001001
00000000
00001001
00000000
00001000
00000100
00010000
00000000
,
00001000
00010000
00001000
00010000
00001000
00000000
00000000
00000000
01000000
00000000
00100000
00000000
01100000
00000000
00000000
00000000
,
10000000
01000000
01000000
20000000
00000000
30200000
00000000
00310000
,
00001000
00000000
00010000
00000000
00020000
00000000
00000000
00000000
00030100
00000000
00001000
00000001
00001000
00000000
00000000
00000000
,
00000001
00000010
00000010
00000002
00000000
00000203
00000000
00001300
,
00010000
00100000
10000000
01000000
00010000
00001000
00011000
00000000
,
00010000
00000100
00010000
00000000
00001000
00000000
00000100
00000000
00000020
00000000
00000000
00000000
00001030
00000001
00001000
00000001
,
00000010
00000000
00000100
00000000
00010000
00000000
00001000
00000000
02000000
00300000
00000000
00000000
03100000
10000000
00100000
10000000
,
00010000
00000000
00100000
00000000
00001000
00000000
00010000
00000000
00000020
00000000
00000000
00000000
00000130
00000001
00000100
00000001
,
00001000
00000000
00000100
00000000
00000010
00000000
00000001
00000000
00000100
00000000
00000001
00001000
00000001
00000000
00000000
00000000
,
00001000
00000000
00000100
00000000
00000001
00000000
00000100
00001000
00000010
00000000
00000100
00000000
00001000
00000000
00010000
00000000
,
00002000
00103000
00002000
00013000
00001000
01000000
01100000
00000000
,
10000000
00010000
01000000
00010000
10000000
00000000
01000000
00100000
00010000
00000000
01000000
00100000
10000000
00000000
00010000
00000000
,
00200000
00000000
00000000
00000000
00302000
00000000
00000300
00000300
00013000
00000000
00000000
00000000
00001010
00000000
00000000
00000000
,
00000001
00000100
00000001
00000000
00000100
00000001
00000100
00000000
00000010
00001000
00000001
00001000
00000010
00000000
00001000
00000000
,
00000100
00010000
00000100
00000000
00010000
00000100
00010000
00000000
00001000
00000000
01000000
00000000
01010000
00000000
00000000
00000000
,
10000000
01000000
10000000
00000000
01000000
10000000
01000000
00000000
00100000
00000000
00010000
00000000
01000000
00000000
00001000
00000000
,
00010000
00000100
00010000
00000000
00001000
00000000
01000000
00000000
00100000
00000000
00000000
00000000
10310000
00000000
00000000
00000000
,
10000000
00100000
10000000
00000000
00100000
10000000
00100000
00000000
01000000
00010000
10000000
00010000
01000000
00000000
00010000
00000000
,
00100000
00001000
00100000
00000000
00001000
00000000
00010000
00000010
00000000
00000010
00000100
00000000
00000002
00000000
00000000
00000000
,
00001003
00000100
00001000
00000000
00000100
00001000
00000100
00000000
00010000
00000000
00001000
00000000
01000000
00000000
00100000
00000000
,
10000000
00010000
10000000
00000000
01000000
00000000
00100000
00000000
00001000
00000000
00000000
00000000
00011300
00000000
00000000
00000000
,
00010000
00000000
00000010
00000000
00000100
00000000
00000001
00000000
00001000
00000100
00001000
00000100
00000010
00000001
00000010
00000001
,
00001000
00001000
00000100
00010000
00001000
00000000
02020000
03030000
,
10000000
01000000
00100000
01000000
10000000
00000000
00010000
00000000
01000000
00000000
01000000
00000000
00100000
10000000
00010000
00000000
,
00100000
00001000
00010000
00000100
00001000
00000000
00000010
00000000
00002000
00000000
00000000
00000000
00003001
00000010
00000100
00001000
,
00000200
00000000
00000000
00000000
00010300
00000000
00001000
00000000
01000000
00010000
01000000
00010000
10000000
00100000
10000000
00100000
,
01000000
00000000
01000000
00000000
00010000
00000000
10000000
00000000
01000000
00000000
00100000
00000000
00001000
00010000
00001000
00010000
,
00000000
00000000
00000000
00000000
,
00000000
00000000
00002000
00003200
,
00000302
00000000
00000023
00002030
,
00023000
00000000
00031000
02000000
00000000
03100000
00010000
00001000
,
00200000
00000000
00000000
02300000
00000000
00000000
23000000
00000000
,
00000000
30020000
00000000
10030000
00200000
00000000
01300000
00010000
,
20300000
00000000
32000000
03020000
,
00032000
00000000
00013000
00000020
00000000
00000130
00001000
00010000
,
00000200
00000000
00000000
02000300
00000000
00000000
00200000
00000000
,
00000000
00000000
00000000
03300000
,
10000000
00000000
00010000
00000000
,
00001000
00000000
00000000
00000000
00000002
00000000
00001000
00001003
,
00000101
00000000
00001000
00001100
00000000
00000000
00011300
00010000
,
00000000
00000000
00001000
00000000
01000000
00000000
00010000
00000000
01000000
00000000
10000000
00000000
01000000
00000000
00010000
10000000
,
00020000
00000000
00000000
00000000
00230000
00000000
00000000
00000000
00301000
00000000
00010000
00000010
00000100
00000000
00000002
00000000
,
00000000
00001000
00001033
00000000
00000000
00000000
00000000
00000000
,
00000000
00000000
00000000
00000000
,
00000002
00000013
00000002
00001003
,
00000002
00000000
00000103
00000000
00000001
00000100
00001000
00010000
,
00002000
00103000
00002000
00013000
,
00002000
00000000
01003000
00000000
00001000
00010000
00100000
10000000
,
00020000
00130000
00020000
10030000
,
00020000
00000000
01030000
00000000
00010000
01000000
10000000
01000000
,
00020000
00000000
00130000
02000000
00000000
23000000
00000000
30020000
,
00000000
02030000
03002000
00013000
,
00000000
00000000
00000000
00000000
00001001
00000001
00000100
00001000
,
00000100
00000000
00000010
00000000
00001000
00000000
00000100
00000000
00010000
00000000
00001000
00100000
00001000
00000000
00100000
00000000
,
00010000
01000000
10000000
01000000
00100000
10000000
01000000
00010000
,
01000000
00000000
00100000
00000000
00010000
00000000
01000000
00000000
00001000
00000000
00010000
00000100
00010000
00000000
00000010
00000000
,
00000210
00000000
00000301
00000010
00001000
00010000
01000000
10000000
,
12000000
00000000
13000000
00100000
00010000
00001000
00000100
00000001
,
00002001
00000000
00003100
00000100
00000001
00000100
00010000
00001000
,
00101000
00110000
01100000
10010000
,
10000000
00000000
00010000
01000000
00010000
00000000
00200000
00000000
00000000
00000000
00301000
00000000
00010000
00000000
00000010
00000100
,
00000010
00000000
00002000
00000000
00000000
00000000
00003001
00000000
00000010
00000000
00000100
00001000
00000010
00000000
00001000
00000000
,
00000001
00000000
00001000
00000010
00001000
00000000
00000200
00000000
00000000
00000000
00010300
00000000
00001000
00000000
01000000
00100000
,
01000000
00000000
00020000
00000000
00000000
00000000
00130000
00000000
00001000
00000000
00010000
00000100
00001000
00000000
00000100
00000000
,
00010200
00000000
00000000
00000000
00001300
00000000
00001000
00000000
00000001
00000000
00000100
00000000
00000001
00000010
00000100
00001000
,
00000010
00000000
00010000
00000000
00001000
00000000
00010000
00000000
00010000
00000000
00001000
00100000
01000000
10000000
00010000
10000000
,
00100000
00000000
10000000
00100000
10000000
00000000
00010000
00000000
00100000
00001000
00010000
00000100
00001000
00000000
00000020
00000000
,
00000000
00010000
00010030
00000000
00000000
00030000
00000000
00003000
,
00020000
00030000
00000000
00000000
00002000
00003000
00000000
00000000
,
00010000
00000100
00010000
00000000
00001000
00100000
00001000
00000000
00010000
00000010
00010000
00000000
00001000
01000000
00001000
00000000
,
00010000
00000100
00010000
00000000
00001000
01000000
00001000
00000000
00010000
00000010
00010000
00000000
00001000
00100000
00001000
00000000
,
00010000
00001000
00010000
00001000
00010000
00001000
00010000
00001000
00010000
00001000
00010000
00001000
00010000
00001000
00010000
00001000
,
00010000
00000000
00000000
00000000
;

//---------------dance-double - ----------------
#NOTES:
     dance-double:
     :
     Challenge:
     18:
     0.911660,1.325959,0.338777,0.772097,0.681494,810.000000,767.000000,43.000000,98.000000,0.000000,0.000000,0.911660,1.325959,0.338777,0.772097,0.681494,810.000000,767.000000,43.000000,98.000000,0.000000,0.000000:
00000000
00000000
00000000
00000000
,
00000000
00000000
00000000
00000000
,
00000000
00000000
00000000
00000000
,
00000000
00000000
00000000
00000000
,
00000000
00000000
00000000
00000000
,
00000000
00000000
00000000
00000000
,
00000000
00000000
00000000
00000000
,
00000000
00000000
00000000
00000000
,
00000000
00000000
00000000
00000000
00000000
00000000
00000000
00000000
00011000
00000000
00000000
00000000
00010000
00001000
00000100
00000010
,
00001000
00000001
00001000
00000020
00000000
00001030
00000001
00000010
,
00000001
00000000
00002000
00000000
00000000
00000000
00003100
00000000
00010000
00000000
00001000
01000000
00100000
00000000
01000000
00000000
,
00010000
10000000
00010000
00200000
00000000
00310000
10000000
01000000
,
10000000
00000000
00020000
00000000
00000000
00000000
01030000
00000000
00100000
00000000
00010000
00001000
00010000
00030000
00000100
00000000
,
00010000
00012000
00000000
00003100
00000010
00001000
00000100
00010000
,
00001000
00000000
00021000
00000000
00000000
00000000
00130000
00000000
01000000
00000000
00010000
00000000
00100000
00000000
00001000
00010000
,
00001000
00010000
00100000
10000000
01000000
00010000
00001000
00000010
,
00000001
00000000
00001000
00000010
00000100
00000000
00000001
00000010
00000100
00000000
00001000
00000001
00001000
00000000
00000000
00000000
,
00000001
00000000
00000100
00000010
00001000
00000000
00000200
00000000
00010300
00000000
00001000
00000000
00100000
00000000
00010000
01000000
,
00100000
00000000
20000000
00000000
30010000
00000000
00100000
00000000
01000000
00000000
10000000
00010000
10000000
00000000
00100000
00000000
,
10000000
00000000
00100000
01000000
00010000
00000000
00200000
00000000
00301000
00000000
00010000
00000000
00000100
00000000
00001000
00000010
,
00000100
00000000
00000002
00000000
00001003
00000000
00000100
00000000
00000010
00000000
00000001
00001000
00000001
00000000
00000100
00000000
,
00000101
00000000
00000001
00000000
00001000
00000000
00001000
00000000
00000100
00000000
00000100
00000000
00010000
00001000
00100000
00010000
,
01000000
00000000
00000000
00000000
00000000
00000000
01000000
00000000
00000000
00000000
00000000
00000000
00100000
00000000
00000000
00000000
00000000
00000000
00100000
00000000
00000000
00000000
00000000
00000000
10000000
00000000
00000000
00000000
00000000
00000000
00010000
00000000
10000000
00000000
00010000
00000000
10000000
00000000
00000000
00100000
00000000
00000000
01000000
00000000
00000000
00010000
00000000
00000000
,
10000000
00000000
01000000
00100000
00001000
00000000
00010000
00000000
00001000
00000100
00000010
00001000
00000100
00000000
00020000
00000000
,
00000000
00001000
00031000
00000000
00200000
00330000
00000020
00003030
,
00010000
00001000
00010000
00001000
00010000
00001000
00010000
00001000
00010000
00031000
00010000
00031000
00010000
00001000
00010000
00001000
,
00010000
00001000
00010000
00001000
00010000
00001000
00010000
00001000
00000100
00000000
00000110
00000000
00000000
00000000
00000000
00000000
,
00001001
00000000
00000001
00000000
00000100
00000000
00001000
00000100
00000001
00000000
00000010
00000100
00010000
00000000
00001000
00000000
,
00102000
00013000
00020010
00031000
00100000
01000000
10010000
00000000
,
20000000
01000000
30020000
00100000
10030000
00100000
01100000
00000000
,
00010000
01000000
00001000
00010000
00000100
00000000
00000010
00000000
00000011
00000000
00000110
00000000
00001001
00000000
00000000
00000000
,
00001000
00000000
00000001
00000100
00000010
00000000
00002010
00000000
00003100
00000000
00010100
00000000
00010000
00001000
02000000
00000000
,
00000000
00000000
03100000
00000000
00100000
00000000
10000000
01000000
00100000
00000000
00010000
10000000
00010000
00000000
01000000
00000000
,
00010000
00000000
10000000
00100000
01000000
00000000
01020000
00000000
00130000
00000000
00102000
00000000
00013000
00000000
00001000
00000000
,
00000100
00000010
00001000
00000001
00000010
00003100
00010100
00000000
,
00010000
00001000
00000100
00001000
00010000
00000000
00001000
00010000
02000000
00000000
03100000
00000000
00310000
10000000
00100000
10000000
,
00020000
00000000
01030000
00000000
00100000
00010000
00001000
00000100
00000020
00000000
00001030
00000000
00000001
00000010
00001000
00000010
,
00000002
00000000
00000103
00000000
00000010
00001000
00000100
00010000
00002000
00000000
00003010
00000000
00001000
00010000
00100000
00010000
,
00001000
00000000
00100000
00000000
00010000
00100000
01000000
00000000
10000000
00000000
00010000
10000000
00010000
00000000
00000000
00000000
,
10000000
00000000
00100000
00000000
00010000
00030000
00100000
00010000
00001000
00000000
00000010
00000000
00000001
00000000
00000100
00000000
,
00000201
00000310
00002010
00003100
00001100
00010100
00011000
00000000
,
00001000
01000000
00100000
01000000
00010000
00000000
10000000
01000000
00100000
00000000
00010000
01000000
00100000
00000000
10000000
00000000
,
00010000
00100000
00001000
00000000
00010000
00001000
00010000
00000000
00001000
00000100
00000010
00000000
00001001
00000000
00000000
00000000
,
00000001
00000100
00000010
00000100
00000001
00000100
00000010
00000100
00000001
00001000
00000001
00001000
00000200
00000000
00020300
00000000
,
00031000
01000000
00001000
00000000
01000000
00100000
01000000
00100000
10000000
00010000
10000000
00010000
00100000
00000000
00000000
00000000
,
00010000
01000000
00100000
01000000
00020000
00000000
20030000
00000000
31000000
00000000
01000000
00000000
00100000
00000000
00000000
00000000
,
00001000
00010000
00001000
00000000
00100000
00000000
00010000
00000000
01000000
00000000
00000000
00000000
03011000
00000000
00000000
00000000
,
00000100
00010000
00000100
00010000
00001000
00100000
00001000
00100000
00010000
01000000
00010000
01000000
00100000
10000000
00010000
00000000
,
10000000
01000000
10000000
00000000
01000000
00000000
00100000
00001000
00000000
00001000
00010000
00000000
00000020
00000000
00000000
00000000
,
00000130
00000001
00000100
00000001
00001000
00000100
00001000
00000000
00000100
00000000
00000001
00000000
00000100
00000000
00010000
00000000
,
00001000
00100000
00001000
00000000
00100000
00000000
00010000
01000000
00010000
00000000
00000000
00000000
01010000
00000000
00000000
00000000
,
10010000
00000000
10000000
00000000
01000000
00000000
00100000
00000000
00010000
01000000
00100000
10000000
01000000
00100000
00010000
01000000
,
00001000
00001000
00020000
00030200
00000310
00000010
00000022
00000033
,
00001000
00000010
00000100
00000010
00020000
00000000
00032000
00000000
00103000
00000000
00100000
00000000
00010000
10000000
00100000
00000000
,
10000000
01000000
00100000
00010000
01000000
00000000
00100000
00000000
10000000
00010000
10000000
00000000
00010000
00100000
00001000
00010000
,
00000200
00000000
00000000
00000000
00000310
00000000
00000001
00000000
00001000
00000010
00000100
00000001
00000010
00000100
00001000
00000010
,
00010000
00000000
00010000
00000000
00002000
00000000
00203000
00000000
01300000
00000000
01000000
00000000
10000000
00010000
13000000
00010000
,
00000000
00000000
00000000
00000000
,
00000000
00000000
20000000
30200000
,
00320000
00000000
00032000
00003020
,
00000032
00000000
00001003
00000020
00000000
00000130
00001000
00010000
,
00002000
00000000
00103000
00020000
00000000
01030000
00002000
00000000
,
00013000
00000020
00000000
00001030
00000100
00000010
00000001
00001000
,
00002010
00000000
00003200
00020300
,
00032000
00000000
00103000
00020000
00000000
01030000
10000000
01000000
,
00200000
00000000
00000000
20300000
00000000
00000000
00020000
00000000
,
00000000
00000000
00000000
30030000
,
10000000
00000000
00010000
00000000
,
00001000
00000000
00000000
00000000
00000000
00000000
00000000
00000000
00000000
00000000
00000000
00000000
00000000
00000000
00000000
00000000
00000002
00000000
00000000
00000000
00000000
00000000
00000000
00000000
00001003
00000010
00001000
00000010
00001000
00000000
00000000
00000000
,
00000101
00000100
00000010
00001010
00001000
00000100
00010100
00000000
,
00011000
00000000
00010000
00000000
00100000
00000000
10000000
00000000
00100000
00000000
01000000
00000000
00010000
00000000
10000000
00010000
,
10000000
00000000
01000000
00000000
00100000
00000000
00010000
00000000
01000000
00001000
00010000
00000100
00001000
00000000
00000020
00000000
,
00000000
00003100
00000130
00000000
00000000
00000000
00000000
00000000
,
00000000
00000000
00000000
00000000
,
00000002
00000203
00002300
00023000
,
00130000
20000000
00000000
00000000
30010000
00010000
00010000
00000000
,
20000000
00000000
32000000
30000000
03020000
00000000
00032000
00000000
,
00003010
00000002
00000000
00000000
00001003
00001000
00001000
00000000
,
00000002
00000203
00002300
00023000
,
00130000
20000000
00000000
00000000
30010000
00010000
00010000
00000000
,
20000000
00000000
31000000
00200000
00000000
00320000
00000000
02030000
,
00000000
03002000
00023000
00031000
,
00000000
00000000
00000000
00000000
00000000
00000000
00000000
00000000
00011000
00000000
00010000
00000000
00001000
00000000
00100000
00010000
,
01000000
00000000
00200000
00000000
10300000
00000000
00010000
00000000
10000000
00000000
00100000
01000000
00100000
00000000
01000000
00000000
,
00010000
00000000
00100000
00001000
00010000
00000000
00000200
00000000
00001300
00000000
00000010
00000000
00000100
00000000
00000001
00001000
,
00000010
00000000
00000200
00000000
00000301
00000000
00001000
00000000
00000100
00000000
00010000
00001000
00010000
00000000
00001000
00000000
,
00101000
00000000
00100000
00010000
01000000
00000000
00200000
00000000
10300000
00000000
00010000
10000000
00010000
00000000
01000000
00000000
,
01010000
00000000
00010000
00100000
00001000
00000000
00020000
00000000
00030010
00000000
00000100
00000000
00000010
00000000
00001000
00000000
,
00002010
00000000
00003001
00000010
00000012
00000000
00001003
00000001
,
00001001
00010100
00101000
10010000
,
10000000
00100000
01000000
00100000
10000000
00000000
00020000
00000000
00130000
00000000
00001000
00000000
00010000
00000010
00001000
00000010
,
00010000
00000000
00000200
00000000
00000310
00000000
00000001
00000000
00001000
00000000
00000001
00000100
00000010
00000000
00001000
00000000
,
00000001
00000100
00000010
00000100
00000001
00000000
00002000
00000000
00003100
00000000
00010000
00000000
00001000
01000000
00010000
01000000
,
00001000
00000000
00200000
00000000
01300000
00000000
10000000
00000000
00010000
00000000
10000000
00100000
01000000
00000000
00010000
00000000
,
10010000
00000000
10000000
00000000
00010000
00000000
00010000
00000000
00100000
00000000
00100000
00000000
00001000
00010000
00000100
00001000
,
00000010
00000000
00000000
00000000
00000000
00000000
00000010
00000000
00000000
00000000
00000000
00000000
00000100
00000000
00000000
00000000
00000000
00000000
00000100
00000000
00000000
00000000
00000000
00000000
00000001
00000000
00000000
00000000
00000000
00000000
00001000
00000000
00000001
00000000
00001000
00000000
00000001
00000000
00000000
00000100
00000000
00000000
00000010
00000000
00000000
00001000
00000000
00000000
,
00000001
00000000
00000010
00000100
00010000
00000000
00001000
00000000
00010000
00100000
01000000
00010000
00100000
00000000
00002000
00000000
,
00000000
00010000
00013000
00000000
00000000
00000000
00000000
00000000
,
00000200
00000300
00000000
00000000
02000000
03000000
00000000
00000000
,
00001000
00010000
00001000
00010000
00001000
00010000
00001000
00010000
00001000
00010000
00001000
00010000
00001000
00010000
00001000
00010000
,
00001000
00010000
00001000
00010000
00001000
00010000
00001000
00010000
00001000
00010000
00001000
00010000
00001000
00010000
00001000
00010000
,
00001000
00010000
00001000
00010000
00001000
00010000
00001000
00010000
00001000
00010000
00001000
00010000
00001000
00010000
00001000
00010000
,
00001000
00000000
00000000
00000000
;

//---------------dance-double - ----------------
#NOTES:
     dance-double:
     :
     Medium:
     13:
     0.597644,0.683070,0.267871,0.827247,0.003939,531.000000,497.000000,34.000000,105.000000,0.000000,0.000000,0.597644,0.683070,0.267871,0.827247,0.003939,531.000000,497.000000,34.000000,105.000000,0.000000,0.000000:
00000000
00000000
00000000
00000000
,
00000000
00000000
00000000
00000000
,
00000000
00000000
00000000
00000000
,
00000000
00000000
00000000
00000000
,
00000000
00000000
00000000
00000000
,
00000000
00000000
00000000
00000000
,
00000000
00000000
00000000
00000000
,
00000000
00000000
00000000
00000000
,
00000000
00000000
00000000
00000000
00011000
00000000
00001000
00100000
,
02000000
00000000
00000000
00010000
00000000
00000000
10000000
00000000
,
00000000
03200000
00000000
00301000
00010000
00001000
00010000
00000010
,
00000200
00000000
00000000
00001000
00000000
00000000
00000001
00000000
,
00000000
00000320
00000000
00010030
00001000
00010000
00001000
00000000
,
00100000
00200000
00000000
00302000
00000000
00013000
00001000
00010000
,
00000010
00000020
00000000
00020030
00000000
00031000
00010000
00001000
,
00200000
02300000
23000000
30010000
,
10010000
01001000
00010100
00001001
,
00000001
00000100
00001000
00000200
00000000
00000310
00001000
00000100
,
00000001
00000200
00000000
00010300
00001000
00100000
00010000
10000000
,
00010000
01000000
10000000
02000000
00000000
03100000
10300000
01000000
,
00010000
02000000
00000000
03100000
00301000
00010000
00001000
00100000
,
00102000
00000000
00013000
00000010
00010000
00001000
00010000
00000000
,
00020100
00000000
00031300
00100000
00001000
00010000
00001000
00000000
,
00012000
00000000
00003100
00000200
00000000
00000320
00000000
00020030
,
00000000
00000100
00030100
00000000
00020000
00030000
00002000
00003000
,
00010000
00001000
00010000
00001000
00010000
00001000
00010000
00001000
,
00010000
00001000
00010000
00001000
00100000
00100000
00000000
00000000
,
10010000
00000000
01010000
00000000
10000000
00100000
01000000
00010000
,
00100000
00001000
00100000
00001000
00010000
00000010
00000100
00000000
,
00001001
00000000
00001001
00000000
00000001
00000010
00002000
00000000
,
00013000
00001000
00020000
00000000
00031000
01000000
00100000
00000000
,
20000000
00000000
01000000
32000000
00000000
03020000
00000000
00032000
,
00000000
00010000
00023000
00003000
00031000
00000100
00000010
00001000
,
00000002
00000000
00000013
00000020
00000000
00002030
00000000
00013000
,
00000100
00010000
00001000
00100000
00010000
01000000
01100000
00000000
,
10000000
00100000
00010000
00100000
02000000
00000000
03010000
00100000
,
00001000
00010000
00000010
00000100
00002000
00000000
00003100
00000010
,
00001000
00000001
00000010
00001000
00020000
00000000
00031000
00100000
,
01000000
00100000
00010000
01000000
00100000
00000000
10010000
00000000
,
00010000
00100000
00010000
00100000
00001000
01000000
00001000
01000000
,
00010000
00013000
00130000
00100000
00001000
00000010
00000001
00000000
,
00001000
00000001
00000100
00000010
00001000
00000100
00010000
00001000
,
00020000
00000000
00030000
00011000
,
00001000
00100000
00001000
00100000
00010000
10000000
00010000
00000000
,
10000000
00100000
01000000
00000000
00010000
00100000
00001000
00000000
,
00010000
00000010
00010000
00000010
00001000
00000001
00001000
00000000
,
00000001
00000010
00000100
00000000
00001000
00000000
00001001
00000000
,
00000001
00000100
00001000
00000100
00000001
00000100
00001000
00000100
,
00000020
00000000
00001030
00000000
00000100
00010000
00001000
00000000
,
00010000
00001000
00010000
00001000
00100000
00010000
00100000
00010000
,
02000000
03200000
10300000
10010000
,
10000000
01000000
00020000
00000000
00031000
00001000
00010000
00010000
,
00000100
00000010
00000002
00000000
00001003
00000000
00001020
00000000
,
00000130
00000001
00001000
00001000
00000100
00010000
00001000
00000000
,
00100000
00010000
02000000
00000000
03002000
00000000
00013000
00010000
,
00000200
00003000
00031300
00000010
00310000
00010000
00001000
00001000
,
00100000
00300000
01000000
00000000
20000000
00000000
00000000
00000000
30020000
00000000
00000000
00000000
30130000
00000000
00001000
00000000
,
00010000
00000000
00000000
00000000
,
00000000
00000000
00020000
00032000
,
00003200
00000000
00000320
00002030
,
00003200
00000000
00010300
00002000
00000000
00103000
01000000
00100000
,
00020000
00000000
00000000
20030000
00000000
00000000
30200000
00000000
,
00000000
02300000
00000000
00000000
03002000
00000000
00013000
00000000
,
00022000
00030000
02303000
03020000
,
00230000
00000000
00301000
00020000
00000000
00030010
00000100
00000010
,
00002000
00000000
00000000
00003002
00000000
00000000
00000020
00000000
,
00000000
00000000
00000000
00033333
,
00000001
00000000
00001000
00000000
,
00010000
00000000
00000000
00000000
20000000
00000000
00020000
30030000
,
11000000
00000000
00000000
10010000
00000000
00000000
01010000
00000000
,
01001000
00000000
00000000
00011000
00000000
00000000
00010100
00000000
,
00001002
00000000
00000203
00000000
00000310
00002000
00000000
00003200
,
00000000
00010000
00010300
00000000
00000000
00000000
00000000
00000000
,
00000000
00000000
00000000
00000000
,
00020000
00031000
00020000
00030010
,
00020000
00030100
00020000
00031000
,
00002000
00013000
00002000
00103000
,
00002000
01003000
00002000
00013000
,
00020000
00031000
00020000
00030010
,
00020000
00030100
00020000
00031000
,
00002000
00000000
00103000
02000000
00000000
23000000
00000000
30200000
,
00000000
02330000
03020000
20300000
,
30030000
00000000
00000000
00000000
10010000
00000000
10000000
01000000
,
00010000
01000000
00100000
00010000
10000000
00100000
00020000
00000000
,
00031000
00100000
01000000
00100000
00001000
00010000
00000010
00000100
,
00001000
00000100
00000010
00001000
00000001
00000010
00000200
00000000
,
00001300
00000010
00000001
00000010
00000100
00000001
00001000
00000100
,
00000001
00000100
00000010
00000001
00001000
00000100
00010000
00000000
,
00010100
00011000
00101000
00011000
,
00001000
00010000
00001000
00010000
00100000
10000000
00010000
00000000
,
10000000
00100000
01000000
01000000
00100000
10000000
00010000
10000000
,
01000000
01000000
00100000
00010000
01000000
00001000
00020000
00000000
,
00030100
00001000
00000010
00000010
00000100
00000001
00001000
00000001
,
00000010
00000010
00000100
00001000
00000001
00001000
00000100
00000000
,
00020100
00000000
00031000
01000000
00001000
00010000
00001000
00000000
,
00102000
00000000
00313000
00000100
00010000
00001000
00010000
00000000
,
00021000
00000000
00130000
00200000
00000000
02300000
00000000
03002000
,
00000000
00100000
00103000
00000000
00000000
00003000
00000000
00030000
,
00002000
00003000
00000000
00000000
00020000
00030000
00000000
00000000
,
00001000
00010000
00001000
00010000
00001000
00010000
00001000
00010000
,
00001000
00010000
00001000
00010000
00001000
00010000
00001000
00010000
,
00001000
00010000
00001000
00010000
00001000
00010000
00001000
00010000
,
00001000
00000000
00000000
00000000
;

//---------------dance-double - ----------------
#NOTES:
     dance-double:
     :
     Easy:
     9:
     0.360162,0.562528,0.173328,0.472713,0.000000,320.000000,298.000000,22.000000,60.000000,0.000000,0.000000,0.360162,0.562528,0.173328,0.472713,0.000000,320.000000,298.000000,22.000000,60.000000,0.000000,0.000000:
00000000
00000000
00000000
00000000
,
00000000
00000000
00000000
00000000
,
00000000
00000000
00000000
00000000
,
00000000
00000000
00000000
00000000
,
00000000
00000000
00000000
00000000
,
00000000
00000000
00000000
00000000
,
00000000
00000000
00000000
00000000
,
00000000
00000000
00000000
00000000
,
00000000
00000000
00000000
00000000
,
20020000
00000000
00000000
00030000
,
30200000
00000000
02300000
03000000
,
00022000
00000000
00000000
00033000
,
00020000
00000000
00030200
00000300
,
00002002
00000000
00003003
00000000
,
00000220
00000000
00000000
00000330
,
00000001
00000100
00000010
00001000
,
00000100
00000100
00010000
00011000
,
00001000
00000000
00100000
00020000
00000000
00030000
00100000
00000000
,
00010000
20000000
00000000
30000000
00010000
00000000
10000000
00000000
,
00100000
00000000
01000000
00020000
00000000
00030000
01000000
00000000
,
00001000
00020000
00000000
00030000
00001000
00000000
00010000
00000000
,
00001100
00000100
00000010
00000001
,
00000101
00000100
00000010
00001000
,
00001001
00000000
00000001
00000020
00000300
00000230
00000000
00002300
,
00000000
00003001
00001000
00000000
00000000
00000000
00000000
00000000
,
00000001
00001000
00000001
00001000
00000001
00001000
00000001
00001000
,
00000001
00001000
00000001
00001000
00000001
00000000
00000000
00000000
,
00000001
00000100
00000010
00001000
,
00000100
00000100
00010000
00000000
,
00001000
00001000
00100000
00100000
,
00010000
10000000
00100000
00000000
,
10000000
00000000
00010000
00100000
00000000
00100000
00000000
00001000
,
00000000
00010000
00000010
00000000
00001000
00000000
00000000
00000000
,
00000001
00000000
00001000
00000100
00000000
00000100
00000000
00010000
,
00001000
00100000
00010000
00000000
,
10000000
00100000
10000000
00000000
00020000
00000000
00030000
00000000
,
00100000
00001000
00020000
00030000
,
00000010
00001000
00000010
00000000
00002000
00000000
00003000
00000000
,
00000001
00000010
00000200
00000300
,
00001000
00000001
00001000
00000100
,
00010000
00010000
00001000
00000000
,
00100000
00010000
00100000
00000000
00001000
00100000
00001000
00000000
,
00020000
00000000
00000000
00030000
,
00001000
00010000
00100000
00100000
,
10000000
01000000
00100000
00000000
,
00010000
10000000
00010000
00000000
10000000
00010000
10000000
00000000
,
00010000
01000000
00001000
00000000
,
00010000
00010000
00000100
00000100
,
00000010
00000001
00001000
00000000
,
00000001
00001000
00000001
00000000
00001000
00000001
00001000
00000000
,
00000001
00000100
00000010
00000000
,
00001000
00000000
00000010
00000000
00000100
00000001
00000100
00000001
,
00000100
00000010
00001000
00000000
,
00000100
00010000
00001000
00000000
,
00100000
00010000
10000000
00000000
,
00010000
00000000
10000000
00000000
00010000
01000000
00010000
01000000
,
00010000
00000000
01000000
00001000
,
00010000
00000000
00000000
00000000
,
00000000
00000000
00001000
00000000
,
00022000
00000000
00033000
00000000
,
00020000
00000000
00030000
00000000
,
00000200
00000000
00000000
00000320
00000000
00000000
00000230
00000000
,
00000000
00020300
00000000
00000000
00031000
00000000
00000000
00000000
,
00022000
00000000
00033000
00000000
,
00002000
00000000
00003000
00000000
,
00200000
00000000
00000000
00320000
00000000
00000000
23000000
00000000
,
00000000
00300000
00000000
00000000
00003000
00000000
30030000
00000000
,
10000000
00000000
01000000
00000000
,
00100000
00000000
00001000
00000000
,
00011000
00000000
00000000
00010000
,
00000100
00000000
00000000
00000100
,
00000010
00000000
00000010
00000000
00000001
00000000
00001000
00000010
,
00000000
00000100
00000001
00000000
00000000
00000000
00000000
00000000
,
00000000
00000000
00000000
00000000
,
00000002
00000000
00000003
00002000
,
00000000
00003000
00000100
00010000
,
00002000
00000000
00003000
00020000
,
00000000
00030000
00001000
00100000
,
00020000
00000000
00000000
00030000
00000000
00000000
02000000
00000000
,
00000000
03000000
00000000
00000000
00010000
00000000
01000000
00000000
,
00200000
00000000
20300000
00000000
,
30020000
00230000
00302000
00023000
,
00030000
00000000
00011000
00001000
,
00100000
00000000
00010000
00000000
10000000
01000000
10000000
00000000
,
00010000
00000000
00100000
00001000
,
00010000
00000000
00000010
00000000
00001000
00000010
00001000
00000000
,
00000001
00000000
00001000
00000100
,
00010000
00000000
00001000
00000000
01000000
00010000
01000000
00000000
,
02020000
03030000
20200000
30300000
,
10010000
01100000
10010000
01100000
,
10010000
10000000
01000000
00100000
,
00010000
00000000
01000000
00000000
00001000
00010000
00001000
00000000
,
00010000
00000100
00000010
00000001
,
00001000
00000000
00000010
00000000
00000100
00000010
00000100
00000000
,
00000202
00000303
00000010
00001000
,
00002200
00003300
00010000
00001000
,
00011000
00000000
00001000
00200000
00000000
00320000
00000000
02030000
,
00000000
03010000
10000000
00000000
00000000
00000000
00000000
00000000
,
00000000
00030000
00000000
00000000
00000000
30000000
00000000
00000000
,
00010000
10000000
00010000
10000000
,
00010000
10000000
00010000
10000000
,
00010000
10000000
00010000
10000000
00010000
10000000
00010000
10000000
,
00010000
00000000
00000000
00000000
;
