#TITLE:New Castle Legions;
#SUBTITLE:;
#ARTIST:Dirty Androids;
#TITLETRANSLIT:;
#SUBTITLETRANSLIT:;
#ARTISTTRANSLIT:;
#GENRE:;
#CREDIT:Braeden;
#MUSIC:New Castle Legions.ogg;
#BANNER:SC2023-bn.png;
#JACKET:SC2023-jacket.png;
#BACKGROUND:SC2023-bg.png;
#CDTITLE:;
#SAMPLESTART:48.030;
#SAMPLELENGTH:12.800;
#SELECTABLE:YES;
#OFFSET:-0.047;
#BPMS:0.000=120.065
,80.000=120.000
,96.000=150.000
,156.000=120.000
,160.000=170.000
,192.000=180.000
;
#STOPS:;
#DISPLAYBPM:120.000:180.000;
#BGCHANGES:;
#FGCHANGES:;

//--------------- dance-single - ----------------
#NOTES:
     dance-single:
     :
     Beginner:
     4:
     0.148,0.17,0.102,0,0:
0000
0000
0000
0000
,
0000
0000
0000
0000
,
0000
1000
0000
0001
,
0000
1000
0000
0000
,
0000
0001
0000
0100
,
0000
0010
0000
0100
,
0000
0010
0000
1000
,
0000
0001
0000
0000
,
2000
0000
3000
0000
,
0002
0000
0003
0000
,
0200
0000
0300
0000
,
0020
0000
0030
0000
,
2000
0000
3000
0000
,
0002
0000
0003
0000
,
0200
0000
0300
0000
,
2002
0000
3003
0000
,
0002
0000
0003
0000
,
0200
0000
0300
0000
,
0020
0000
0030
0000
,
2000
0000
3000
0000
,
2002
0000
3003
0000
,
2000
0000
3000
0000
,
1001
0000
1001
0000
,
1000
0000
0001
0000
,
0100
0100
0000
0000
,
0010
0010
0000
0000
,
0100
0100
0000
0000
,
1001
0000
0000
0000
,
1000
1000
0000
0000
,
0010
0010
0000
0000
,
1000
1000
0000
0000
,
0001
0000
1000
0000
,
0001
0001
0000
0000
,
0100
0100
0000
0000
,
0010
0010
0000
0000
,
1001
0000
0000
0000
,
0001
0001
0000
0000
,
0100
0100
0000
0000
,
1001
0000
0110
0000
,
1001
0000
0000
0000
,
1000
0000
0001
0000
,
0100
0000
0000
0000
,
0010
0000
1000
0000
,
0001
0000
0000
0000
,
1000
0000
0010
0000
,
1000
0000
0000
0000
,
0001
0000
0100
0000
,
1001
0000
0000
0000
,
0001
0000
1000
0000
,
0010
0000
0100
0000
,
0001
0000
1000
0000
,
0010
0000
1000
0000
,
1001
0000
0001
0000
,
1001
0000
1000
0000
,
1001
0000
0001
0000
,
0100
0000
0000
0000
,
0001
0000
0000
0000
,
0100
0000
0000
0000
,
0010
0000
0000
0000
,
1000
0000
0000
0000
,
0001
0000
0000
0000
,
0100
0000
0000
0000
,
0010
0000
0000
0000
,
1000
0000
0001
0000
,
0100
0000
0000
0000
,
0001
0000
0000
0000
,
1001
0000
1001
0000
,
1001
0000
0000
0000
,
1001
0000
0000
0000
,
0001
0000
0000
0000
,
1000
0000
0000
0000
,
0010
0000
0000
0000
;

//--------------- dance-single - ----------------
#NOTES:
     dance-single:
     :
     Easy:
     8:
     0.148,0.17,0.102,0,0:
0000
0000
0000
0000
,
0000
0000
0000
0000
,
1000
1000
0000
0001
,
0100
0000
0000
0000
0010
0000
0000
0000
0000
0000
0000
1000
0000
0000
0001
0000
,
1000
0000
0100
0000
1000
0001
0000
0100
,
0000
0010
1000
0000
0001
0010
0000
0001
,
0000
1000
0100
0000
0010
0000
0001
0000
,
1001
0000
1000
0000
0010
0100
0010
0000
,
2000
0000
0000
3000
0001
0000
0000
0100
0000
0000
0010
0000
1000
0000
0000
0000
,
0200
0000
0000
0000
0310
0000
0000
0001
0000
0000
1000
0000
0010
0000
0000
0000
,
2000
0000
0000
3000
0001
0000
0000
0010
0000
0000
0001
0000
0100
0000
0000
0000
,
0020
0000
0000
0030
1000
0000
0000
0100
0000
0000
1000
0000
0001
0000
0000
0000
,
2000
0000
0000
0000
3100
0000
0000
1000
0000
0000
0001
0000
1000
0000
0000
0000
,
0002
0000
0000
0003
0010
0000
0000
0001
0000
0000
0100
0000
0010
0000
0000
0000
,
2000
0000
0000
0000
3100
0000
0000
0010
0000
0000
0001
0000
1000
0000
0000
0000
,
1001
1001
1001
1000
,
1002
0000
0000
0000
0103
0000
0000
0001
0000
0000
1000
0000
0010
0000
0000
0000
,
2000
0000
0000
3000
0100
0000
0000
1000
0000
0000
0001
0000
0010
0000
0000
0000
,
0002
0000
0000
0003
0010
0000
0000
0001
0000
0000
1000
0000
0100
0000
0000
0000
,
2000
0000
0000
3000
0001
0000
0000
0010
0000
0000
0100
0000
0010
0000
0000
0000
,
1002
0000
0000
0000
0103
0000
0000
0010
0000
0000
1000
0000
0001
0000
0000
0000
,
2000
0000
0000
3000
0100
0000
0000
0010
0000
0000
0100
0000
1000
0000
0000
0000
,
2001
0000
3001
0000
0102
0000
1003
1000
,
0001
0101
2020
3030
,
1000
0000
0000
0000
0001
0000
0000
0010
0000
0000
0001
0000
0010
0000
0000
0000
,
0200
0000
0000
0000
1300
0000
0000
0001
0000
0000
1000
0000
0001
0000
0000
0000
,
2000
0000
0000
0000
3100
0000
0000
0010
0000
0000
0100
0000
0010
0000
0000
0000
,
0021
0000
0000
0000
0031
0000
0000
1000
0000
0000
0001
0000
1000
0000
0000
0000
,
2100
0000
0000
3000
0001
0000
0000
0010
0000
0000
0001
0000
0010
0000
0000
0000
,
0002
0000
0000
0003
1000
0000
0000
0010
0000
0000
0100
0000
0001
0000
0000
0000
,
0101
0000
0000
0000
0100
0000
0000
0010
0000
0000
1000
0000
0001
0000
0000
0000
,
1000
0100
1000
1001
,
0002
0000
0000
0003
0100
0000
0000
0010
0000
0000
0100
0000
0010
0000
0000
0000
,
0200
0000
0000
0000
0301
0000
0000
0010
0000
0000
0001
0000
0010
0000
0000
0000
,
0200
0000
0000
0000
1300
0000
0000
0010
0000
0000
1000
0000
0001
0000
0000
0000
,
1001
1000
0000
1010
,
1001
0000
0000
0000
0001
0000
0000
0010
0000
0000
0100
0000
1000
0000
0000
0000
,
0002
0000
0000
0000
1003
0000
0000
0010
0000
0000
0100
0000
0001
0000
0000
0000
,
1001
0000
1000
0001
1000
0000
0001
0100
,
0001
1001
2020
3030
,
1001
1000
0001
0010
,
0001
0000
0100
0010
0000
1000
0010
1000
,
0000
0001
0010
0000
0001
0000
0100
0000
,
0010
0100
0001
1000
,
0100
0010
0001
1000
,
0001
0000
0010
0001
0000
1000
0100
1000
,
0000
0001
0100
0010
,
1010
1000
0000
1001
,
0001
0000
1000
0000
0001
0010
0001
0000
,
1000
0000
0010
0000
0100
0001
0100
0000
,
0010
0000
1000
0000
0001
0100
0001
0000
,
1000
0000
0100
0000
0010
0100
0010
0000
,
0110
0000
0100
0000
1000
0001
1000
0000
,
1001
0000
0001
0000
0100
0010
0100
0000
,
0101
0000
0001
0000
1000
0100
0020
0000
,
0000
0000
0000
0031
,
2002
0000
0000
3003
,
2000
0000
0000
3000
,
0020
0000
0000
0030
,
0200
0000
0000
0300
,
0001
1000
0010
1000
,
0001
0010
0001
0100
,
0010
1000
0100
1000
,
0001
0010
0100
1000
,
1001
0001
0100
0001
,
1000
0010
1000
0010
,
0101
0001
0011
0010
,
0101
1000
0001
1000
,
1001
0001
0010
0001
,
0101
0100
0010
1000
,
1001
0001
1000
1000
,
0002
0000
0000
0003
;

//--------------- dance-single - XMOD XO+ ----------------
#NOTES:
     dance-single:
     XMOD XO+:
     Medium:
     12:
     0.296,0.288,0.136,0.102,0:
0000
0000
0000
0000
,
0000
0000
0000
0000
,
1000
0000
0000
0010
0000
0000
1000
0000
0000
0000
0001
0000
0010
0000
0100
0000
,
1000
0000
0000
0000
0001
0000
0010
0000
0000
0000
0000
0010
0100
0000
1000
0000
,
0001
0000
1000
0000
0010
0000
1000
0000
0001
0000
0100
0001
0000
0000
1000
0100
,
0000
0000
0010
0000
0001
0000
1000
0000
0010
0000
0100
0001
0000
0000
0010
0100
,
0000
1000
0100
1000
0001
0010
0001
1000
,
1010
0010
0100
0001
0010
0100
1000
0001
,
2000
0000
0000
3000
0002
0000
0000
0100
0000
0000
1000
0000
1003
0000
0010
0000
,
2000
0000
0000
0000
3200
0000
0000
0010
0000
0000
1000
0000
1300
0000
0100
0000
,
2000
0000
0000
0000
3002
0000
0000
0100
0000
0000
1000
0000
1003
0000
0010
0000
,
1000
0000
0100
0000
2000
0000
0000
0001
0000
0000
0010
0000
3010
0000
1000
0000
,
0020
0000
0000
0030
0200
0000
0000
0010
0000
0000
0001
0000
0301
0000
0010
0000
,
0200
0000
0000
0300
2000
0000
0000
0001
0000
0000
0010
0000
3010
0000
0100
0000
,
0002
0000
0000
0000
2003
0000
0000
0100
0000
0000
0001
0000
3001
0000
0010
0000
,
0110
0000
0000
0000
1100
0000
0000
0000
1001
0000
0000
0001
0000
0000
1000
0000
,
1001
0000
0000
0000
0001
0000
0000
0100
0000
0000
1000
0000
0100
0000
0010
0000
,
2000
0000
0000
0000
3100
0000
0000
0001
0000
0000
0100
0000
1000
0000
0010
0000
,
2000
0000
0000
0000
3001
0000
0000
0010
0000
0000
1000
0000
0010
0000
0001
0000
,
0100
0000
0010
0000
1000
0000
0000
0100
0000
0000
0010
0000
0100
0000
1000
0000
,
1001
0000
0001
0000
0100
0000
0000
0010
0000
0000
0100
0000
0001
0000
1000
0000
,
0001
0000
0100
0000
0001
0000
0000
0100
0000
0000
0010
0000
1000
0000
0100
0000
,
2100
0000
3100
0000
0021
0000
0031
1000
,
1001
0000
0000
0000
1010
0000
0000
0010
0000
0000
0100
0000
0001
0000
0000
0000
,
1001
0000
0000
1000
0100
0000
0000
0010
0000
0000
0001
0000
0100
0000
0000
0000
,
0001
0000
0000
1000
0001
0000
0000
1000
0000
0000
0100
0000
0010
0000
0000
0000
,
0001
0000
0000
1000
0100
0000
0000
0010
0000
0000
0100
0000
1000
0000
0000
0000
,
1010
0000
0000
0000
1000
0000
0000
0001
0000
0000
0100
0000
0010
0000
0000
0000
,
1001
0000
0000
1000
0100
0000
0000
0010
0000
0000
0001
0000
0010
0000
0000
0000
,
0001
0000
0000
0100
0010
0000
0000
1000
0000
0000
0001
0000
0010
0000
0000
0000
,
1001
0000
0000
1000
0100
0000
0000
0010
0000
0000
0001
0000
0100
0000
0000
0000
,
0001
0000
1000
0010
0000
1000
0010
0000
0100
0000
0001
0000
1000
0000
0000
0000
,
0001
0000
0000
0000
0100
0000
0000
0100
0000
0000
0010
0000
1000
0000
0100
0000
,
0020
0000
0000
0000
0031
0000
0000
0001
0000
0000
1000
0000
0010
0000
1000
0000
,
0020
0000
0000
0000
1030
0000
0000
0010
0000
0000
0100
0000
0010
0000
0000
0000
,
1001
0000
0000
0000
0001
0000
0000
0010
0000
0000
0001
0000
1000
0000
0010
0000
,
2010
0000
0000
0000
3001
0000
0000
0010
0000
0000
0001
0000
0010
0000
0000
0000
,
0200
0000
0000
0300
1000
0000
0000
0001
0000
0000
1000
0000
0200
0000
0000
0000
,
2300
0000
0000
3000
0100
00M0
0100
0000
0001
0000
0000
0000
0010
0M00
0010
0000
,
1000
1010
0220
0330
,
0101
0000
0001
0010
0100
1000
0001
0100
,
0001
0100
0010
0002
0000
0013
1000
0001
,
1000
0000
0001
0100
0001
0100
0010
1000
,
0001
1000
0100
0002
0000
0103
0010
0100
,
1000
0000
0001
0100
0010
1000
0100
0010
,
0001
1000
0010
0200
0000
1300
0100
0010
,
1000
0010
0100
0001
1000
0100
0010
0000
,
0110
0000
0100
0200
0000
0310
1000
0000
,
0001
0000
1000
0000
0001
0100
1000
0100
,
0001
0000
1000
0000
0001
0010
1000
0010
,
0001
0000
1000
0000
0010
0100
1000
0100
,
0010
0000
1000
0000
0001
0010
0100
1000
,
1100
0000
0010
0000
0001
0010
1000
0010
,
0001
0000
1000
0000
0001
0100
1000
0100
,
0001
0000
1000
0000
0001
0100
0010
0100
,
0010
1000
0100
1000
0001
0000
1000
0000
,
2001
0010
0001
0010
,
3002
0100
1000
1000
,
0023
0100
1000
0100
,
2030
0001
0100
0001
,
3020
1000
0100
1000
,
0230
0001
0010
0001
,
0302
0000
0000
0000
,
1003
0100
1000
0010
0100
0001
1000
0100
,
0020
0000
0130
1000
0010
0100
0001
0010
,
0002
0000
1003
0100
0010
0001
1000
0010
,
2000
0000
3001
0010
0001
0100
0010
1000
,
0001
0010
0001
0010
0100
1000
0010
1000
,
0002
0000
1003
0100
0010
0001
1000
0010
,
2000
0000
3001
0010
0100
1000
0010
0100
,
0002
0000
1003
0100
0010
0000
0001
0100
,
0002
0000
1003
0010
0100
0001
0010
0100
;

//--------------- dance-single - XMOD DS+ XO FS- ----------------
#NOTES:
     dance-single:
     XMOD DS+ XO FS-:
     Hard:
     15:
     0.494,0.489,0.449,0.161,0.059:
0000
0000
0000
0000
,
0000
0000
0000
0000
,
0001
0000
1000
0010
0000
0010
1000
0000
0000
0001
0100
0000
0001
0010
0100
0000
,
1000
0000
0001
0100
0000
0100
0001
0000
0000
1000
0000
1100
0000
0000
0011
0000
,
0001
1000
0001
0000
0011
0000
0010
0000
0100
0000
1000
0010
0M00
0010
0001
1000
,
0000
1000
0010
0000
0110
0000
0100
0000
0001
0000
1000
0100
00M0
0100
0001
1000
,
0000
0001
0010
0000
0110
0000
0100
0000
1000
0001
0010
0000
0001
0010
0100
1000
,
0001
0100
0001
0000
1000
0000
0100
0000
1000
0010
0100
0001
1000
0100
0010
0001
,
2000
0000
0000
0000
3002
0000
0000
2003
0000
0000
0100
0000
3001
0000
0100
0000
,
0020
0000
0000
0000
0230
0000
0000
0302
0000
0000
1000
0000
0013
0000
0001
0000
,
2000
0000
0001
0000
3100
1000
0000
0010
1000
0000
0010
0000
1000
0000
0001
0000
,
2000
0000
0001
3000
0100
0010
0000
0010
0001
0000
1000
0000
0001
0010
0001
1000
,
0002
0000
0010
0000
2003
0000
0000
3002
0000
0000
1000
0000
0013
0100
0001
0010
,
0002
0000
1000
0000
0013
0000
0000
0002
0000
0000
1000
0000
0103
0000
0010
0001
,
2000
0000
0001
0000
3001
0010
0000
0001
1000
0000
0001
0000
1000
0000
0010
0000
,
2002
0000
3003
0000
0220
0000
0330
0000
0101
0000
0001
0100
0000
0010
1000
0000
,
0001
0000
0100
0000
1000
0100
0000
0010
1000
0000
0001
0000
1000
0010
1000
0010
,
1000
0000
0100
0000
0001
0100
0000
0010
0100
0000
1000
0000
0001
0100
0010
1000
,
0001
0000
0100
0000
0010
0001
0000
0010
0100
0000
0001
0000
1000
0100
0010
0001
,
1000
0000
0100
0000
0001
0100
0000
0010
0001
0000
1000
0000
0001
0100
0001
0000
,
2001
0000
0000
0000
3001
0100
0000
0100
0020
0000
1000
0000
1030
0100
0010
0001
,
2000
0000
0010
0000
3001
0000
0000
0100
0010
0000
1000
0000
0001
0010
0001
0000
,
2001
0000
0010
0000
3010
0100
0000
0100
0001
0000
0010
0000
0100
1000
0001
0010
,
0001
0000
1000
0000
1010
0000
0000
0010
1000
0000
0100
0010
0000
0001
1000
0010
,
2000
0000
0000
0000
3002
0000
0000
0100
0000
0000
1003
0000
0001
0010
0001
0010
,
0200
0000
0000
1300
0002
0000
0000
1000
0000
0000
0103
0000
0010
1000
0010
1000
,
0002
0000
0000
1003
0200
0000
0000
0010
0000
0000
1300
0000
0001
0010
0001
0000
,
1002
0000
0000
1003
0002
0000
0000
0100
0000
0000
1003
0000
0100
0010
0100
0000
,
1200
0000
0000
1300
0010
0000
0000
0100
0000
0100
0001
0000
1000
0100
0010
0001
,
2000
0000
0000
3001
0100
0000
0000
0001
0000
0001
1000
0000
0100
0010
0001
0000
,
0021
0000
0000
0031
1000
0000
0000
0010
0000
0010
1000
0000
0100
0010
0001
0010
,
0100
0000
1000
0100
00M0
0100
0001
0000
1000
0000
0001
0000
0202
0000
0303
0000
,
2002
0000
3003
0000
1000
0000
0000
0100
0000
0000
0001
0000
0100
0000
0010
0001
,
2000
0000
0000
0000
3001
0000
0000
0100
0000
0000
1000
0000
0100
0010
0100
0001
,
2000
0000
0000
0000
3001
0000
0000
0010
0000
0000
1000
0000
0010
0000
0100
0000
,
1200
0000
0000
1300
0001
0000
0000
0010
0000
0000
0001
0000
1000
0010
1000
0010
,
2000
0000
0000
0000
3002
0000
0000
0100
0000
0000
1003
0000
0100
0000
0010
0001
,
1000
0000
0001
0000
0020
0000
0000
1000
0000
0000
0031
0000
1000
0010
1000
0001
,
1000
0000
0000
0000
0010
0000
0000
0000
1000
0000
0000
0000
0100
00M0
0100
0000
0001
0000
0000
0000
1000
0000
0000
0000
0001
0000
0000
0000
0100
00M0
0100
0000
,
2000
3001
1001
0000
0220
0000
0000
0330
,
1000
0000
0001
0010
0001
0000
1000
0000
0001
0000
1000
0000
1010
0000
0010
0000
,
0100
0000
0001
0010
0100
0000
1000
0000
0100
0000
0010
0000
0011
0000
0001
0000
,
1000
0000
0001
0100
0001
0000
1000
0000
0100
0000
0010
0000
0011
0000
0001
0000
,
1000
0000
0001
0100
0001
0000
0100
0000
0010
0000
1000
0000
1010
0000
0010
0000
,
1000
0000
0100
0010
0001
0000
0100
0000
0010
0000
1000
0000
1001
0000
0001
0000
,
1000
0000
0001
0100
0010
0000
1000
0000
0100
0000
0010
0000
0011
0000
0001
0000
,
1000
0000
0001
0100
0001
0000
0100
0000
0010
0000
0100
0000
0010
0000
1000
0000
,
1002
0000
0000
0000
1003
0000
0010
0000
0000
1000
0010
0100
0001
0000
0000
0000
,
1001
1000
0001
1000
0040
0000
0000
0000
,
1030
0001
0010
0001
0400
0000
0000
0000
,
0301
0010
0001
1000
0004
0000
0000
0000
,
1003
0000
0100
0000
0010
0000
0001
0000
1000
0010
1000
0000
0001
0010
0001
0000
,
1001
0000
1000
0000
0001
0000
0010
0000
0001
1000
0010
0000
0100
0001
1000
0000
,
0001
0000
0010
0000
0001
0000
1000
0000
0001
0010
0100
0000
1000
0100
0010
0000
,
0001
0000
0100
0000
0001
0000
0010
0000
0001
1000
0001
0000
0100
0010
1000
0000
,
0001
0000
1000
0100
1000
0000
0001
0000
1000
0000
0001
0000
0010
0000
0000
0000
,
0012
0000
1000
0000
0013
0001
0010
0100
,
2000
0000
0001
0001
0000
0100
3100
0000
,
0020
0000
0001
0001
0000
0100
0130
1000
,
0001
0100
1000
0100
0001
0100
0010
0100
,
0002
0000
1003
0100
0001
0100
0010
0100
,
2000
0000
3001
0010
0001
1000
0001
0000
,
2000
0001
0010
3001
,
1000
0001
1000
0100
0010
0001
1000
0010
,
2000
0000
0000
0000
3001
0010
0001
0000
1000
0010
1000
0000
0001
0100
0010
0000
,
2000
0000
0000
0000
3001
0010
0100
0000
0000
0000
1000
0000
0001
0010
0001
0000
,
2000
0000
0000
0000
3001
0000
0010
0000
0001
0000
1000
0000
0001
0100
0001
0000
,
1000
0000
0100
0000
0010
0001
1000
0000
0001
1000
0010
0000
1000
0000
0001
0000
,
0201
0000
0000
0000
0301
1000
0001
0000
1000
0100
1000
0000
0001
0100
0001
0000
,
0200
0000
0301
1000
0000
0010
1000
0001
,
0021
0000
0130
1000
0000
0001
1000
0100
,
2000
0000
0000
0000
3001
0000
0010
0000
0001
0000
1000
0000
0010
0000
0100
0010
;

//--------------- dance-single - XMOD FS XO BU- SJ- ----------------
#NOTES:
     dance-single:
     XMOD FS XO BU- SJ-:
     Challenge:
     18:
     0.658,0.604,0.339,0.11,0.33:
0000
0000
0000
0000
,
0000
0000
0000
0000
,
0001
0000
0000
0000
1000
0000
0100
0000
00M0
0000
0100
0000
0001
0000
0000
0000
0000
0000
0001
0000
1000
0000
0000
0000
0100
00M0
0100
0000
0000
0000
0000
0000
,
0001
1000
0001
0010
0M00
0010
1000
0000
0000
0001
0010
0100
0100
1000
0010
0010
,
0100
0001
1000
0100
0001
0000
0100
0010
0001
0000
1000
0010
0M00
0010
0001
1000
,
0000
0001
0010
0100
0001
0100
0010
0001
1000
0000
0001
0100
00M0
0100
1000
0001
,
0000
1000
0100
0010
1000
0010
0100
1000
0001
1000
0010
0000
0010
1000
0001
0010
,
0200
0000
0000
0000
1000
0000
0000
0000
0310
0001
0010
0001
1000
0100
1000
0001
,
1002
0000
0000
1003
0001
0010
0000
0002
0000
0000
1000
0000
0103
0001
0010
0100
,
2000
0000
0000
3010
1000
0001
0000
0200
0000
0000
1000
0000
0301
1000
0010
1000
,
0001
0100
0010
1000
0001
0010
0M00
0010
1000
0000
0001
0010
0001
1000
0000
1000
,
0001
0100
0010
1000
0001
0100
00M0
0100
1000
0000
1000
0001
0010
0100
1000
0000
,
2001
0000
0000
3001
0010
0100
0000
2000
0001
0000
0010
0000
3001
0100
0010
1000
,
0001
0010
0100
1000
0001
0100
00M0
0100
1000
0000
0001
0000
1002
0000
0100
0000
,
1003
0010
0100
0001
1000
0010
0M00
0010
0001
0000
2000
0000
3001
0100
0010
1000
,
2002
0000
3003
0000
0022
0000
0033
0000
0001
0100
0010
1000
0000
1000
0001
0000
,
0102
0000
1000
0000
0103
0010
0M00
0010
1000
0000
0100
0010
0100
1000
0100
0010
,
0002
0000
0100
0000
1003
0010
0M00
0010
0001
0000
0100
0010
1000
0001
0010
0100
,
1000
0010
0100
0001
1000
0100
0000
0210
0000
0000
1000
0000
0310
0001
0100
0001
,
1000
0010
0100
0001
1000
0001
0000
2001
0000
0000
0010
0000
3001
0100
0010
1000
,
1002
0000
0010
0000
1003
0100
0010
1000
0000
0010
0100
0000
1000
0001
0100
0010
,
2000
0000
0001
0000
3010
1000
0100
0020
0000
0000
0130
1000
0001
1000
0010
1000
,
2001
0000
3001
0010
1000
0010
0100
1000
2001
0000
0001
0000
3010
1000
0010
0100
,
0001
0000
1000
0000
0001
0000
0000
0000
1001
0000
0000
0000
1000
0000
0100
0000
0110
0000
0000
0000
0010
0000
0001
0000
0000
0000
0001
0000
1000
0001
1000
0001
,
1000
0000
0000
0000
0000
0000
0100
00M0
0100
0000
0000
0000
0000
0000
0001
0000
0000
0000
0000
0000
1000
0000
0000
0000
0001
0000
0010
0000
0100
0000
1000
0000
,
0001
0000
0000
0000
0000
0000
0100
00M0
0100
0000
0000
0000
0000
0000
1000
0000
0000
0000
0000
0000
0010
0000
0000
0000
0100
0000
0001
0000
1000
0000
0001
0000
,
1000
0000
0000
0000
0000
0000
0010
0M00
0010
0000
0000
0000
0000
0000
0001
0000
0000
0000
0000
0000
1000
0000
0000
0000
0001
0000
0100
0000
0010
0000
1000
0000
,
0001
0000
0000
0000
0000
0000
0010
0M00
0010
0000
0000
0000
0000
0000
1000
0000
0000
0000
0000
0000
0001
0000
0000
0000
1000
0000
0010
0000
1000
0000
0001
0000
,
1000
0000
0000
0000
0000
0000
0100
00M0
0100
0000
0000
0000
0000
0000
0001
0000
0000
0000
0000
0000
1000
0000
0000
0000
0001
0000
0100
0000
0010
0000
1000
0000
,
0001
0000
0000
0000
0000
0000
0010
0M00
0010
0000
0000
0000
0000
0000
1000
0000
0000
0000
0000
0000
0001
0000
0000
0000
1000
0000
0010
0000
1000
0000
0001
0000
,
0020
0000
0000
0000
0000
0000
0130
000M
0100
0000
0000
0000
0001
0000
1000
0000
0000
0000
1000
0000
0100
0000
0000
0000
1000
0000
0001
0000
0100
0000
0001
0000
,
1000
0000
0000
0000
0000
0000
0001
0000
0000
0100
0000
0000
1000
0000
0000
0100
0000
0000
0001
0000
0000
0000
1000
0000
0100
0000
0000
0000
0010
0000
0001
0000
0000
0000
0000
0000
1002
0000
0000
0000
0000
0000
0000
0000
0000
0000
0000
0000
,
1003
0000
0000
0000
0001
0000
0100
00M0
0200
0000
0000
0000
0000
0000
1300
0000
0000
0000
0001
0000
1000
0000
0000
0000
0100
0000
0010
0000
0100
0000
1000
0000
,
0100
0000
0000
0000
1001
0000
0000
0001
0010
0001
1000
0000
0010
0100
0001
0100
,
0010
0000
1000
0000
0001
0000
1000
0100
0010
0001
1000
0000
0001
0100
0010
1000
,
0001
0000
0000
0100
1000
0000
0100
0020
0000
0000
0130
0000
0001
1000
0010
1000
,
0002
0000
0003
0000
1001
0000
1000
0100
0000
0010
0100
0000
1000
0100
0010
0100
,
0001
0000
0100
0000
1000
0000
0001
0010
0000
0100
1000
0000
0001
0010
0100
0010
,
1000
0000
0010
0001
1000
0000
0001
0100
0101
0000
0010
1000
0001
0000
1000
0001
,
1001
1000
2200
3300
2002
0000
0000
3003
,
0001
0000
0010
0100
0001
0000
0100
0000
0010
0000
0001
0000
1001
0000
1000
0000
,
0001
0000
0100
0010
0001
0000
0010
0000
1000
0000
0100
0000
0010
0000
0001
0000
,
1000
0000
0010
0100
1000
0000
0100
0010
1000
0000
0001
0000
0100
0000
0010
0000
,
1000
0000
0001
0100
0010
0000
0001
0010
0100
0000
0001
0000
0012
0000
0100
0000
,
0103
0000
0001
0100
1000
0000
0100
0010
1000
0000
0001
0000
0101
0000
0100
0000
,
0001
0000
0010
0100
0001
0000
0100
1000
0001
0000
0010
0000
0011
0000
0001
0000
,
1000
0000
0001
0100
1000
0000
0100
0010
1000
0000
0001
0000
1001
0000
1000
0000
,
1100
0000
0100
0000
0010
0000
0002
0000
0000
1003
0100
0000
0110
0000
0010
0000
,
0001
0000
0000
0000
0000
0000
0100
0000
0000
0000
0000
0000
1000
0000
0000
0000
0000
0000
0100
0000
0000
0000
0000
0000
0001
0000
1000
0000
0001
0000
1000
0000
0000
0100
0000
0000
1000
0000
0000
0001
0000
0000
0100
0000
0000
0000
0000
0000
,
0010
0000
0000
0000
0000
0000
1000
0000
0000
0000
0000
0000
0010
0000
0000
0000
0000
0000
1000
0000
0000
0000
0000
0000
0001
0000
0010
0000
0001
0000
0010
0000
0000
0100
0000
0000
1000
0000
0000
0010
0000
0000
0100
0000
0000
0001
0000
0000
,
1000
0000
0000
0000
0000
0000
0010
0000
0000
0000
0000
0000
0001
0000
0000
0000
0000
0000
0010
0000
0000
0000
0000
0000
1000
0000
0001
0000
1000
0000
0001
0000
0000
0010
0000
0000
0100
0000
0000
1000
0000
0000
0100
0000
0000
1000
0000
0000
,
0001
0000
0010
0000
0001
0000
0010
0001
1000
0100
1000
0010
0100
0001
1000
0100
,
1000
0000
0100
0000
0001
0000
0100
0000
1000
0010
1000
0010
0100
0001
1000
0100
,
0020
0000
0001
0000
0130
0000
1000
0000
0001
1000
0001
0010
0100
1000
0001
0010
,
0002
0000
0100
0000
1003
0000
0010
0000
0100
0001
0100
0001
1000
0100
0010
0001
,
1000
0010
0100
0001
1000
0100
0010
0001
1000
0010
0100
0001
2000
0000
3000
0000
,
2001
0000
0001
0000
3010
0100
0001
1000
,
0002
0000
1003
0100
0010
0001
1000
0010
,
2000
0000
3001
0100
0010
1000
0001
1000
,
0100
0000
1000
0010
1000
0000
0001
0100
0010
0000
1000
0000
0100
0010
0100
1000
,
0001
0000
1000
0100
1000
0000
0001
0010
0001
0000
1000
0000
0100
0000
0010
0000
,
0001
0000
0100
0010
0100
0000
0010
1000
0001
0000
1000
0000
0100
0000
0010
0000
,
0001
0000
0100
0010
1000
0000
0100
0000
0010
0000
0001
0000
1000
0010
1000
0000
,
1001
0000
0001
0010
0010
1000
0100
0100
0001
1000
0100
0100
0001
1000
0100
0000
,
1001
0000
1000
0000
0001
0100
0010
1000
0001
0010
0100
1000
0001
0100
0010
1000
,
0001
0000
1000
0100
1000
0001
0010
0100
1000
0001
0100
0010
1000
0100
0010
0001
,
2000
0000
0000
0000
3001
0100
0010
0100
0002
0000
1003
0100
0010
0001
0100
0010
,
2000
0000
3001
0100
0001
1000
0010
0100
0001
0010
0001
1000
0100
1000
0001
1000
,
0200
0000
0000
0000
0310
0001
0010
0001
1000
0010
0100
0001
0010
0100
1000
0001
,
0200
0000
0000
0000
0301
0010
0100
1000
0002
0000
0000
0013
0100
1000
0001
1000
,
0200
0000
0000
0000
1300
0010
0100
0001
0200
0000
0301
0010
0100
1000
0001
0100
,
0002
0000
0000
0000
0000
0000
0000
0000
0000
0000
0000
0000
1003
0000
0000
0100
0000
0000
0010
0000
0000
0001
0000
0000
1000
0000
0000
0000
0000
0000
0001
0000
0010
0000
0100
0000
1000
0000
0100
0000
0010
0000
0001
0000
1000
0000
0001
0000
;

//--------------- dance-double - ----------------
#NOTES:
     dance-double:
     :
     Easy:
     7:
     0.287,0.259,0.068,0.085,0:
00000000
00000000
00000000
00000000
,
00000000
00000000
00000000
00000000
,
00000000
00010000
00000000
00001000
,
00000000
00010000
00000000
00000100
,
00001000
00000001
00001000
00000010
,
00000000
00001000
00000001
00000010
,
00000000
00000001
00001000
00000100
,
00020000
00000100
00031000
00100000
,
00020000
00000000
00000000
00000000
10030000
00000000
00000000
00020000
00000000
00000000
00000000
00000000
10030000
00000000
00000000
00000000
,
02000000
00000000
00000000
00000000
03100000
00000000
00000000
00020000
00000000
00000000
00000000
00000000
00130000
00000000
00000000
00000000
,
00002000
00000000
00000000
00000000
00013000
00000000
00000000
00000200
00000000
00000000
00000000
00000000
00001300
00000000
00000000
00000000
,
00000002
00000000
00000000
00000000
00001003
00000000
00000000
00000020
00000000
00000000
00000000
00000000
00000130
00000000
00000000
00000000
,
00000002
00000000
00000000
00000000
00001003
00000000
00000000
00000200
00000000
00000000
00000000
00000000
00010300
00000000
00000000
00000000
,
00002000
00000000
00000000
00000000
01003000
00000000
00000000
00020000
00000000
00000000
00000000
00000000
00130000
00000000
00000000
00000000
,
00020000
00000000
00000000
00000000
00130000
00000000
00000000
02000000
00000000
00000000
00000000
00000000
13000000
00000000
00000000
00000000
,
10010000
10010000
01100000
00000000
,
20000000
00000000
00000000
00000000
30010000
00000000
00000000
02000000
00000000
00000000
00000000
00000000
03100000
00000000
00000000
00000000
,
02000000
00000000
00000000
00000000
03001000
00000000
00000000
00020000
00000000
00000000
00000000
00000000
00030100
00000000
00000000
00000000
,
00002000
00000000
00000000
00000000
00003010
00000000
00000000
00000100
00000000
00000000
00000000
00000000
00000001
00000000
00000000
00000000
,
00002000
00000000
00000000
00000000
00003001
00000000
00000000
00001000
00000000
00000000
00000000
00000000
00000010
00000000
00000000
00000000
,
00001020
00000000
00000000
00000000
00001030
00000000
00000000
00000001
00000000
00000000
00000000
00000000
00001000
00000000
00000000
00000000
,
00000200
00000000
00000000
00000000
00010300
00000000
00000000
00001000
00000000
00000000
00000000
00000000
00100000
00000000
00000000
00000000
,
00110000
00010000
10010000
10000000
,
10010000
00010000
01000000
00000000
,
10010000
00010000
00000000
10000000
,
00100000
01000000
00000000
00001000
,
00010000
00001000
00000000
00010000
,
00010100
00000100
00000000
00001000
,
00001001
00000001
00000000
00001000
,
00000010
00000100
00000000
00000001
,
00000011
00000100
00000000
00001000
,
00010000
00100000
00000000
11000000
,
10000000
00010000
00000000
01000000
,
00001000
00010000
00000000
00001000
,
00010000
00000010
00000000
00001000
,
00001001
00000001
00000000
00001001
,
00001010
00000010
00000000
00001000
,
00000001
00001000
00000000
00000010
,
00010010
00000000
00010000
00001000
00010000
00000000
00001000
00010000
,
00001000
00011000
00011000
00000000
,
00001000
01000000
00100000
10000000
,
00010000
10000000
00000000
00010000
,
00000000
01000000
00010000
10000000
,
01000000
00100000
00000000
00001000
,
00000000
00010000
00000100
00001000
,
00000001
00000010
00000000
00000100
,
00000000
00000010
00000001
00001000
,
00001010
00002000
00003000
00001001
,
00000001
00000010
00000100
00001000
,
00010000
00100000
01000000
10000000
,
00010000
01000000
00100000
10000000
,
00010000
01000000
00001000
00010000
,
00011000
00001000
00010000
00000100
,
00001100
00001000
00000001
00001000
,
00001010
00000010
00000100
00000001
,
00000010
00000100
00001000
00000001
,
00002000
00000000
00000010
00000000
00000010
00000000
00000010
00003000
,
00000200
00000010
00000010
00000310
,
00020000
00001000
00001000
00031000
,
02000000
00010000
00010000
03010000
,
10010000
10000000
00100000
10000000
,
00010000
01000000
00010000
00100000
,
00001000
00010000
00001000
00010000
,
00010100
00000000
00000100
00010000
,
00011000
00001000
00010000
00000010
,
00000100
00000001
00000010
00000100
,
00000110
00000010
00001001
00001000
,
00001001
00000010
00010000
00001000
,
00101000
00100000
00010000
01000000
,
01010000
00010000
10000000
00100000
,
10100000
10000000
10010000
00010000
,
00220000
00000000
00000000
00330000
;

//--------------- dance-double - XMOD XO ----------------
#NOTES:
     dance-double:
     XMOD XO:
     Medium:
     12:
     0.148,0.17,0.102,0,0:
00000000
00000000
00000000
00000000
,
00000000
00000000
00000000
00000000
,
00001000
00000000
00010000
00001000
00000000
00010000
00001000
00000000
00000000
00100000
00010000
00000000
01000000
00100000
00000000
00000000
,
10000000
00000000
00000000
00010000
00000000
01000000
00010000
00000000
00000000
00100000
00010000
00000000
00100000
00000000
00001000
00000000
,
00010000
00000000
00000010
00000000
00001000
00000000
00000001
00000000
00000010
00000000
00000100
00001000
00000000
00000000
00000001
00000100
,
00000000
00000000
00000010
00000000
00001000
00000000
00000100
00000000
00000010
00000000
00000001
00001000
00000000
00000000
00000010
00001000
,
00000000
00000001
00000010
00000100
00001000
00010000
00100000
01000000
,
20000000
00000000
00000000
00000000
30010000
01000000
00010000
10000000
,
20010000
00000000
00000000
00000000
30020000
00000000
00000000
00100000
00000000
00000000
10000000
00000000
10030000
00000000
00100000
00000000
,
02000000
00000000
00000000
00000000
03002000
00000000
00000000
01000000
00000000
00000000
00010000
00000000
00013000
00000000
00000100
00000000
,
00002000
00000000
00000000
00000000
00003002
00000000
00000000
00000010
00000000
00000000
00001000
00000000
00001003
00000000
00000000
00000000
,
00000020
00000000
00000000
00000000
00020030
00000000
00000000
00001000
00000000
00000000
00000100
00000000
00030100
00000000
00010000
00000000
,
00002000
00000000
00000000
00000000
02003000
00000000
00000000
00100000
00000000
00000000
00010000
00000000
03010000
00000000
10000000
00000000
,
00200000
00000000
00000000
00000000
20300000
00000000
00000000
00010000
00000000
00000000
00100000
00000000
30100000
00000000
01000000
00000000
,
00002000
00000000
00000000
00000000
00013000
00000000
00000000
00001000
00000000
00000000
00010000
00000000
00000100
00000000
00000000
00000000
,
00001100
00000000
00000000
00000000
00000110
00000000
00000000
00000000
00000001
00000000
00001000
00000010
00000000
00000000
00001000
00000000
,
00000001
00000000
00000000
00000000
00001001
00000000
00000000
00000020
00000000
00000000
00010000
00000000
00010030
00000000
00001000
00000000
,
00100000
00000000
00000000
00000000
00110000
00000000
00000000
00020000
00000000
00000000
01000000
00000000
01030000
00000000
00100000
00000000
,
10000000
00000000
00000000
00000000
10100000
00000000
00000000
00100000
00000000
00000000
10000000
00000000
01000000
00000000
00100000
00000000
,
00000000
00000000
00000000
00000000
00110000
00000000
00000000
00100000
00000000
00000000
00001000
00000000
00010000
00000000
00000010
00000000
,
00002010
00000000
00000000
00003000
00000001
00000000
00000000
00000100
00000000
00000000
00000010
00000000
00001000
00000000
00000000
00000000
,
00000002
00000000
00000000
00000000
00001003
00000000
00000000
00000100
00000000
00000000
00000001
00000000
00000100
00000000
00001000
00000000
,
00002010
00000000
00000000
00000000
00003010
00000000
00000000
00010000
00001000
00000000
00000000
00000000
00011000
00000000
00000000
00000000
,
00010000
00000000
00001000
01000000
00000000
00000000
00010000
01000000
00100000
00000000
00000000
10100000
00000000
00000000
10010000
00000000
,
20000000
00000000
00000000
00000000
30100000
00000000
00000000
00010000
00000000
00000000
00001000
00000000
00000100
00000000
00000001
00000000
,
00001000
00000000
00000000
00000000
00000001
00000000
00000000
00000010
00000000
00000000
00001000
00000000
00010000
00000000
01000000
00000000
,
10000000
00000000
00000000
00000000
00010000
00000000
00000000
01000000
00000000
00000000
00100000
00000000
00010000
00000000
00100000
00000000
,
01000000
00000000
00001000
00000000
00010000
00000000
00000000
00001000
00000000
00000000
00010000
00000000
00000010
00000000
00001000
00000000
,
00000001
00000000
00000000
00000000
00001000
00000000
00000000
00000100
00000000
00000000
00000001
00000000
00000100
00000000
00001000
00000000
,
00000100
00000000
00010000
00000000
00001000
00000000
00000000
01000000
00000000
00000000
00100000
00000000
10000000
00000000
00100000
00000000
,
01100000
00000000
00000000
00000000
01000000
00000000
00000000
00010000
00000000
00000000
00100000
00000000
01000000
00000000
10000000
00000000
,
00010000
10010000
10000000
10010000
,
10000000
00000000
00000000
00100000
00000000
00000000
00000000
01000000
00000000
00000000
10000000
00000000
01000000
00000000
00010000
00000000
,
00100000
00000000
00001000
00000000
00010000
00000000
00000000
00001000
00000000
00000000
00010000
00000000
00000010
00000000
00000100
00000000
,
00000010
00000000
00000000
00000000
00100010
00000000
00000000
00100000
00000000
00000000
00001000
00000000
00010000
00000000
00000010
00000000
,
00001010
00000000
00000000
00000000
00001000
00000000
00000000
00000001
00000000
00000000
00000010
00000000
00000001
00000000
00001000
00000000
,
00000001
00000000
00000000
00000000
00000010
00000000
00000000
00001000
00000000
00000000
00000010
00000000
00000100
00000000
00010000
00000000
,
00001000
00000000
01000000
00000000
00100000
00000000
00000000
00010000
00000000
00000000
00100000
00000000
01000000
00000000
00010000
00000000
,
20000000
00000000
30010000
01000000
01010000
00000000
00100000
10000000
,
10010000
00000000
00000000
00000000
01010000
00000000
00000000
00000000
00020000
00000000
00000000
00030000
00100000
00000000
00000000
00000000
,
00001000
00010000
00001000
00000000
00010000
00000000
00000010
00000000
,
00001000
00000000
00000001
00001000
00000000
00010000
00000010
00000100
,
00000000
00000001
00000100
00000000
00000010
00000000
00001000
00000000
,
00000001
00000000
00000010
00000100
00000000
00001000
00000001
00001000
,
00000000
00000010
00001000
00000000
00000001
00000000
00000010
00000000
,
00000100
00000000
00001000
00010000
00000000
00100000
01000000
10000000
,
00000000
00010000
01000000
00000000
00010000
00000000
10000000
00000000
,
10010000
00000000
00010000
01000000
00000000
00001000
00010000
00001000
,
00010000
00000000
00000010
00000000
00001000
00000100
00000010
00000100
,
00001000
00000000
00000010
00000000
00010000
00001000
00000100
00001000
,
00010000
00000000
00001000
00000000
01000000
00010000
00100000
00010000
,
10000000
00000000
01000000
00000000
00100000
00010000
00100000
00010000
,
00100000
00000000
00001000
00000000
00010000
00000100
00010000
00000100
,
00010000
00000000
00000001
00000000
00000100
00000010
00001000
00000010
,
00000100
00000010
00010000
00001000
00100000
00010000
00100000
00010000
,
01000000
00100000
01000000
00001000
00100000
00000000
00001000
00000000
,
00201000
00010000
00001000
00310000
,
00021000
00000100
00001000
00030100
,
00002000
00000010
00000100
00003001
,
00000002
00000000
00001000
00000000
00000100
00000000
00001003
00000010
,
00002000
00000000
00003100
00001000
00000100
00000000
00010000
00000000
,
00000200
00000000
00010300
00001000
00010000
00000000
00001000
00000000
,
00200000
00000000
00301000
00010000
00001000
00000000
01000000
00000000
,
10000000
00010000
00100000
00010000
10000000
01000000
10000000
00010000
,
10000000
00000000
01000000
00000000
00100000
00010000
00100000
00010000
,
10000000
00000000
00010000
00000000
01000000
00100000
01000000
00000000
,
01010000
00000000
00010000
00000000
00100000
00001000
00010000
00001000
,
00100000
00000000
00001000
00010000
00000010
00001000
00000010
00000100
,
00000001
00000000
00000100
00000000
00000010
00001000
00000100
00010000
,
00001000
00000000
01000000
00000000
00100000
10000000
01000000
10000000
,
00010000
10000000
00010000
01000000
,
00001000
00000000
00010000
00000000
00004000
00000000
00000000
00003000
;

//--------------- dance-double - XMOD XO DS FS ----------------
#NOTES:
     dance-double:
     XMOD XO DS FS:
     Hard:
     17:
     0.69,0.661,0.449,0.161,0.258:
00000000
00000000
00000000
00000000
,
00000000
00000000
00000000
00000000
,
00001000
00000000
00100000
00010000
00000000
00100000
00010000
00000000
00000000
10000000
00010000
00000000
10000000
00100000
01000000
00000000
,
00001000
00000000
00010000
00000100
00000000
00001000
00000010
00000000
00000000
00000100
00000001
00001000
00000100
00001000
00000010
00000100
,
00000001
00000100
00000010
0000M000
00000010
00000000
00000001
00000000
00001000
00000000
00000100
00001000
00000000
00000100
00010000
00001000
,
00000000
01000000
00100000
000M0000
00100000
00000000
00010000
00000000
01000000
00000000
00100000
10000000
00000000
10000000
00010000
10000000
,
00010000
00100000
00010000
0M000000
00010000
00000000
00001000
00000000
00010000
00000100
00010000
00000000
00010000
00000100
00000010
00000001
,
00001000
00000001
00001000
00000000
00000010
00000000
00001000
00000000
00000100
00010000
00001000
00100000
00010000
01000000
00100000
10000000
,
00020000
00000000
00000000
00030000
20000000
00000000
00000000
00100000
00000000
00000000
00010000
00000000
30010000
01000000
00001000
00010000
,
00002000
00000000
00013000
00000100
00020000
00000000
00000000
00000010
00000000
00000000
00001000
00000000
00031000
00000100
00000010
00000001
,
00002000
00000000
00000000
00003000
00000200
00000000
00000000
00000010
00000000
00000000
00010000
00000000
00010300
00001000
00010000
00000100
,
00010000
00000000
00000010
00000100
00000010
00000000
00000000
00000210
00000000
00000000
00000001
00000000
00000310
00001000
00000100
00001000
,
00000020
00000000
00000000
00000000
00200030
00000000
00000000
00001000
00000000
00000000
00010000
00000000
00310000
00100000
01000000
10000000
,
00010000
00000000
00100000
00010000
00100000
00001000
00000000
00200000
00000000
00000000
00001000
00000000
00310000
00000100
00010000
00000100
,
00020000
00000000
00000000
00000000
00030020
00000000
00000000
00001000
00000000
00000000
00000100
00000000
00001030
00000000
00000000
00000000
,
00001001
00000000
00000000
00000000
00001001
00000000
00000000
00000000
00000001
00000100
00000010
00001000
00000000
00001000
00000001
00000000
,
00020001
00000000
00000000
00000000
00030020
00000000
00000000
00000100
00000000
00000000
00010000
00000000
00010030
00001000
00010000
00001000
,
02000000
00000000
03010000
10000000
00020000
00000000
00000000
01000000
00000000
00000000
10000000
00000000
10030000
00100000
01000000
00001000
,
00020000
00000000
00000000
00000000
00030020
00000000
00000000
00001000
00000000
00000000
00010000
00000000
00010030
00000010
00000100
00000001
,
00002000
00000000
00003001
00000010
00000200
00000000
00000000
00001300
00000010
00001000
00000001
00000000
00001000
00000100
00000010
00000001
,
00001000
00000000
00000000
00000000
00001001
00000000
00000000
00000001
00000000
00000000
00000100
00000000
00000010
00010000
00000010
00010000
,
00001000
00000000
00100000
00001000
00101000
00000000
00000000
00100000
00000000
00000000
00010000
00000000
10000000
01000000
00100000
01000000
,
20000000
00000000
00000000
00000000
00000000
00000000
00000000
00000000
30010000
00000000
00000000
00000000
00000000
00000000
01000000
00M00000
01000000
00000000
00000000
00000000
10000000
00000000
00000000
00000000
00010000
00000000
10000000
00000000
00100000
0M000000
00100000
00000000
,
00010000
00000000
00000000
00000000
00100000
00000000
00001000
00000000
00000000
00000000
00010000
00000000
00000100
0000M000
00000100
00000000
00000010
00000000
00000000
00000000
00001000
00000000
00000010
00000000
00000000
00000000
00000000
00000000
00001000
00000000
00000000
00000000
,
00001001
00000000
00000000
00000000
00000001
00000000
00000100
000000M0
00000100
00000000
00000000
00000000
00000000
00000000
00001000
00000000
00000000
00000000
00000000
00000000
00000010
00000000
00000000
00000000
00001000
00000000
00000000
00000000
00000100
00000000
00001000
00000000
,
00000001
00000000
00000010
00000M10
00001000
00000000
00000000
00000100
00000000
00000000
00010000
00000000
00001000
00010000
00001000
00100000
,
00001000
00000000
00000000
00000000
00100000
000M0000
00100000
00000000
01000000
00000000
00000000
00000000
00000000
00000000
00010000
00000000
00000000
00000000
00000000
00000000
10000000
00000000
00000000
00000000
00010000
00000000
00000000
00000000
01000000
00000000
00001000
00000000
,
00010000
00000000
00000000
00000000
00001000
000000M0
00001000
00000000
00000100
00000000
00000000
00000000
00000010
00000000
00000001
00000000
00000000
00000000
00001000
00000000
00000010
00000000
00000000
00000000
00001000
00000000
00000001
00000000
00000010
00000000
00000000
00000000
,
00000011
00000000
00000000
00000000
00000001
00000000
00000100
000M0000
00000100
00000000
00000000
00000000
00001000
00000000
00000100
00000000
00000000
00000000
00010000
00000000
00001000
00000000
00000000
00000000
01000000
00000000
00000000
00000000
00010000
00000000
10000000
00000000
,
00010000
00000000
00000000
00000000
00100000
0M000000
00100000
00000000
10000000
00000000
00000000
00000000
00010000
00000000
00100000
00000000
00000000
00000000
00010000
00000000
00100000
00000000
00000000
00000000
01000000
00000000
10000000
00000000
00010000
00000000
00100000
00000000
,
00001000
00000000
00000000
00000000
00010000
00000M00
00010000
00000000
00100000
00000000
00000000
00000000
00000000
00000000
00010000
00000000
00000000
00000000
00000000
00000000
00100000
00000000
00000000
00000000
00001000
00000000
00000000
00000000
00010000
00000000
00000100
00000000
,
00001000
00000000
00000010
00000100
00000010
00001000
00000010
00000100
00000001
00001000
00000001
00000000
00002002
00000000
00003003
00000000
,
00001000
00000000
00000001
00000100
00001000
00000000
00000000
00010000
00000000
00000000
00100000
00000000
10000000
00000000
00010000
01000000
,
00010000
00000000
10000000
01000000
00010000
00000000
00000000
00001000
00000000
00000000
00000010
00000000
00000001
00001000
00000100
00001000
,
00000001
00000000
00001000
00000100
00000001
00000000
00000000
00000100
00000000
00000000
00000010
00000000
00000001
00000000
00001000
00000100
,
00001000
00000000
00000100
00010000
00001000
00000000
00100000
00010000
00000000
00000000
01000000
00000000
00010000
10000000
00010000
10000000
,
00020000
00000000
00000000
00000000
10030000
00000000
00000000
01000000
00000000
00000000
00010000
00000000
01000000
00000000
00100000
00000000
,
00010000
00000000
00001000
00000000
00001100
00000000
00000000
00000100
00000000
00000000
00001000
00000000
00000001
00000100
00000001
00001000
,
00000001
00000000
00001000
00000000
00000001
00000000
00000100
00000010
00000110
00000000
00001000
00000000
00000010
00000000
00001000
00000001
,
00001001
00011000
00002000
00003000
,
10010000
00000000
00010000
01000000
00100000
00000000
10000000
00010000
10000000
00000000
01000000
00000000
00010000
00000000
00001000
00000000
,
00000010
00000000
00000001
00000000
00001000
00000000
00000100
00000010
00000200
00000000
00000000
00000000
00001300
00000000
00000001
00000000
,
00001000
00000000
00000001
00000100
00000010
00000000
00010000
00000100
00001000
00000000
00010000
00000000
00100000
00000000
01000000
00000000
,
10000000
00000000
00010000
00000000
00100000
00000000
01000000
10000000
00010000
00000000
10000000
00000000
10100000
00000000
00100000
00000000
,
10000000
00000000
00010000
01000000
00100000
00000000
10000000
00010000
00100000
00000000
00010000
00000000
00001000
00000000
00010000
00000000
,
00100000
00000000
00010000
00100000
00010000
00000000
00100000
00001000
00100000
00000000
00001000
00000000
00011000
00000000
00010000
00000000
,
00000010
00000000
00001000
00000001
00000100
00000000
00000010
00001000
00000001
00000000
00000100
00000000
00001000
00000000
00010000
00000000
,
00120000
00000000
00000000
00000000
01030000
00000000
00100000
00000000
00000000
10000000
00010000
00000000
10010000
00000000
10000000
00000000
,
00010000
00000000
01000000
00000000
10000000
00000000
01000000
00000000
00010000
00100000
01000000
10000000
00010000
01000000
00100000
10000000
,
00010000
00000000
00100000
00000000
00001000
00000000
00010000
00000000
00000010
00001000
00000001
00000100
00000001
00000010
00000100
00001000
,
00000010
00000000
00001000
00000000
00000100
00000000
00010000
00000000
00001000
00010000
00001000
00100000
00010000
10000000
00100000
10000000
,
00010000
00000000
01000000
00000000
00100000
00000000
10000000
01000000
10000000
00010000
00100000
01000000
10000000
00010000
01000000
00100000
,
10000000
00000000
00010000
00000000
00100000
00000000
00001000
00000000
00010000
00001000
00010000
00000100
00001000
00000100
00010000
00001000
,
00010000
00000000
00000010
00000000
00000100
00000000
00000010
00000000
00001000
00000001
00001000
00000100
00000010
00000100
00001000
00000001
,
00001000
00000000
00000010
00000000
00001000
00000000
00000010
00000000
00001000
00000001
00000010
00000100
00001000
00000100
00010000
00001000
,
00010000
00001000
00100000
00010000
00100000
00001000
00010000
00001000
01000000
00000000
00010000
00000000
00100000
00000000
00000000
00000000
,
00120000
00000000
01000000
00000000
10000000
10000000
10030000
00000000
,
20000000
00000000
00001000
00000000
01000000
01000000
31000000
00100000
,
00020000
00000000
00001000
00000000
00100000
00100000
00130000
00000000
,
00002000
00000000
00000000
00000000
00100000
00000000
00000000
00000000
00010000
00000000
00010000
00000000
00013000
00001000
00010000
00000100
,
00001000
00000000
00000001
00000100
00000001
00000000
00001000
00000000
00000100
00000000
00000010
00000000
00000001
00000000
00001000
00000000
,
00000001
00000000
00000100
00000010
00000100
00000000
00000010
00000000
00010000
00000000
00001000
00000000
00010000
00000000
00001000
00000000
,
01000000
00000000
00010000
01000000
00010000
00000000
10000000
00000000
00100000
00000000
10000000
00000000
00010000
01000000
00010000
01000000
,
00010000
00100000
01000000
10000000
00010000
01000000
00100000
10000000
00010000
00100000
01000000
10000000
00010000
01000000
00010000
00000000
,
10000000
00000000
01000000
00000000
00100000
00000000
00010000
00000000
10000000
00010000
10000000
00100000
01000000
00100000
01000000
00000000
,
00001000
00000000
00010000
00001000
00010000
00001000
00010000
00000000
00000010
00000000
00000100
00000001
00000100
00000001
00000100
00000000
,
00000010
00000000
00001000
00000100
00001000
00000010
00001000
00000000
00000001
00000000
00001000
00000010
00001000
00000100
00001000
00000000
,
00000010
00000000
00010000
00001000
00010000
00000100
00010000
00001000
00010000
00001000
00100000
00010000
00100000
00010000
10000000
00100000
,
01000000
00000000
00010000
00100000
01000000
10000000
00010000
00000000
10000000
00000000
00010000
00100000
00010000
00100000
00001000
00000000
,
00010000
00000000
00000010
00001000
00000010
00001000
00000010
00000000
00000100
00000000
00000001
00001000
00000001
00000010
00000001
00000000
,
00001000
00000000
00000001
00000010
00000100
00001000
00000001
00000000
00001000
00000000
00000010
00001000
00000100
00001000
00000010
00000000
,
00010000
00000000
00001000
00100000
00010000
01000000
00100000
10000000
00010000
00100000
01000000
10000000
00010000
10000000
00010000
10000000
;

//--------------- dance-double - XMOD BU+ DS JA XO SJ ----------------
#NOTES:
     dance-double:
     XMOD BU+ DS JA XO SJ:
     Challenge:
     19:
     0.438,0.46,0.339,0.203,0:
00000000
00000000
00000000
00000000
,
00000000
00000000
00000000
00000000
,
00001000
00000000
00000000
00000000
00010000
00000000
00001000
00000000
00001000
00000000
00000100
00000000
00001000
00000000
00000010
00000000
00000000
00000000
00000100
00000000
00000001
00000000
00000000
00000000
00000100
000000M0
00000100
00000000
00000000
00000000
00000000
00000000
,
00010000
00000000
00000000
00000000
00000000
00000000
00001000
00M00000
00001000
00000000
00000100
00000000
00000010
00000000
00000000
00000000
00000000
00000000
00000100
00000000
00001000
00000000
00000100
00000000
00010000
00000000
00001000
00000000
01000000
00000000
00100000
00000000
,
10000000
00010000
01000000
00M00000
01000000
00000000
10000000
00000000
00010000
00000000
10000000
01000000
00010000
01000000
10000000
00010000
,
00100000
00001000
00010000
00M00000
00010000
00000000
01000000
00000000
00001000
00000000
00010000
00000100
00001000
00000010
00000100
00000001
,
00001000
00000100
00001000
00000000
00001001
00000000
00000001
00000000
00001000
00000100
00000010
00000000
00000011
00000001
00001000
00000010
,
00010000
00001000
00010000
00001000
01000000
00100000
01000000
00100000
10000000
01000000
00100000
00010000
00100000
01000000
10000000
00010000
,
10010000
00000000
10000000
00000000
00100000
00100000
00000000
10000000
01000000
00000000
00100000
00010000
00100000
00001000
00010000
00000100
,
00002000
00000000
00003010
00001000
00000001
00000001
00000000
00001010
00000000
00000000
00001000
00000100
00010000
00001000
00010000
00000010
,
00001010
00000000
00001000
00000001
00000010
00000010
00000000
00000100
00000000
00000000
00001000
00000000
00010000
00010000
01000000
00100000
,
10000000
00000000
00010000
01000000
00100000
10000000
00000000
10100000
00000000
00000000
00100000
01000000
00001000
00001000
00010000
00001000
,
00020000
00000000
00030010
00000100
00000010
00000010
00000000
00000110
00000000
00000000
00000100
00000001
00000010
00000100
00001000
00000001
,
00001000
00000000
00000100
00010000
00000100
00000100
00000000
00011000
00000000
00000000
00010000
00001000
01000000
01000000
00100000
10000000
,
10010000
00000000
00010000
00100000
01000000
01000000
00000000
10010000
00000000
00000000
00010000
00000000
00100000
00001000
00100000
00001000
,
00011000
00000000
00000000
00000000
00010000
00000000
00000000
00000000
00010010
00000000
00000000
00000000
00000010
00000000
00000000
00000000
00001000
00000000
00000001
00000000
00001000
00000000
00000010
00000000
00000000
00000000
00001000
00000000
00000001
00000010
00000100
00001000
,
00000001
00000000
00000100
00001000
00010000
00100000
00000000
10100000
00000000
00000000
10000000
00000000
00010000
00010000
01000000
00100000
,
10000000
01000000
00100000
00010000
00100000
00100000
00000000
00011000
00000000
00010000
00000001
00000100
00001000
00000100
00000001
00000000
,
00001000
00000000
00000001
00000100
00000010
00010000
00000000
00011000
00000000
00000000
00001000
00000000
01000000
00100000
01000000
00010000
,
10000000
00000000
01000000
00000000
00100000
00000000
00010000
00000000
10000000
00000000
00100000
00000000
00000000
00000000
10000000
00000000
00010000
00000000
00100000
00000000
01000000
00000000
00000000
00000000
10000000
00000000
00010000
00000000
01000000
00001000
01000000
00001000
,
00010000
00000000
00000010
00000100
00001000
00000100
00000000
00000110
00000000
00000000
00000010
00000000
00100000
00010000
01000000
00100000
,
10000000
01000000
00100000
00010000
01000000
00010000
00000000
10010000
00000000
00000000
10000000
00000000
00001000
00010000
00001000
00010000
,
00010100
00000000
00000100
00000000
00001000
00000010
00000000
00000100
00000001
00000000
00001000
00000000
00000001
00001000
00000010
00001000
,
00001010
00000000
00000000
00000000
00000010
00000000
00000100
00000000
00000000
00000000
00000001
00000000
00000100
00000000
00000010
00000000
00010000
00000000
00000000
00000000
00001000
00000000
00010000
00000000
00000000
00000000
00000000
00000000
00001000
01000000
00001000
01000000
,
00001000
00000000
01000000
00100000
00010000
00000000
00100000
01000000
00000000
00010000
10000000
00000000
00010000
01000000
00001000
00010000
,
00001000
00000000
00010000
00000001
00000100
00000000
00001000
00000100
00000000
00000010
00001000
00000000
00000001
00000010
00000100
00001000
,
00010000
00000000
00100000
01000000
10000000
00000000
00010000
01000000
00000000
00010000
01000000
00000000
10000000
01000000
00100000
00010000
,
01010000
00000000
01000000
00001000
01000000
00000000
00001000
00010000
00000000
00010000
00000100
00000000
00001000
00000100
00000010
00000100
,
00001100
00000000
00001000
00000010
00000100
00000000
00001000
00000100
00000000
00000010
00001000
00000000
00000001
00000010
00000100
00001000
,
00000001
00000000
00001000
00000010
00000001
00000000
00000010
00000100
00000000
00000001
00001000
00000000
00000100
00010000
00001000
00010000
,
00010100
00000000
00000100
00001000
00010000
00000000
00001000
00000100
00000000
00010000
00001000
00000000
01000000
00100000
01000000
00100000
,
10000000
00000000
00000000
00000000
00000000
00000000
01000000
00000000
00000000
01000000
00000000
00000000
00000000
00000000
00000000
00100000
00000000
00000000
00100000
00000000
00000000
00000000
00010000
00000000
10000000
00000000
00000000
00000000
00010000
00000000
00100000
00000000
00000000
00000000
00000000
00000000
00220000
00000000
00000000
00000000
00000000
00000000
00330000
00000000
00000000
00000000
00000000
00000000
,
00201000
00000000
00001000
00000000
00300010
00000000
00001000
00000001
00000000
00001000
00000100
00000000
00010000
00000000
00000010
00010000
,
00000010
00000000
00010000
00001000
00010000
00000000
00001000
01000000
00000000
00100000
10000000
00000000
00010000
10000000
01000000
10000000
,
00100000
00000000
10000000
01000000
00100000
00000000
00010000
00100000
00000000
01000000
10000000
00000000
00001000
00000000
00010000
00001000
,
00011000
00000000
00010000
00000010
00000100
00000000
00000001
00000010
00000000
00000100
00001000
00000000
00001001
00000001
00001000
00000010
,
00002000
00000000
00000001
00000000
00003010
00000000
00000000
00200000
00000000
00000000
00001000
00000000
00310000
00000000
00010000
10000000
,
00010000
00000000
01000000
00000000
02000100
00000000
00000000
00001000
00000000
00000000
03000100
00000000
00010000
00000010
00001000
00000010
,
00001000
00000000
00000000
00000000
00000001
00000000
00000000
00000000
00000001
00000000
00000000
00000000
00001000
00000010
00000100
00000001
00001000
00000000
00000000
00000000
00000001
00000000
00000000
00000000
00001000
00000000
00000000
00000000
00000001
00001000
00000100
00001000
,
00000001
00010000
00011000
00000000
00201000
00000000
00310000
00000000
,
00011000
00000000
00001000
00010000
00100000
00000000
00010000
00001000
00020000
00000000
00000100
00000000
00031000
00000000
00010000
00000000
,
00001000
00000000
00010000
00100000
01000000
00000000
10000000
00010000
20000000
00000000
01000000
00000000
30010000
00000000
01000000
00000000
,
00010000
00000000
00100000
00010000
00100000
00000000
00001000
00010000
00002000
00000000
00010000
00000000
01003000
00000000
00010000
00000000
,
00100000
00000000
00001000
00010000
00001000
00000000
00010000
00000100
00020000
00000000
00001000
00000000
00030010
00000000
00010000
00000000
,
00000010
00000000
00001000
00000100
00001000
00000000
00000010
00001000
00000002
00000000
00000100
00000000
00001003
00000000
00000010
00000000
,
00010000
00000000
00001000
00100000
00001000
00000000
00010000
00001000
02000000
00000000
00010000
00000000
03001000
00000000
00100000
00000000
,
00010000
00000000
10000000
01000000
00010000
00000000
01000000
00100000
02000000
00000000
00010000
00000000
03001000
00000000
00100000
00000000
,
00101000
00000000
00001000
00010000
00000100
00000000
00001000
00000000
00000000
00000100
00001000
00000000
00001001
00000000
00000001
00000000
,
00001000
00000000
00000000
00000100
00000000
00000000
00000010
00000000
00000000
00000100
00000000
00000000
00001000
00000010
00000100
00000001
00001000
00000100
00000010
00000001
00001000
00000010
00000100
00000001
,
00001000
00000000
00000000
00000100
00000000
00000000
00010000
00000000
00000000
00001000
00000000
00000000
00010000
00001000
00010000
00001000
00010000
00001000
00010000
00001000
00010000
00001000
00010000
00001000
,
00010000
00000000
00000000
00001000
00000000
00000000
01000000
00000000
00000000
00100000
00000000
00000000
10000000
01000000
00100000
00010000
10000000
00100000
01000000
00010000
00100000
01000000
10000000
00010000
,
10000000
00000000
00000000
00000000
00000000
00000000
01000000
00000000
00000000
00000000
00000000
00000000
00100000
00000000
00000000
00000000
00000000
00000000
00010000
00000000
00000000
10000000
00000000
00000000
00010000
00000000
00100000
00000000
01000000
00000000
10000000
00000000
00010000
00000000
01000000
00000000
00100000
00000000
10000000
00000000
00010000
00000000
00100000
00000000
01000000
00000000
10000000
00000000
,
00010000
00000000
00000000
00100000
00000000
00000000
00001000
00000000
00000000
00010000
00000000
00000000
00000100
00001000
00000001
00001000
00000001
00000010
00000100
00001000
00000001
00000100
00000010
00001000
,
00000001
00000000
00000000
00001000
00000000
00000000
00000100
00000000
00000000
00010000
00000000
00000000
00001000
00010000
00001000
00010000
00001000
00010000
00001000
00010000
00001000
00010000
00001000
00010000
,
00001000
00000000
00000000
00000000
00000000
00000000
01000000
00000000
00000000
00000000
00000000
00000000
00100000
00000000
00000000
00000000
00000000
00000000
10000000
00000000
00000000
00010000
00000000
00000000
10000000
00000000
01000000
00000000
00100000
00000000
00010000
00000000
10000000
00000000
00100000
00000000
01000000
00000000
00010000
00000000
10000000
00000000
01000000
00000000
00100000
00000000
00010000
00000000
,
10000000
00000000
00100000
00000000
01000000
00000000
00010000
00000000
10000000
00000000
00010000
00000000
10000000
00000000
00000000
00000000
00000000
00000000
00010000
00000000
00000000
00100000
00000000
00000000
00010000
00000000
00000000
00000000
00000000
00000000
01000000
00000000
00000000
00000000
00000000
00000000
00010000
00000000
00000000
00000000
00000000
00000000
00000000
00000000
00000000
00000000
00000000
00000000
,
10010000
00000000
10000000
00010000
00100000
00000000
01000000
10000000
00010000
00000000
00100000
00000000
00101000
00000000
00001000
00000000
,
00020000
00000000
00030010
00000100
00000010
00000000
00001000
00000001
00001000
00000000
00000010
00000000
00001000
00000000
00000001
00000000
,
00001001
00000000
00001000
00000000
00000100
00000000
00000010
00000000
00000001
00000000
00001000
00000000
00000010
00001000
00000100
00001000
,
00000010
00000000
00010000
00001000
00010000
00001000
01000000
00100000
10000000
00000000
01000000
00100000
00010000
10000000
00100000
01000000
,
00010000
00000000
00100000
01000000
00100000
00001000
00010000
00001000
00010000
00000100
00001000
00000000
00000001
00000000
00001000
00000000
,
00000001
00000000
00000100
00000010
00001000
00000100
00010000
00001000
01000000
00010000
01000000
00010000
10000000
00100000
10000000
00000000
,
00010000
00000000
10000000
01000000
00100000
00010000
00100000
00001000
00010000
00001000
00010000
00000100
00001000
00000001
00000010
00000000
,
00000011
00000000
00000001
00001000
00000100
00000010
00000001
00000100
00000010
00001000
00000001
00000100
00000010
00001000
00000100
00001000
,
00000001
00000000
00001000
00000000
00000010
00000100
00000010
00000100
00000010
00010000
00001000
00010000
00001000
00100000
00010000
00100000
,
00001000
00000000
01000000
00100000
01000000
00010000
00100000
01000000
10000000
00010000
01000000
00100000
10000000
01000000
10000000
00010000
,
10000000
00000000
00010000
00100000
01000000
10000000
00100000
01000000
00010000
00100000
00010000
00100000
00001000
00010000
00000100
00010000
,
00001000
00000000
00010000
00000100
00001000
00000010
00000100
00000001
00001000
00000100
00001000
00000010
00000100
00000001
00001000
00000000
,
00001001
00000000
00000001
00000010
00000100
00001000
00000100
00010000
00001000
00010000
00001000
00100000
00010000
01000000
00100000
00000000
,
10100000
00000000
10000000
01000000
00100000
00010000
00100000
01000000
10000000
00100000
01000000
00010000
10000000
01000000
00100000
00000000
,
10010000
00000000
00010000
00100000
00010000
00100000
00001000
00010000
00001000
00010000
00000100
00001000
00000001
00001000
00000100
00000010
,
00000100
00000000
00000000
00000000
00000000
00000000
00001000
00000000
00000000
00000100
00000000
00000000
00000010
00000000
00000000
00000001
00000000
00000000
00001000
00000000
00000000
00000010
00000000
00000000
00000100
00000000
00000000
00000000
00000000
00000000
00000001
00000000
00001000
00000000
00000100
00000000
00001000
00000000
00000001
00000000
00000010
00000000
00000100
00000000
00001000
00000000
00000001
00000000
;
