#TITLE:Nevereverland;
#SUBTITLE:;
#ARTIST:Nano;
#TITLETRANSLIT:;
#SUBTITLETRANSLIT:;
#ARTISTTRANSLIT:;
#GENRE:;
#CREDIT:;
#MUSIC:Nevereverland.ogg;
#BANNER:Nevereverland.png;
#BACKGROUND:Nevereverland-bg.png;
#CDTITLE:;
#SAMPLESTART:100.613;
#SAMPLELENGTH:13.544;
#SELECTABLE:YES;
#OFFSET:-0.082;
#BPMS:0.000=75.000
,37.875=206.000
,69.000=412.000
,70.000=206.000
,212.000=103.000
,240.000=412.000
,241.500=206.000
,243.000=412.000
,244.500=206.000
,246.000=412.000
,247.500=206.000
,248.000=103.000
,250.000=206.000
;
#STOPS:69.000=0.146
,240.000=0.073
,240.500=0.073
,241.000=0.073
,243.000=0.073
,243.500=0.073
,244.000=0.073
,246.000=0.073
,246.500=0.073
,247.000=0.073
;
#ORIGIN:;
#PREVIEWVID:;
#JACKET:Nevereverland-jacket.png;
#CDIMAGE:;
#DISCIMAGE:;
#BGCHANGES:-0.103=Nevereverland.avi=1.000=1=0=0=StretchNoLoop==CrossFade==,
99999.000=-nosongbg-=1.000=0=0=0=StretchNoLoop====
;
#FGCHANGES:;

//--------------- dance-single - ----------------
#NOTES:
     dance-single:
     :
     Medium:
     13:
     0,0,0,0,0:
0000
0000
0000
0000
,
2001
0000
0000
0000
0000
0000
0000
0100
0000
0000
0000
0000
0000
0000
3001
0000
,
1000
0000
0000
0100
0000
0010
0000
0001
0000
0000
0000
0000
0100
0000
0001
0000
,
0101
0000
0000
0000
0000
0000
1000
0020
0000
0000
0000
0000
0000
1030
0010
0100
,
0001
0000
0010
0010
0000
0001
0000
0100
0000
0000
0001
0000
1000
0000
0100
0000
,
1100
0000
1000
0100
0010
0100
1000
0002
0000
0000
0103
0000
0010
1000
0001
0000
,
1001
0000
1000
0100
0010
0001
0000
2000
0000
0000
3010
0000
0100
0000
0001
0000
,
0020
0000
0000
0000
0000
0000
0031
1000
0000
0000
0000
0000
0000
0000
1000
0000
,
0010
0000
0000
0100
0000
0001
0000
1000
0000
0000
0001
0000
1000
0000
0100
0000
,
0020
0000
0032
1000
,
1000
1000
2003
0010
,
0010
0010
3002
0100
,
0100
0100
2003
0010
,
3010
0100
0001
0000
0101
0000
0000
1010
,
0000
0000
1100
0000
0000
0011
0000
0000
,
1000
0001
1001
0000
1000
0001
1000
0001
,
1000
0001
1000
0001
0400
0040
0000
0000
,
0000
0000
0330
0000
2001
0000
3010
0100
,
0001
0000
1000
0010
0000
1000
0100
0000
,
0010
0001
1000
0000
0011
0000
0010
0100
,
1000
0000
0001
0010
0000
0001
0100
0000
,
0010
0010
0100
0100
0001
1000
0002
0000
,
0023
0000
0130
1000
0000
1000
0010
0000
,
1010
0000
0101
0000
1000
0100
2000
0000
,
3020
0000
1030
0001
0000
0001
1000
0100
,
0010
0001
1000
0010
1000
0100
0000
0100
,
1000
0000
1000
0010
0000
0010
1000
0001
,
2000
0000
3200
0000
1300
0001
0010
0001
,
1000
0100
1000
0001
0100
0001
0010
0100
,
2000
0010
3001
0100
,
0100
0000
0010
2000
0000
0000
3100
0000
,
0100
0000
0010
0001
1000
0100
0010
0000
,
0001
0100
0010
0000
1000
0100
0010
0000
,
0001
1000
0020
0000
0130
0000
0100
0000
,
0100
0000
0002
0010
0000
0000
0010
0000
,
0023
0000
0230
0000
1300
0010
0100
0000
,
0001
0010
0100
0000
1000
0010
0100
0000
,
0110
1002
0103
0010
,
1000
0010
1000
0000
0001
0000
0010
0000
,
0100
1000
0100
0000
0010
0000
0001
0000
,
0100
0010
0100
0000
0001
0000
1000
0000
,
1001
0110
2001
0100
,
0100
0100
3002
0100
,
0100
0000
0100
0000
1003
0000
1000
0001
,
0000
0001
0010
0100
0000
0100
2000
0000
,
3002
0203
0301
0101
,
1001
0000
1000
0100
0000
0010
0001
0000
,
1000
0010
1010
0000
0110
0000
0101
0000
,
0001
0010
0000
0100
1000
0000
0001
0100
,
0020
0130
0110
1001
,
1000
0001
0000
1000
0100
0000
0010
0100
,
1000
0000
0001
0000
1001
0000
0001
0010
,
0000
0010
0100
0000
1000
0001
0100
0001
,
0200
0000
0010
1000
,
0302
0100
1000
0010
,
0013
0000
0000
0100
0000
0000
1000
0000
0000
0000
0001
0000
1000
0000
0001
0000
,
1000
0000
0000
0010
0000
0000
0100
0000
0000
0000
0001
0000
1000
0000
0001
0000
,
0200
0000
1000
0000
0010
0000
0301
1000
,
0200
0000
0001
0000
0010
0000
1300
0001
,
0100
0000
0000
0100
0010
0000
0000
0010
1000
0000
0000
1000
0002
0000
0000
0000
,
1003
0100
1000
0200
0000
0300
1000
0001
,
1000
0002
0000
0003
1000
0010
1000
0020
,
0000
1030
0001
0020
0000
0000
0030
0000
0001
0000
0000
0000
1001
0000
0000
0000
,
0001
0010
0100
1000
0001
0100
0001
0100
,
0000
0010
2000
0000
3100
1000
0100
1000
,
0000
0001
0020
0000
0031
1000
0001
1000
,
0000
0001
0100
0010
1000
0100
1000
0100
,
0001
0000
0001
0100
0001
0100
1000
0000
,
1000
1000
0001
0100
0010
0000
0000
0110
,
0000
1010
0000
1001
0000
0012
0000
0000
,
0013
0100
0010
0100
0010
0000
1001
0000
,
1000
0010
0100
0001
1000
0100
0010
0001
,
0000
0001
1000
0010
0000
0010
1000
0001
,
0000
0001
1000
0100
0000
0100
1000
0001
,
0000
0001
0100
0010
1000
0010
1000
0010
,
0001
0000
0001
0010
0001
0010
1000
0000
,
0001
0001
1000
0100
0020
0000
0031
0100
,
0000
0101
0000
0110
0000
2010
0000
3001
,
0100
0010
1000
0001
2000
0000
0001
0000
,
0001
3001
0020
0100
,
0100
0000
0130
0000
1001
0000
1000
0100
,
0000
0100
0010
0001
0200
0000
0000
0000
,
0000
0000
0000
0000
0302
0000
1003
0010
,
0100
0000
0001
0010
0000
0001
0100
0000
,
0010
1000
1001
0000
0011
0000
0010
0100
,
1000
0000
1000
0010
0000
1000
0100
0010
,
0001
0001
1000
1000
0000
0000
0000
0000
;

//--------------- dance-single - ----------------
#NOTES:
     dance-single:
     :
     Hard:
     16:
     0.542027,0.938092,0.182486,0.083639,0.25472,499,475,24,11,0,0,0,0,0,0.542027,0.938092,0.182486,0.083639,0.25472,499,475,24,11,0,0,0,0,0:
0000
0000
0000
0000
,
1002
0000
0000
0000
0000
0000
0100
0100
0000
0000
0000
0000
0003
1000
0001
0100
,
0010
0000
1000
0001
0000
0010
0000
0001
0000
1000
0100
0000
1000
0000
0010
0000
,
2001
0000
0000
0100
0000
0000
0001
0001
0000
3010
0100
1000
0010
0001
0010
1000
,
0100
0000
0000
0000
0000
0000
0011
0000
0000
0000
0000
0000
0101
0000
0000
0000
0000
0000
1010
0000
0000
0000
0000
0000
1001
0000
0000
0000
0001
0000
1000
0001
,
0020
0000
0000
0000
0130
0000
0001
0000
0100
0000
1000
0000
0010
0000
0200
0000
0000
0000
1300
0000
0100
0000
0001
0000
1000
0000
0010
0000
0100
0000
0001
1000
,
0001
0000
0000
1010
0000
0000
0101
0000
0000
0011
0001
1000
0100
1000
0001
0100
,
0210
0000
0000
1000
0000
0000
0001
0301
0000
1000
0100
0011
0000
0000
0000
0000
,
2001
0000
0000
0000
0000
0000
0010
0000
0000
0000
0100
0000
0000
0000
3002
0000
0000
0000
0000
0000
0100
0000
0000
0000
0013
0000
0000
0000
0001
0010
0100
1000
,
0002
0000
0000
0000
0103
0100
0000
0001
,
0100
0001
0010
0100
0000
1001
0000
1000
,
0010
1000
0100
1100
0000
0101
0000
1000
,
0001
0010
0001
0010
0000
0011
0000
0001
,
1000
0100
0010
0010
1001
0000
0001
0011
,
0000
1000
1100
0000
0010
0110
0000
0001
,
1000
1000
0010
0010
2000
0000
3100
0010
,
0001
0000
1000
0000
0010
0000
0100
0000
0001
1000
0001
1000
0001
1000
0001
1000
,
0001
0000
0220
0330
0001
0100
0010
0100
,
0001
0000
1000
0100
0000
1000
0010
1000
,
0001
0010
0100
1000
0010
0100
0010
1000
,
0002
0000
0013
2000
0000
3010
0001
0100
,
0001
0010
0001
0000
1000
0000
0010
0000
1000
0000
0100
0000
0010
0000
0100
0000
,
0002
0000
0103
1000
0000
0001
0010
0001
,
1000
0010
0100
0100
0001
0010
0100
0010
,
2000
0000
0000
0000
3010
0000
0001
0000
1000
0010
1000
0010
0100
0000
0001
0000
,
1000
0100
0010
0010
0002
0103
0000
2000
,
3010
0000
0002
0013
0000
2000
3100
0000
,
0001
1000
0100
0100
1000
0010
0001
1000
,
0100
0001
1000
0100
0001
0100
1000
0001
,
0020
0130
1002
0103
,
0100
0001
1000
0100
0000
1000
0010
0000
,
1000
0001
0100
0010
2000
0000
3010
0002
,
0000
0013
1000
0100
0000
0010
0001
0000
,
0011
0110
1100
0001
,
0010
0001
1000
0010
0000
1000
0100
0002
,
0000
0103
0010
0001
1000
0010
0100
0001
,
0000
0101
0000
1100
0000
1000
0010
0000
,
0100
0000
0110
0000
2001
0000
3100
0010
,
0100
0010
0001
2000
0000
0010
0000
0100
,
0000
3001
0010
0000
1002
0000
0103
0010
,
0100
0010
1000
0100
0000
1000
0000
0010
,
0000
1000
0200
0000
0001
0000
0010
0000
,
1300
0000
0001
0001
1000
0100
0010
0001
,
0000
0100
0001
1000
1010
0000
0001
0010
,
0000
0110
0000
2001
0000
3100
1000
0000
,
0010
0100
0001
0001
1000
0001
0010
0001
,
1000
0000
0100
0002
0000
0103
0010
0001
,
0100
0100
0001
1000
0010
1000
0002
0000
,
0103
2000
0000
3100
0001
0010
0100
1000
,
0010
0010
1000
0001
0100
0001
1000
0000
,
0010
0002
0000
0013
1000
0100
0010
0010
,
0001
1000
0100
1000
0001
0000
0010
2000
,
0000
0000
3010
0000
0001
0000
1000
0000
0001
0010
0001
0000
1000
0000
0010
0000
,
0200
0000
0000
0000
0000
0000
0000
0000
0001
0000
0000
0301
0000
0000
1000
0000
,
0200
0000
0000
0000
0000
0000
0000
0000
0010
0000
0000
0310
0000
0000
0001
0000
,
0020
0000
0000
2030
0000
0000
3020
0000
0000
0032
0000
0000
0103
0000
0010
0000
,
2000
0000
0000
3020
0000
0000
0032
0000
0000
0023
0000
0000
0130
0000
0001
0000
,
2000
0000
0000
0000
0100
0000
0000
0000
3020
0000
0000
0230
0000
0000
0301
0000
,
0010
0000
0000
0010
0100
1000
0010
0001
0010
0100
1000
0100
0010
1000
0001
1000
,
0100
0000
0000
0100
0020
0000
0000
0000
0032
0000
0000
0000
0103
0000
0000
0000
,
1001
0010
0100
2002
0000
3003
1001
0010
,
0100
2002
0000
3003
1001
0100
0010
2001
,
0000
3001
1000
0010
0000
0000
0000
0000
1001
0000
0000
0000
1000
0000
0010
0000
,
0000
0010
0100
0001
0010
0001
0010
0100
,
0000
0100
1000
0010
0100
0001
0100
0001
,
0000
1000
0010
1000
0100
0010
0001
0100
,
0000
0001
0100
0010
1000
0100
0001
0100
,
0010
0100
1000
0100
0001
0100
0010
0100
,
1000
0001
0010
0001
0100
0010
0100
0001
,
0000
0101
0000
1100
0000
1000
0010
0100
,
0001
1000
0001
1000
0001
1000
0001
1000
0010
0000
1000
0000
0001
0000
0010
0000
,
0000
0010
0100
1000
0001
0010
0001
0100
,
0000
0010
1000
0100
0010
0000
0011
0000
,
1001
0001
1000
0010
0000
0010
1000
0001
,
0010
0100
1000
0001
1000
0010
0001
0010
,
0100
0010
1000
0010
0001
0010
0100
0010
,
1000
0001
0010
0100
1000
0001
0100
0010
,
0000
0110
0000
1010
0000
1001
0000
1000
,
0010
1000
0001
1000
0100
0010
0001
0000
,
0110
0000
1000
0001
0000
0001
1000
0100
,
0010
0010
0001
1000
0010
0100
0001
0010
,
0100
1000
0100
1000
0001
0000
0100
0000
0020
0000
0000
0000
0000
0000
0000
0000
,
0000
0000
0030
0000
1000
0001
0100
0010
,
0100
0000
0001
0020
0000
0130
0001
0100
,
1000
0010
0010
1000
0001
0100
0010
1000
,
0001
0000
0010
0000
0100
0000
1000
0000
0010
0100
0010
0000
1000
0000
0001
0000
,
0010
0100
0110
1001
0000
0000
0000
0000
;
