#VERSION:0.83;
#TITLE:猫侍の逆襲;
#SUBTITLE:;
#ARTIST:猫叉Master;
#TITLETRANSLIT:Nekozamurai no gyakushuu;
#SUBTITLETRANSLIT:;
#ARTISTTRANSLIT:Nekomata Master;
#GENRE:;
#CREDIT:;
#MUSIC:Nekozamurai no gyakushuu.ogg;
#BANNER:Nekozamurai no gyakushuu.png;
#BACKGROUND:Nekozamurai no gyakushuu-bg.png;
#CDTITLE:./CDTitles/GITADORA.png;
#SAMPLESTART:67.336;
#SAMPLELENGTH:15.000;
#SELECTABLE:YES;
#OFFSET:0.542;
#BPMS:0.000=152.000;
#STOPS:;
#BGCHANGES:;
#FGCHANGES:;

//--------------- dance-single - forcednature ----------------
#NOTEDATA:;
#STEPSTYPE:dance-single;
#DESCRIPTION:forcednature;
#DIFFICULTY:Beginner;
#METER:3;
#RADARVALUES:0,0,0,0,0;
#CREDIT:forcednature;
#NOTES:
0000
0000
0000
0000
,
0000
0000
0000
0000
,
0000
0000
0000
0000
,
0000
0000
0000
0000
,
0000
0000
0000
0000
,
0000
0000
0000
0000
,
1001
0000
0000
0000
,
0000
0000
0000
0000
,
1000
0000
0000
0000
,
0001
0000
0000
0000
,
0100
0000
0100
0000
,
0010
0000
0000
0000
,
1000
0000
0000
0000
,
0001
0000
0000
0000
,
1000
0000
0000
0000
,
0100
0000
0000
0000
,
0010
0000
0000
0000
,
0001
0000
0000
0000
,
1000
0000
0000
0000
,
1001
0000
0000
0000
,
0000
0000
0000
0000
,
0001
0000
0000
0000
,
0100
0000
0000
0000
,
0001
0000
0000
0000
,
0000
0000
0000
0000
,
1000
0000
0000
0000
,
0100
0000
0000
0000
,
1000
0000
0000
1000
,
0000
0000
1000
0000
,
0001
0000
0000
0001
,
0000
0000
0001
0000
,
0100
0000
0000
0100
,
0000
0000
0100
0000
,
0010
0000
0000
0010
,
0000
0000
0010
0000
,
1000
0000
0000
0001
,
0000
0000
1000
0000
,
0100
0000
0000
1000
,
0000
0000
0100
0000
,
0010
0000
0000
0100
,
0000
0000
0010
0000
,
0001
0000
0000
0001
,
0000
0000
0100
0000
,
0010
0000
0000
0000
,
1000
0000
0000
0000
,
0001
0000
0000
0000
,
1000
0000
0000
0000
,
0100
0000
0000
0000
,
0010
0000
0010
0000
,
0010
0000
0000
0000
,
0001
0000
0000
0000
,
0100
0000
0000
0000
,
1001
0000
0000
0000
,
1000
0000
0000
0000
,
0001
0000
0000
0000
,
0100
0000
0000
0000
,
0001
0000
0000
0000
,
0010
0000
0010
0000
,
0010
0000
0000
0000
,
0100
0000
0100
0000
,
0100
0000
0000
0000
,
1001
0000
0000
0000
,
1000
0000
0000
0000
,
0010
0000
0000
0000
,
0100
0000
0001
0000
,
0100
0000
0000
0000
,
0010
0000
0000
0000
,
1000
0000
0000
0000
,
0001
0000
0000
0000
,
0010
0000
0000
0010
,
0000
0000
0010
0000
,
0100
0000
0000
0100
,
0000
1001
0000
0000
;

//--------------- dance-single - forcednature ----------------
#NOTEDATA:;
#STEPSTYPE:dance-single;
#DESCRIPTION:forcednature;
#DIFFICULTY:Easy;
#METER:8;
#RADARVALUES:0,0,0,0,0;
#CREDIT:forcednature;
#NOTES:
0000
0000
0000
0000
,
0000
0000
0000
0000
,
0000
0000
0000
0000
,
0000
0000
0000
0000
,
0000
0000
0000
0000
,
0000
0000
1000
0001
,
2002
0000
0000
0000
,
0000
0000
0000
3003
,
1000
0001
0100
0001
,
0020
0000
0000
0130
,
1000
0000
1000
0000
0001
1000
0001
0000
,
0200
0000
0000
0300
0020
0000
0000
0030
,
2000
0000
0000
3000
0002
0000
0000
0003
,
0010
0100
1000
0001
,
1000
0100
0010
0001
,
2000
0000
0000
3000
0020
0000
0000
0030
,
0200
0000
0000
0300
0002
0000
0000
0003
,
0100
0010
1000
0001
,
0010
0100
1000
0001
,
0100
0000
0000
0000
0001
1000
0001
0000
,
0100
0000
0000
0000
0001
1000
0001
0000
,
1000
0100
0010
0100
,
1000
0001
0010
0000
,
0100
0000
0000
0000
1000
0001
1000
0000
,
0100
0000
0000
0000
1000
0001
1000
0000
,
0010
0100
0001
0100
,
0010
1000
0001
0001
,
0010
0000
0110
0100
,
0000
0110
1000
0001
,
0100
0000
1001
0010
,
0000
1001
0100
0010
,
1000
0000
0001
1000
0001
0000
1000
0000
,
0001
1000
0001
0000
0010
0000
0100
0000
,
1000
0000
0001
1000
0001
0000
1000
0000
,
0001
1000
0001
0000
0100
0000
0010
0000
,
1001
1000
0100
1000
,
0010
1000
0100
1000
,
0001
0100
0001
0010
,
0001
0100
0001
0010
,
0100
0000
0000
0100
0000
0000
1000
0000
0100
0000
0000
0000
0010
0000
0000
0010
,
0000
0001
0010
0000
0001
0000
1000
0000
,
0010
0000
0000
0010
0000
0000
0010
0000
0010
0000
0000
0000
0100
0000
0000
0100
,
0000
0100
0100
0000
0110
0000
1001
0000
,
1000
0000
0010
0000
0100
0001
0100
0000
,
0010
1000
0010
0000
1000
0000
0001
0000
,
0010
0001
0010
0000
0100
1000
0100
0000
,
0010
0001
1000
0010
,
0110
0000
0100
0000
0001
0100
0001
0000
,
1000
0100
1000
0000
0010
0000
0100
0000
,
0001
0000
1000
0000
0100
0010
0100
0000
,
2000
0000
0010
3001
,
0002
0000
0000
0000
0013
0100
0010
0000
,
0100
0000
1000
0000
0001
0100
0001
0000
,
1000
0100
1000
0000
0010
0000
0100
0000
,
0001
0000
0010
0000
0100
1000
0100
0000
,
1000
0010
1000
0000
0001
0000
0010
0000
,
0110
0000
0100
0000
1000
0001
1000
0000
,
0010
0000
0100
0100
0100
0000
0001
0000
,
1001
0000
1000
0000
0100
1000
0100
0000
,
0020
0000
0001
0130
,
2000
0000
0000
0000
3001
1000
0001
0000
,
0020
0000
0000
0030
0200
0000
0000
0300
,
2000
0000
0000
3000
0002
0000
0000
0003
,
0100
0010
0001
0010
,
1000
0100
0001
0100
,
2000
0000
0000
3000
0020
0000
0000
0030
,
0200
0000
0000
0300
0002
0000
0000
0003
,
0010
1000
0010
0001
,
1000
0000
0010
0000
1000
0001
1000
0000
,
0100
0000
0000
0100
0000
0000
0010
0000
0100
0000
0000
0000
0010
0000
0000
0010
,
0000
0100
0010
0000
0110
0000
1001
0000
,
1000
0000
0000
0001
0000
0000
1000
0000
0001
0000
0000
0000
0100
0000
0000
0100
,
0000
0010
0020
0000
0000
0000
0030
0000
;

//--------------- dance-single - forcednature ----------------
#NOTEDATA:;
#STEPSTYPE:dance-single;
#DESCRIPTION:forcednature;
#DIFFICULTY:Medium;
#METER:13;
#RADARVALUES:0,0,0,0,0;
#CREDIT:forcednature;
#NOTES:
0000
0000
0000
0000
,
0000
0000
0000
0000
,
0000
0000
0000
0000
,
0000
0000
0000
0000
,
0000
0000
0000
0000
,
0000
0000
0000
0000
0010
0010
0100
0000
,
2002
0000
0000
0000
,
0000
0000
0000
3003
,
0002
0000
0203
0000
0310
1000
0100
1000
,
0002
0000
0100
0000
1003
0001
0010
0000
,
1001
0000
1001
0000
0100
0010
0100
0000
,
2001
0000
3010
0100
0002
0000
0013
0100
,
2000
0000
3001
0100
0010
1000
0001
0010
,
0100
1100
1001
1010
,
0110
0000
0101
0000
0001
0010
0100
1000
,
2001
0000
3010
0100
0002
0000
0013
0100
,
0002
0000
0103
1000
0001
0010
0001
1000
,
0010
0110
0101
0011
,
0110
0000
0000
0000
1100
0000
0000
0000
1000
0000
0010
0000
0100
0010
0100
0000
,
0001
0000
1000
0010
0100
0001
0010
0100
,
1000
0000
0010
0100
0010
1000
0100
0010
,
0001
1000
0020
0000
0100
0000
1000
0000
,
0130
0010
0000
0010
1000
0001
0010
0000
,
0110
0000
0100
1000
0001
0100
0001
1000
,
0100
0000
0010
0001
1000
0010
0100
0001
,
0010
0100
2000
0000
0010
0000
3001
1000
,
0100
0000
0010
0000
0001
0000
0000
0000
0100
0001
0100
0000
0010
0100
0010
0000
,
1000
0000
0000
1000
0000
0000
0100
0000
1100
0000
0000
0000
0001
0000
0000
0001
,
0000
0000
0100
0000
0101
0000
0000
0000
1000
0001
0000
1000
0001
0000
0010
0000
,
0100
0000
0000
1000
0000
0000
0010
0000
0110
0000
0000
0000
0100
0000
0000
0001
,
0000
0000
0000
0000
0000
0000
0010
0000
0000
0000
0000
0000
0100
0000
0000
1000
0000
0000
0000
0000
0000
1000
0000
0000
0200
0000
0000
0000
0000
0000
0000
0000
0300
0000
0000
0000
0020
0000
0000
0000
0000
0000
0000
0000
0030
0000
0000
0000
,
0002
0000
0000
0100
0000
0000
1000
0000
0013
0000
0000
0000
2000
0000
0000
0100
,
0000
0000
0000
0000
0000
0000
0001
0000
0000
3000
0000
0000
0010
0000
0000
0000
0000
0000
0000
0000
0000
0000
0000
0000
1000
0000
0000
0000
0001
0000
0000
0000
1000
0000
0000
0000
0001
0000
0000
0000
0000
0000
0000
0000
0000
0000
0000
0000
,
0010
0000
0000
0000
0010
0000
0100
0000
1000
0000
0000
0000
1000
0000
0000
0000
0000
0000
0010
0000
0000
0100
0000
0000
,
0001
0100
0001
0000
1000
0000
0001
0000
0010
0000
0100
0000
0010
0100
0000
0000
,
1002
0000
0000
0100
0000
0000
1000
0000
0013
0000
0000
0000
2001
0000
0000
0100
,
0000
0001
3010
0000
1000
0100
0010
0001
,
2000
0000
0000
0010
0000
0000
0001
0000
3100
0000
0000
0000
0002
0000
0000
0010
,
0000
0000
1000
0000
0103
0000
0000
0000
0001
0010
0000
0001
1000
0000
0000
0000
,
1100
0000
0000
1100
0000
0000
0010
0000
1001
0000
0000
0000
0101
0000
0000
0101
,
0000
0000
0010
0000
1001
0000
0000
0000
1000
0000
0001
1000
0001
0000
0020
0000
,
0100
0000
0000
0100
0000
0000
0100
0000
0130
0000
0000
0000
1001
0000
0000
1001
,
0000
1001
1001
0000
1100
0000
0101
0000
,
2000
0100
3020
0100
1030
0001
0010
0001
,
1000
0000
0010
0000
0100
0001
0100
0000
0010
0000
1000
0001
2000
0000
0000
0000
,
3100
0000
0010
0000
0001
0000
0100
0000
0010
0000
1000
0010
1000
0000
0001
0000
,
0020
0000
0000
0000
0130
0000
1000
0100
1000
0000
0001
0000
0010
0000
0001
0000
,
0200
0010
0302
0010
1003
0010
0100
1000
,
0100
0000
0001
0000
0010
0000
0100
0000
1000
0000
0001
0010
0001
0000
0100
0001
,
0200
0010
0320
1000
1030
0001
0010
0100
,
2000
0000
0000
0000
0001
0000
0001
0000
0010
0000
3000
0000
1000
0100
1000
0000
,
0002
0000
0000
0000
1000
0000
1000
0000
0013
0000
0001
0000
0100
0001
0100
0000
,
0002
0010
0203
0010
0301
0100
1000
0100
,
0010
0000
1000
0000
0100
1000
0100
0000
0010
0000
0001
1000
0020
0000
0000
0000
,
0130
0000
0001
0000
0010
0000
0100
0000
1000
0000
0001
0100
0001
0000
1000
0000
,
0200
0000
0000
0000
0310
0000
0001
0010
0001
0000
0010
0100
0010
0000
0100
0000
,
2000
0010
3200
0010
1300
0001
0100
0010
,
1000
0000
0002
0000
0010
0000
1000
0000
0103
0000
0001
0000
0010
0001
0010
0000
,
0100
1000
0010
0001
0010
1000
0001
0010
,
0200
0000
0000
0000
0001
0000
0001
0000
0010
0000
0000
0000
1300
0000
0010
1000
,
0020
0000
0000
0000
1000
0000
1000
0000
0130
0000
0010
0100
0010
0000
1000
0000
,
0001
0000
0000
0001
0010
0000
0001
0000
1000
0000
0000
1000
0010
0000
1000
0000
,
0100
0000
0000
0100
0010
0000
0100
0000
1000
0000
0001
0000
0100
0000
0010
0000
,
1000
1100
0011
0101
,
1010
0000
0000
0000
1001
0000
0000
0000
1000
0000
0001
0000
0100
0010
0100
0000
,
0010
0000
0000
0010
1000
0000
0001
0000
0010
0000
0000
0010
0001
0000
1000
0000
,
0100
0000
0000
0100
0010
0000
0001
0000
1000
0000
0010
0000
0001
0000
0010
0000
,
0100
0101
0011
1100
,
1010
0000
0000
0000
1001
0000
0000
0000
1000
0000
0100
1000
0100
0000
0010
0000
,
0001
1000
0000
0001
1000
0000
0010
0000
0110
0000
0000
0000
1000
0001
0000
1000
,
0001
0000
0010
0000
0110
0000
0000
0000
0001
0100
0001
0000
1000
0100
1000
0000
,
0010
0100
0000
0010
0100
0000
0001
0000
1001
0000
0000
0000
0110
0000
0000
0110
,
0000
0010
2002
0000
0000
0000
3003
0000
;

//--------------- dance-single - forcednature ----------------
#NOTEDATA:;
#STEPSTYPE:dance-single;
#DESCRIPTION:forcednature;
#DIFFICULTY:Hard;
#METER:16;
#RADARVALUES:0,0,0,0,0;
#CREDIT:forcednature;
#NOTES:
0000
0000
0000
0000
,
0000
0000
0000
0000
,
0000
0000
0000
0000
,
0000
0000
0000
0000
,
0000
0000
0000
0000
,
0000
0000
0000
0000
0001
1000
1001
0000
,
0220
0000
0000
0000
,
0000
0000
0000
0330
,
1000
0000
0001
0000
0010
0001
0100
0010
,
1000
0001
0010
0001
0100
0001
0010
0001
,
1001
0000
0000
0000
1001
0000
0000
0000
0100
0000
0010
0100
0010
0000
0000
0000
,
1001
0000
0000
1000
0100
0000
0010
0000
0001
0000
0000
0001
0100
0000
0010
0000
,
1000
0000
0000
1000
0001
0000
0010
0000
0100
0000
1000
0000
0001
0000
1000
0010
,
1000
0000
0000
1000
0100
0000
0000
0100
0010
0000
0000
0010
0001
0000
0000
0001
,
0100
0000
0000
0100
0010
0000
0000
0010
1000
0000
1000
0000
0001
0000
1001
0000
,
1000
0000
0000
0100
0010
0000
0100
1000
0001
0000
0000
0100
0010
0000
0100
0001
,
1000
0000
0000
0100
0010
0000
0001
0000
0100
0000
0100
0000
0100
0000
0010
1000
,
0010
0000
0000
0010
0100
0000
0001
0100
0001
0000
0000
0001
1000
0000
0100
1000
,
0100
0000
0000
0100
0010
0000
0001
0000
1000
0001
1000
0100
1000
0001
0010
0000
,
0002
0000
0000
0000
0000
0000
0103
0000
0000
0001
0000
0000
0010
0000
0000
0100
0000
0000
1000
0100
1000
0001
0000
0000
,
0200
0000
0000
0000
0310
0000
1000
0000
0001
0000
0010
0001
0010
0000
0100
1000
,
0001
0000
0100
0010
2000
0000
0000
0000
0100
0000
0100
0000
0001
0000
0000
0000
,
3010
0000
1000
0000
0100
0000
0001
0000
0100
0000
1000
0001
0000
0001
0100
0000
,
0010
0000
0000
0000
0000
0000
0000
0000
0000
0010
0000
0000
1000
0000
0000
0000
0000
0000
0001
0000
0000
0000
0000
0000
0010
0000
0000
0000
0000
0000
0100
0000
0000
0000
0000
0000
0010
0000
0001
0000
1000
0000
0001
0000
0000
0000
0000
0000
,
0100
0000
0000
0100
0010
0000
1000
0000
0001
0000
0100
0000
1000
0000
0100
0000
,
0001
0000
0000
0000
0000
0000
0100
0000
0010
0000
1000
0000
0020
0000
0000
0000
0000
0000
0100
0000
0000
0000
0000
0000
0000
0000
0000
0000
0000
0000
1000
0000
0000
0000
0000
0000
1030
0000
0000
0000
0000
0000
0010
0000
0000
0100
0000
0000
,
0001
0000
0010
0000
0100
0000
1000
0000
0010
1000
0001
1000
0010
1000
0001
1000
,
0100
0000
0100
0010
0000
0010
0001
0000
0101
0000
0000
0000
0100
0000
0100
0010
,
0000
0010
1000
0000
1100
0000
0000
0000
0100
0010
0001
1000
0100
0000
1000
0000
,
0010
0000
0010
1000
0001
1000
0100
0000
0010
0100
0010
0001
1000
0000
0000
0101
,
0000
0000
1010
0000
0010
0100
0000
0001
2000
0000
0100
0000
3002
0000
0010
0000
,
1003
0001
0000
0001
0100
0010
0100
0000
0010
0000
0100
0001
1000
0001
0000
1000
,
0100
0000
0000
0010
0000
0000
0001
0000
0000
0000
0000
0000
0010
0000
0000
0000
0100
0000
0000
0000
1000
0000
0000
0000
0010
0000
0000
0000
0100
0000
0000
0000
0001
0000
0000
0000
0010
0000
0000
0000
0100
0000
0000
0000
1000
0000
0000
0000
,
0001
0000
0000
0000
0000
0000
0000
0000
0001
0000
0000
0000
0100
0000
0000
0000
0010
0000
0000
0000
0001
0000
0000
0000
0010
0000
0000
0000
0100
0000
0000
0000
0001
0000
0000
0000
1000
0000
0000
0000
0000
0000
0010
0000
0000
0100
0000
0000
,
0010
0100
0010
0100
0001
0000
0010
0100
1000
0001
0100
0000
0010
1000
0000
0100
,
1000
0000
0001
0100
0001
0010
0100
0000
0011
0000
0000
0000
0001
0000
1000
0100
,
1000
0010
0100
0000
1010
0000
0000
1000
0100
0010
0100
0010
0001
0000
1000
0000
,
0010
0000
0100
0001
0010
0100
1000
0000
0110
0000
0000
0000
0010
0000
0100
1000
,
0010
0100
0001
0000
0110
0000
0100
0010
1000
0100
0000
1000
0001
0000
0010
0000
,
0011
0000
0000
0101
0000
0000
0110
0000
1001
0000
0000
0000
1010
0000
0000
1100
,
0000
0000
0110
0000
1001
0000
0000
1000
0001
0100
0010
1000
0001
0000
0010
0000
,
0110
0000
0000
0110
0000
0000
0110
0000
0110
0000
0000
0000
1001
0000
0000
1001
,
0000
1001
1001
0000
0011
0000
1010
0000
,
1000
0000
0100
1000
0100
0000
0010
0100
0010
0000
0001
0000
0100
0000
1000
0000
,
0100
0000
0000
0000
0000
0000
0001
0000
0000
0000
0000
0000
1000
0000
0000
0010
0000
0000
0100
0000
0000
0000
0000
0000
0010
0000
0000
0000
0000
0000
1000
0000
0001
0000
0100
0000
0002
0000
0000
0000
0000
0000
0000
0000
0000
0000
0000
0000
,
0013
0000
0000
0000
0000
0000
0100
0000
0000
1000
0000
0000
0001
0000
0000
0000
0000
0000
0100
0000
0000
0000
0000
0000
0010
0000
0000
0000
0000
0000
1000
0000
0001
0000
1000
0000
0100
0000
0000
0000
0000
0000
0010
0000
0000
0000
0000
0000
,
0002
0000
0000
0000
0103
0000
0010
1000
0001
0000
0010
0100
1000
0100
0010
0000
,
0011
0000
0001
0100
0010
0000
0100
0010
1000
0000
0001
0000
0010
0000
1000
0000
,
0001
0000
0000
0000
0000
0000
0100
0000
0000
0000
0000
0000
1000
0000
0000
0000
0000
0000
0010
0000
0000
0000
0000
0000
0100
0000
0000
0000
0000
0000
0001
0000
1000
0000
0010
0000
1000
0000
0000
0000
0000
0000
0001
0000
0000
0010
0000
0000
,
0100
0000
1000
0001
0100
0000
0010
1000
0001
0000
0010
0000
0100
0000
1000
0001
,
0200
0000
0000
0000
0010
0000
0001
0000
0010
0000
0000
0000
0310
0100
0010
1000
,
0002
0000
0000
0000
0010
0000
1000
0000
0013
0001
0010
0100
1000
0001
0100
0000
,
0010
0000
1000
0001
0010
0000
0001
1000
0010
0000
0100
0000
1000
0000
0001
0000
,
0010
0000
0000
0000
0000
0000
1000
0000
0000
0000
0000
0000
0010
0000
0000
0100
0000
0000
0001
0000
0000
0000
0000
0000
1000
0000
0000
0000
0000
0000
0001
0000
0010
0000
0100
0000
0020
0000
0000
0000
0000
0000
0000
0000
0000
0000
0000
0000
,
0130
0000
0000
0000
0000
0000
1000
0000
0000
0001
0000
0000
0100
0000
0000
0000
0000
0000
0010
0000
0000
0000
0000
0000
1000
0000
0000
0000
0000
0000
0001
0000
1000
0000
0001
0000
0010
0000
0000
0000
0000
0000
0100
0000
0000
0000
0000
0000
,
2000
0000
0000
0000
3100
0000
0010
0001
1000
0000
0010
0100
0001
0100
0010
0000
,
1010
0000
1000
0100
0010
0000
0100
0010
0001
0000
0100
0000
1000
0000
0100
0000
,
0001
0000
0000
0000
0000
0000
1000
0000
0000
0000
0000
0000
1100
0000
0000
0000
0000
0000
0110
0000
0000
0000
0000
0000
0011
0000
0000
0000
0000
0000
0001
0000
0000
0000
0000
0000
0100
0000
0001
0000
0100
0000
0001
0000
0000
0100
0000
0000
,
0010
0000
1000
0001
0010
0000
0100
1000
0001
0000
0100
0001
1000
0000
0010
1000
,
0200
0000
0000
0000
0010
0000
1000
0000
0010
0000
0000
0000
0310
0000
0100
1000
,
0002
0000
0000
0000
1000
0000
0100
0000
1003
0001
1000
0100
0010
0001
1000
0001
,
0010
0000
0000
0100
0010
0000
0001
1000
0010
0000
0000
0100
0010
0000
1000
0001
,
0100
0000
0000
0010
0100
0000
0001
1000
0100
0000
0010
0000
0001
1000
0010
1000
,
0001
0000
0000
0001
0100
0000
0000
0100
1000
0000
0000
1000
0100
0000
0000
0100
,
0001
0000
0000
0001
0010
0000
0000
0010
0001
1000
0100
1000
0001
1000
0010
0000
,
1000
0000
0000
0010
0100
0000
0010
1000
0001
0000
0000
0010
0100
0000
0010
0001
,
1000
0000
0000
0100
0010
0000
0100
1000
0001
0000
0100
0000
0010
1000
0001
1000
,
0010
0000
0100
0010
0100
0000
0010
0100
0001
0000
0010
0001
0010
0000
0001
0010
,
0100
0000
1000
0100
1000
0000
0100
0010
0001
1000
0010
1000
0001
1000
0010
0000
,
1000
0001
0010
0100
0010
0001
1000
0000
1001
0000
0000
0000
0001
1000
0010
0100
,
0010
1000
0001
0000
1001
0000
1000
0100
1000
0001
0010
0000
0001
1000
0010
0000
,
0100
0001
0010
0100
1000
0010
0100
0001
0020
0000
0000
0030
0100
0010
0001
0100
,
0010
1000
0100
0010
0002
0000
0000
0000
0000
0000
0000
0000
0003
0000
0000
0000
;

//--------------- dance-double - forcednature ----------------
#NOTEDATA:;
#STEPSTYPE:dance-double;
#DESCRIPTION:forcednature;
#DIFFICULTY:Easy;
#METER:8;
#RADARVALUES:0,0,0,0,0;
#CREDIT:forcednature;
#NOTES:
00000000
00000000
00000000
00000000
,
00000000
00000000
00000000
00000000
,
00000000
00000000
00000000
00000000
,
00000000
00000000
00000000
00000000
,
00000000
00000000
00000000
00000000
,
00000000
00000000
00001000
00010000
,
00022000
00000000
00000000
00000000
,
00000000
00000000
00000000
00033000
,
00010000
00001000
01000000
00010000
,
00200000
00000000
00000000
01300000
,
10000000
00000000
10000000
00000000
00010000
10000000
00010000
00000000
,
02000000
00000000
00000000
03000000
00002000
00000000
00000000
00003000
,
00020000
00000000
00000000
00030000
00000200
00000000
00000000
00000300
,
00001000
00000010
00000100
00000001
,
00000010
00000100
00000010
00000001
,
00002000
00000000
00000000
00003000
00000020
00000000
00000000
00000030
,
00020000
00000000
00000000
00030000
00002000
00000000
00000000
00003000
,
00100000
01000000
00100000
00010000
,
10000000
00100000
01000000
00100000
,
10000000
00000000
00010000
00100000
,
00001000
00000000
00010000
00000010
,
00001000
00000100
00000010
00000100
,
00001000
00000010
00001000
00000000
,
00000001
00000000
00000010
00000100
,
00001000
00000000
00000010
00000100
,
00000001
00000010
00000100
00010000
,
00001000
01000000
00010000
00010000
,
10000000
00000000
10000000
00010000
,
00000000
00010000
01000000
00001000
,
00010000
00000000
00010000
00001000
,
00000000
00001000
00010000
00000100
,
00001000
00001000
00001000
00000001
,
00000001
00000001
00000100
00000010
,
00001000
00001000
00000100
00010000
,
00010000
00001000
01000000
00010000
,
10000000
00000000
10000000
01000000
,
00000000
01000000
00010000
00001000
,
00010000
00000000
00010000
00001000
,
00000000
00001000
00000100
00000001
,
00001000
00000000
00000000
00001000
00000000
00000000
00000001
00000000
00001000
00000000
00000000
00000000
00001000
00000000
00000000
00001000
,
00000000
00000001
00001000
00000000
00000010
00000000
00010000
00000000
,
00001000
00000000
00000000
00001000
00000000
00000000
00001000
00000000
00001000
00000000
00000000
00000000
00010000
00000000
00000000
00010000
,
00000000
00010000
00010000
00000000
00001000
00000000
00011000
00000000
,
00010000
00001000
01000000
00010000
,
10000000
00100000
10000000
00000000
00010000
00000000
00100000
00000000
,
00000000
00000000
01000000
00000000
10000000
01000000
10000000
00000000
,
01000000
00000000
00010000
00001000
,
00010000
00000010
00001000
00000010
,
00000100
00000010
00000100
00000000
00000001
00000000
00001000
00000000
,
00000001
00000000
00000010
00000000
00000100
00001000
00000100
00000000
,
00020000
00000000
00000000
00031000
,
02000000
00000000
00000000
03000000
00010000
10000000
00010000
00000000
,
00100000
01000000
10000000
00010000
,
01000000
00010000
01000000
00000000
00001000
00000000
00010000
00000000
,
00000000
00000000
00000100
00000000
00001000
00000100
00001000
00000000
,
00000010
00000000
00000100
00000001
,
00000010
00000100
00001000
00000010
,
00010000
00000000
00001000
00001000
00001000
00000000
01000000
00000000
,
10010000
00000000
10000000
00010000
,
02000000
00000000
00000000
03001000
,
00020000
00000000
00000000
00000000
00031000
00010000
00001000
00000000
,
00020000
00000000
00000000
00030000
00000200
00000000
00000000
00000300
,
00002000
00000000
00000000
00003000
00000002
00000000
00000000
00000003
,
00000100
00000010
00001000
00000010
,
00010000
00001000
00100000
00010000
,
00200000
00000000
00000000
00300000
02000000
00000000
00000000
03000000
,
20000000
00000000
00000000
30000000
00020000
00000000
00000000
00030000
,
01000000
00010000
01000000
00001000
,
00010000
00000000
00000100
00000000
00010000
00001000
00010000
00000000
,
00000010
00000000
00000000
00000010
00000000
00000000
00001000
00000000
00000010
00000000
00000000
00000000
00000010
00000000
00000000
00000010
,
00000000
00000000
00001000
00000000
00000010
00000000
00000000
00000000
00010000
00000000
00000000
00010000
00011000
00000000
00000000
00000000
,
00100000
00000000
00000000
00100000
00000000
00000000
00010000
00000000
00100000
00000000
00000000
00000000
01000000
00000000
00000000
01000000
,
00000000
01000000
20000000
00000000
00000000
00000000
30000000
00000000
;

//--------------- dance-double - forcednature ----------------
#NOTEDATA:;
#STEPSTYPE:dance-double;
#DESCRIPTION:forcednature;
#DIFFICULTY:Medium;
#METER:13;
#RADARVALUES:0,0,0,0,0;
#CREDIT:forcednature;
#NOTES:
00000000
00000000
00000000
00000000
,
00000000
00000000
00000000
00000000
,
00000000
00000000
00000000
00000000
,
00000000
00000000
00000000
00000000
,
00000000
00000000
00000000
00000000
,
00000000
00000000
00000000
00000000
00001000
00010000
00100000
00000000
,
02200000
00000000
00000000
00000000
,
00000000
00000000
00000000
03300000
,
02000000
00000000
03020000
00000000
00130000
01000000
00010000
01000000
,
00200000
00000000
00010000
00000000
00301000
00100000
01000000
10000000
,
00010000
00000000
10010000
00000000
10000000
00100000
00010000
00000000
,
00012000
00000000
00013000
00000100
00002000
00000000
00003010
00010000
,
00002000
00000000
00003010
00000100
00001000
00000010
00000100
00000001
,
00001000
00001100
00010100
00011000
,
01001000
00000000
01010000
00000000
00010000
00100000
01000000
10000000
,
00200000
00000000
01300000
00001000
00020000
00000000
00030100
00001000
,
00000020
00000000
00000130
00000001
00000010
00000100
00010000
00000010
,
00001000
00001100
00001010
00010010
,
00011000
00000000
00101000
00000000
00100000
01000000
00010000
00001000
,
00000010
00000000
00000100
00001000
00000010
00000100
00000001
00000010
,
00000100
00000000
00010000
00001000
01000000
00010000
00100000
01000000
,
10000000
00010000
02000000
00000000
00100000
00000000
00010000
00000000
,
03001000
01000000
00000000
01000000
00010000
00100000
01000000
00000000
,
01100000
00000000
00100000
00001000
00010000
00000010
00001000
00000100
,
00010000
00000000
00001000
00000010
00000100
00001000
00000001
00000100
,
00000010
00010000
00002000
00000000
00100000
00000000
00013000
00001000
,
01000000
00000000
00010000
00000000
10000000
00000000
00000000
00000000
01000000
10000000
01000000
00000000
00100000
01000000
00100000
00000000
,
01000000
00000000
00000000
01000000
00000000
00000000
00010000
00000000
00001000
00000000
00000000
00000000
00000100
00000000
00000000
00000100
,
00000000
00000000
00001000
00000000
00010000
00000000
00000000
00000000
00001000
01000000
00000000
00001000
01000000
00000000
00001000
00000000
,
00010000
00000000
00000000
00010000
00000000
00000000
00100000
00000000
01000000
00000000
00000000
00000000
00001000
00000000
00000000
00001000
,
00000000
00000000
00000000
00000000
00000000
00000000
00000010
00000000
00000000
00000000
00000000
00000000
00000100
00000000
00000000
00001000
00000000
00000000
00000000
00000000
00000000
00001000
00000000
00000000
00000020
00000000
00000000
00000000
00000000
00000000
00000000
00000000
00000030
00000000
00000000
00000000
00000200
00000000
00000000
00000000
00000000
00000000
00000000
00000000
00000300
00000000
00000000
00000000
,
00000001
00000000
00000000
00000100
00000000
00000000
00001000
00000000
00010000
00000000
00000000
00000000
01000000
00000000
00000000
00010000
,
00000000
00000000
00000000
00001000
00000000
00000000
00010000
00000000
00000000
00000000
00000000
00000000
00001000
00000000
00100000
00000000
00001000
00000000
00100000
00000000
00000000
00000000
00000000
00000000
,
01000000
00000000
00000000
00000000
01000000
00000000
10000000
00000000
00010000
00000000
00000000
00000000
00010000
00000000
00000000
00000000
00000000
00000000
01000000
00000000
00000000
00010000
00000000
00000000
,
01000000
00100000
01000000
00000000
00100000
00000000
10000000
00000000
01000000
00000000
00010000
00000000
00001000
00010000
00000000
00000000
,
00000010
00000000
00000000
00000100
00000000
00000000
00001000
00000000
00010000
00000000
00000000
00000000
01000000
00000000
00000000
00100000
,
00000000
00001000
00010000
00000000
00100000
10000000
00010000
10000000
,
01000000
00000000
00000000
00010000
00000000
00000000
00001000
00000000
00000010
00000000
00000000
00000000
00000100
00000000
00000000
00010000
,
00000000
00000000
00001000
00000000
00000100
00000000
00000000
00000000
00000010
00001000
00000000
00000001
00001000
00000000
00000000
00000000
,
00001100
00000000
00000000
00001100
00000000
00000000
00100000
00000000
00010000
00000000
00000000
00000000
01010000
00000000
00000000
01010000
,
00000000
00000000
00000010
00000000
00001000
00000000
00000000
00000000
00000001
00000000
00000010
00000001
00000010
00000000
00000100
00000000
,
00000010
00000000
00000000
00000001
00000000
00000000
00000100
00000000
00001000
00000000
00000000
00000000
00010000
00000000
00000000
00011000
,
00000000
00001000
00011000
00000000
01001000
00000000
00010100
00000000
,
00000200
00000010
00002300
00000010
00003100
00010000
00001000
01000000
,
00010000
00000000
10000000
00000000
01000000
10000000
01000000
00000000
00100000
00000000
01000000
00100000
00020000
00000000
00000000
00000000
,
01030000
00000000
00001000
00000000
00010000
00000000
00000010
00000000
00001000
00000000
00000100
00001000
00000100
00000000
00000010
00000000
,
00000002
00000000
00000000
00000000
00000103
00000000
00000001
00000100
00000001
00000000
00000100
00000000
00001000
00000000
00010000
00000000
,
00002000
00100000
00023000
00100000
00031000
01000000
00010000
00100000
,
01000000
00000000
00010000
00000000
00001000
00000000
00000010
00000000
00000001
00000000
00001000
00000100
00001000
00000000
00000100
00001000
,
00000002
00000000
00000203
00000000
00001300
00010000
00100000
10000000
,
02000000
00000000
00010000
00000000
00100000
00000000
13000000
01000000
,
00020000
00000000
00000000
00000000
00001000
00000000
00000000
00000000
00030010
00000000
00001000
00000000
00000001
00001000
00000001
00000000
,
00000200
00000010
00000302
00000010
00000103
00000001
00000010
00001000
,
00010000
00000000
00000100
00000000
00010000
00001000
00010000
00000000
00001000
00000000
01000000
00010000
20000000
00000000
00000000
00000000
,
31000000
00000000
00010000
00000000
00001000
00000000
00010000
00000000
00000010
00000000
00001000
00000001
00001000
00000000
00000100
00000000
,
00000020
00000000
00000000
00000000
00000031
00000000
00000100
00000001
00000100
00000000
00000010
00000100
00000010
00000000
00010000
00000000
,
00002000
00100000
02003000
00100000
03010000
10000000
01000000
00010000
,
00001000
00000000
00000020
00000000
00000001
00000000
00000100
00000000
00001030
00000000
00000010
00000000
00000100
00000010
00000100
00000000
,
00001000
00000001
00000100
00001000
00010000
00100000
10000000
01000000
,
00020000
00000000
00000000
00000000
00000100
00000000
00000000
00000000
00001000
00000000
00000000
00000000
00030010
00000000
00010000
00001000
,
00020000
00000000
00000000
00000000
00030010
00000000
00001000
00000000
00000100
00000000
00000010
00000100
00000010
00000000
00000001
00000000
,
00000100
00000000
00000000
00000100
00000010
00000000
00001000
00000000
00000100
00000000
00000000
00000100
00010000
00000000
00001000
00000000
,
01000000
00000000
00000000
01000000
00010000
00000000
00100000
00000000
01000000
00000000
00010000
00000000
01000000
00000000
00100000
00000000
,
00001000
00011000
00010010
00000110
,
00000101
00000000
00000000
00000000
00000011
00000000
00000000
00000000
00000010
00000000
00000100
00000000
00001000
00000100
00001000
00000000
,
00000100
00000000
00000000
00000100
00010000
00000000
00001000
00000000
01000000
00000000
00000000
01000000
00010000
00000000
00100000
00000000
,
01000000
00000000
00000000
01000000
10000000
00000000
00010000
00000000
10000000
00000000
00100000
00000000
00010000
00000000
00001000
00000000
,
00010000
00010100
00001100
00001010
,
00000110
00000000
00000000
00000000
00000101
00000000
00000000
00000000
00000001
00000000
00000010
00000001
00000010
00000000
00000100
00000000
,
00010000
00001000
00000000
00010000
00001000
00000000
00100000
00000000
00100000
00000000
00000000
00000000
00001000
00010000
00000000
00001000
,
00010000
00000010
00000010
00000000
00000100
00001000
00010000
00100000
,
10000000
00010000
00000000
10000000
00010000
00000000
00100000
00000000
01000000
00000000
00000000
00000000
00010000
00000000
00000000
00011000
,
00000000
00001000
00022000
00000000
00000000
00000000
00033000
00000000
;

//--------------- dance-double - forcednature ----------------
#NOTEDATA:;
#STEPSTYPE:dance-double;
#DESCRIPTION:forcednature;
#DIFFICULTY:Hard;
#METER:17;
#RADARVALUES:0,0,0,0,0;
#CREDIT:forcednature;
#NOTES:
00000000
00000000
00000000
00000000
,
00000000
00000000
00000000
00000000
,
00000000
00000000
00000000
00000000
,
00000000
00000000
00000000
00000000
,
00000000
00000000
00000000
00000000
,
00000000
00000000
00000000
00000000
00010000
00001000
00000010
00000000
,
00000220
00000000
00000000
00000000
,
00000000
00000000
00000000
00000330
,
00000100
00000000
00001000
00000000
00000001
00000100
00001000
00010000
,
00100000
00000000
01000000
00000000
10000000
00100000
00010000
00001000
,
00100000
00000000
00000000
00000000
01100000
00000000
00000000
00000000
01000000
00000000
10000000
00010000
01000000
00000000
00100000
00000000
,
01000000
00000000
00000000
00010000
00100000
00000000
00001000
00000000
00010000
00000000
00000000
00000010
00001000
00000000
00000100
00000000
,
00000010
00000000
00000000
00000001
00000100
00000000
00000001
00000000
00000010
00000000
00001000
00000000
00010000
00000000
00001000
00100000
,
00001000
00000000
00000000
00001000
00010000
00000000
00000000
00010000
00100000
00000000
00000000
00100000
10000000
00000000
00000000
10000000
,
01000000
00000000
00000000
01000000
00010000
00000000
00000000
00010000
00001000
00000000
00000010
00000000
00000001
00000000
00000100
00000000
,
00001000
00000000
00000000
00010000
00000100
00000000
00001000
00000000
00000010
00000000
00000000
00010000
00001000
00000000
00100000
00000000
,
01000000
00000000
00000000
10000000
00010000
00000000
01000000
00000000
00001000
00000000
00100000
00000000
01000000
00000000
10000000
00010000
,
10000000
00000000
00000000
10000000
01000000
00000000
00000000
01000000
00010000
00000000
00000000
00010000
00001000
00000000
00000000
00001000
,
00000100
00000000
00000000
00000100
00000001
00000000
00000010
00000001
00000010
00000100
00001000
00000100
00010000
00001000
00010000
00000000
,
00000020
00000000
00000000
00000000
00000000
00000000
00000130
00000000
00000000
00001000
00000000
00000000
00010000
00000000
00000000
00001000
00000000
00000000
01000000
00010000
10000000
00010000
00000000
00000000
,
00200000
00000000
00000000
00000000
01300000
00000000
10000000
00000000
01000000
00000000
00100000
00010000
00100000
00000000
00001000
00010000
,
00000010
00000000
00001000
00000100
00000020
00000000
00000000
00000000
00000001
00000000
00000001
00000000
00000100
00000000
00000000
00000000
,
00001030
00000000
00000010
00000000
00000001
00000000
00000100
00000000
00001000
00000000
00010000
00001000
00000000
01000000
00010000
00000000
,
00200000
00000000
00000000
00000000
00000000
00000000
01300000
00000000
00000000
00010000
00000000
00000000
00001000
00000000
00000000
00100000
00000000
00000000
00010000
10000000
00100000
10000000
00000000
00000000
,
02000000
00000000
03010000
00001000
00000010
00000100
00001000
00000001
,
00000100
00000000
00000000
00000000
00000000
00000000
00000010
00000000
00010000
00000000
00001000
00000000
00020000
00000000
00000000
00000000
00000000
00000000
00000100
00000000
00000000
00000000
00000000
00000000
00000000
00000000
00000000
00000000
00000000
00000000
00001000
00000000
00000000
00000000
00000000
00000000
00001000
00000000
00000000
00000000
00000000
00000000
00030010
00000000
00000000
00010000
00000000
00000000
,
00001000
00000000
00100000
00000000
01000000
00000000
10000000
00000000
00100000
01000000
00010000
01000000
00001000
01000000
00010000
01000000
,
00100000
00000000
00000000
10000000
00000000
00000000
01000000
00010000
00001000
00000000
00000000
00000000
00000010
00000000
00000000
00000001
,
00000000
00000000
00000100
00001000
00010000
00000000
00000000
00000000
00100000
01000000
00010000
01000000
00100000
00000000
10000000
00000000
,
01000000
00000000
01000000
00010000
00001000
00010000
00000010
00000000
00001000
00000100
00001000
00000100
00000010
00000000
00000000
00010000
,
00000000
00000000
00100000
00000000
00001000
01000000
00000000
01000000
00200000
00000000
00320000
00000000
00032000
00000000
00003200
00000000
,
00000310
00000000
00001000
00000000
00010000
01000000
00010000
00000000
10000000
00000000
01000000
00000000
00100000
00000000
00001000
00010000
,
00000100
00000000
00000000
00001000
00000000
00000000
00000100
00000000
00000000
00000000
00000000
00000000
00000010
00000000
00000000
00000000
00000001
00000000
00000000
00000000
00000100
00000000
00000000
00000000
00001000
00000000
00000000
00000000
00010000
00000000
00000000
00000000
01000000
00000000
00000000
00000000
10000000
00000000
00000000
00000000
00100000
00000000
00000000
00000000
01000000
00000000
00000000
00000000
,
00010000
00000000
00000000
00000000
00000000
00000000
00000000
00000000
00010000
00000000
00000000
00000000
00100000
00000000
00000000
00000000
01000000
00000000
00000000
00000000
00010000
00000000
00000000
00000000
01000000
00000000
00000000
00000000
00100000
00000000
00000000
00000000
00001000
00000000
00000000
00000000
00010000
00000000
00000000
00000000
00000000
00000000
00000010
00000000
00000000
00001000
00000000
00000000
,
00000100
00001000
00000010
00001000
00000100
00000000
00000010
00000001
00001000
00000000
00000010
00000000
00010000
00001000
00000000
01000000
,
00100000
00000000
00100000
10000000
00000000
01000000
00010000
00000000
00012000
00000000
00000000
00000000
00003010
00000000
00000010
00000001
,
00000000
00000100
00001000
00000000
00021000
00000000
00000000
00000000
00130000
01000000
00100000
01000000
00010000
00000000
00100000
00000000
,
01000000
00000000
01000000
10000000
00000000
00100000
00010000
00000000
00012000
00000000
00000000
00000000
00003100
00000000
00000100
00000001
,
00000000
00000010
00001000
00000000
00021000
00000000
00000000
00000000
01030000
00100000
00000000
00010000
01000000
00000000
00100000
00000000
,
10000000
00000000
00000000
00010000
00000000
00000000
00001000
00000000
00000110
00000000
00000000
00000000
00000001
00000000
00000000
00001000
,
00000000
00000000
00010000
00000000
01100000
00000000
00000000
00000000
00001000
00000000
00100000
00010000
00100000
00000000
01000000
00000000
,
10010000
00000000
00000000
01001000
00000000
00000000
00010100
00000000
00001001
00000000
00000000
00000000
00100010
00000000
00000000
00100010
,
00000000
00100010
00100010
00000000
01000100
00000000
00011000
00000000
,
00000100
00000000
00001000
00000100
00010000
00000000
00001000
00100000
00010000
00000000
01000000
00000000
10000000
00000000
01000000
00000000
,
00100000
00000000
00000000
00000000
00000000
00000000
10000000
00000000
00000000
00000000
00000000
00000000
01000000
00000000
00000000
00100000
00000000
00000000
00010000
00000000
00000000
00000000
00000000
00000000
01000000
00000000
00000000
00000000
00000000
00000000
00001000
00000000
00010000
00000000
00000100
00000000
00020000
00000000
00000000
00000000
00000000
00000000
00000000
00000000
00000000
00000000
00000000
00000000
,
00031000
00000000
00000000
00000000
00000000
00000000
00000010
00000000
00000000
00000100
00000000
00000000
00001000
00000000
00000000
00000000
00000000
00000000
00000001
00000000
00000000
00000000
00000000
00000000
00000100
00000000
00000000
00000000
00000000
00000000
00000010
00000000
00001000
00000000
00000010
00000000
00010000
00000000
00000000
00000000
00000000
00000000
00001000
00000000
00000000
00000000
00000000
00000000
,
00200000
00000000
00000000
00000000
01300000
00000000
10000000
00010000
01000000
00000000
00001000
00100000
00010000
00100000
01000000
00000000
,
11000000
00000000
10000000
00010000
01000000
00000000
00001000
00010000
00000010
00000000
00001000
00000000
00000100
00000000
00000010
00000000
,
00001000
00000000
00000000
00000000
00000000
00000000
00010000
00000000
00000000
00000000
00000000
00000000
01000000
00000000
00000000
00000000
00000000
00000000
00100000
00000000
00000000
00000000
00000000
00000000
00001000
00000000
00000000
00000000
00000000
00000000
01000000
00000000
00010000
00000000
01000000
00000000
00100000
00000000
00000000
00000000
00000000
00000000
10000000
00000000
00000000
01000000
00000000
00000000
,
00100000
00000000
00010000
01000000
00001000
00000000
00010000
00000100
00001000
00000000
00000010
00000000
00010000
00000000
00001000
00000010
,
00000002
00000000
00000000
00000000
00001000
00000000
00000100
00000000
00001000
00000000
00000000
00000000
00000103
00001000
00010000
00100000
,
20000000
00000000
00000000
00000000
01000000
00000000
00010000
00000000
31000000
10000000
01000000
00100000
00010000
00100000
00001000
00000000
,
00010000
00000000
00100000
01000000
00010000
00000000
00100000
01000000
00010000
00000000
00001000
00000000
00000010
00000000
00000100
00000000
,
00001000
00000000
00000000
00000000
00000000
00000000
00000001
00000000
00000000
00000000
00000000
00000000
00000100
00000000
00000000
00001000
00000000
00000000
00010000
00000000
00000000
00000000
00000000
00000000
00001000
00000000
00000000
00000000
00000000
00000000
00100000
00000000
00010000
00000000
00100000
00000000
02000000
00000000
00000000
00000000
00000000
00000000
00000000
00000000
00000000
00000000
00000000
00000000
,
13000000
00000000
00000000
00000000
00000000
00000000
00010000
00000000
00000000
01000000
00000000
00000000
00001000
00000000
00000000
00000000
00000000
00000000
00100000
00000000
00000000
00000000
00000000
00000000
01000000
00000000
00000000
00000000
00000000
00000000
10000000
00000000
00010000
00000000
00100000
00000000
00010000
00000000
00000000
00000000
00000000
00000000
01000000
00000000
00000000
00000000
00000000
00000000
,
00200000
00000000
00000000
00000000
00310000
00000000
00100000
10000000
00010000
00000000
01000000
00010000
01000000
00001000
00010000
00000000
,
00011000
00000000
00001000
00000010
00000100
00000000
00001000
00000010
00000100
00000000
00000001
00000000
00000010
00000000
00000100
00000000
,
00010000
00000000
00000000
00000000
00000000
00000000
00001000
00000000
00000000
00000000
00000000
00000000
00200000
00000000
00000000
00000000
00000000
00000000
00320000
00000000
00000000
00000000
00000000
00000000
00030020
00000000
00000000
00000000
00000000
00000000
00000130
00000000
00000000
00000000
00000000
00000000
00001000
00000000
00000100
00000000
00001000
00000000
00000100
00000000
00000000
00001000
00000000
00000000
,
00000001
00000000
00000100
00001000
00010000
00000000
00001000
01000000
00010000
00000000
00100000
01000000
10000000
00000000
00010000
01000000
,
00002000
00000000
00000000
00000000
01000000
00000000
00010000
00000000
00100000
00000000
00000000
00000000
01003000
00100000
00010000
00001000
,
00020000
00000000
00000000
00000000
00000100
00000000
00001000
00000000
00030010
00001000
00000100
00010000
00001000
01000000
00010000
00100000
,
01000000
00000000
00000000
01000000
00010000
00000000
00001000
00000000
00000010
00000000
00000000
00000010
00000100
00000000
00010000
00000000
,
00001000
00000000
00000000
00001000
00000100
00000000
00000001
00000000
00000010
00000000
00000100
00000000
00010000
00000000
00001000
00100000
,
00010000
00000000
00000000
00010000
02000000
00000000
00100000
00000000
03020000
00000000
00100000
00000000
00032000
00000000
00000100
00000000
,
00003020
00000000
00010000
00000000
00002030
00000000
00000010
00000000
00013000
00001000
01000000
00010000
01000000
00001000
00010000
00000000
,
00100000
00000000
00000000
00100000
10000000
00000000
01000000
00000000
00010000
00000000
00000000
00010000
00001000
00000000
00000010
00000000
,
00000100
00000000
00000000
00000100
00010000
00000000
00001000
00000000
00000100
00000000
00000001
00000000
00000010
00000100
00001000
00000100
,
00010000
00000000
00000000
00010000
00002000
00000000
01000000
00000000
00203000
00000000
01000000
00000000
00320000
00000000
10000000
00000000
,
00230000
00000000
10000000
00000000
02300000
00000000
00010000
00000000
03100000
00010000
00100000
00001000
00010000
00000100
00001000
00000000
,
00000010
00000100
00001000
00010000
00001000
00100000
00010000
00000000
10020000
00000000
00000000
00000000
00130000
01000000
00010000
00001000
,
00010000
00000010
00001000
00000000
00002001
00000000
00000000
00000000
00003001
00000100
00001000
00000000
00000100
00001000
00010000
00000000
,
00100000
10000000
01000000
00100000
00001000
00010000
00000100
00001000
00000020
00000000
00000000
00000000
00000130
00000001
00000010
00000100
,
00010000
00001000
00100000
01000000
20000000
00000000
00000000
00000000
00000000
00000000
00000000
00000000
30000000
00000000
00000000
00000000
;
