#TITLE:Let's Go Home Together;
#SUBTITLE:Ne, Issho ni Kaero;
#ARTIST:Hitori Bocchi (CV\: Morishita Chisaki);
#TITLETRANSLIT:;
#SUBTITLETRANSLIT:;
#ARTISTTRANSLIT:;
#GENRE:;
#CREDIT:;
#BANNER:bocchi-bn.png;
#BACKGROUND:bocchi-bg.jpg;
#LYRICSPATH:;
#CDTITLE:;
#MUSIC:Ne Issho ni Kaero.mp3;
#OFFSET:0.025000;
#SAMPLESTART:41.991779;
#SAMPLELENGTH:16.020000;
#SELECTABLE:YES;
#BPMS:0.000000=92.000000
;
#STOPS:
;
#BGCHANGES:0.000=video.avi=1.000=0=0=1=====,
99999=-nosongbg-=1.000=0=0=0 // don't automatically add -songbackground-
;
#KEYSOUNDS:;
#ATTACKS:;

//---------------dance-single - ----------------
#NOTES:
     dance-single:
     :
     Beginner:
     3:
     0.100589,0.119597,0.051774,0.000000,0.000000,68.000000,63.000000,5.000000,0.000000,0.000000,0.000000,0.100589,0.119597,0.051774,0.000000,0.000000,68.000000,63.000000,5.000000,0.000000,0.000000,0.000000:
0000
0000
0000
0000
,
0000
0000
0000
0000
,
0000
0000
0000
0000
,
0000
0000
0000
1000
,
0000
0000
0001
0000
,
0000
0010
0000
0000
,
0100
0000
0000
1000
,
0000
1000
0000
0000
1000
0000
0000
0000
,
0000
0000
0001
0000
0000
0001
0000
0000
,
0001
0000
0000
0100
,
0000
0100
0000
0000
0010
0000
0000
0000
,
0000
0000
0010
0000
0000
0010
0000
0000
,
0100
0000
0000
0001
,
0000
0001
0000
0000
1000
0000
0000
1000
,
0000
0000
0100
0000
0000
0100
0000
0000
,
0010
0000
0000
0010
0000
0000
0100
0000
,
0000
0000
0000
0000
1001
0000
0000
0001
,
0000
0100
0000
0000
,
1000
0000
0000
0100
0000
0000
0001
0000
,
0000
0000
0000
0000
0010
0000
0000
0010
,
0000
0000
0100
0000
0000
0010
0000
0000
,
0001
0000
0000
0001
0000
0000
1000
0000
,
0000
1000
0000
0000
1001
0000
0000
0100
,
0000
0000
0001
0000
0000
0001
0000
0000
,
1000
0000
0000
0001
0000
0000
0100
0000
,
0000
0100
0000
0000
0100
0000
0000
0010
,
0000
0100
0000
0000
,
0001
0000
0000
1000
0000
0000
0100
0000
,
0000
0000
0000
0000
0010
0000
0000
0100
,
0000
0010
0000
0000
,
1001
0000
0000
0001
0000
0000
0100
0000
,
0000
0000
0000
0000
1001
0000
0000
1000
,
0000
0010
0000
0000
,
0110
0000
0000
0000
;

//---------------dance-single - ----------------
#NOTES:
     dance-single:
     :
     Easy:
     5:
     0.170114,0.205024,0.031064,0.000000,0.005177,115.000000,112.000000,3.000000,0.000000,0.000000,0.000000,0.170114,0.205024,0.031064,0.000000,0.005177,115.000000,112.000000,3.000000,0.000000,0.000000,0.000000:
0000
0000
0000
0000
,
0000
0000
0000
0000
,
0000
0000
0000
0000
,
0000
0000
0000
0010
,
0000
0010
0000
0000
0100
0000
0000
0100
,
0000
0000
0001
0000
0000
0100
0000
0000
,
0010
0000
0000
1001
,
1000
1000
0000
0000
0100
0000
0100
0100
,
0000
0000
0010
0000
0100
0100
0000
0000
,
1000
0000
1000
0001
0000
0000
0100
0000
,
0000
0010
0000
0000
1000
0000
0010
0010
,
0000
0000
0001
0000
0000
0100
0000
1000
,
1000
0000
0000
0001
0000
0001
0001
0000
,
0000
0100
0000
0000
0010
0000
0000
1000
,
0000
0000
0100
0000
0000
0010
0000
0000
,
0001
0000
0000
1000
0000
0000
1001
0000
,
0000
0000
0000
0000
0001
0000
0001
1000
,
0000
1000
0010
0000
0010
0100
0000
0000
,
0001
0000
0001
1000
0000
1000
0010
0000
,
0010
0100
0000
0000
0001
0000
0000
0010
,
0000
0000
1000
0000
0000
0010
0010
0010
,
0010
0000
0000
0000
0000
0000
0001
0000
0000
0000
0001
0000
0100
0000
0000
0100
,
0000
0100
0000
0000
0010
0000
0010
0100
,
0000
0100
0001
0000
0001
1000
0000
0000
,
0010
0000
0010
0100
0000
0100
0001
0000
,
0001
1000
0000
0000
0100
0000
0000
0010
,
0000
0010
0001
0000
0010
0001
0000
0000
,
0100
0000
0000
0010
0000
1000
1000
0000
,
0000
0001
0000
0001
1000
0000
0000
0010
,
0100
0010
0100
0000
0000
0000
0000
0000
,
1001
0000
0000
1000
0000
1000
0100
0000
,
0000
0010
0010
0010
0001
0000
0000
1000
,
0000
0001
0100
0000
0100
0010
0010
1000
,
1000
0000
0000
0000
;

//---------------dance-single - ----------------
#NOTES:
     dance-single:
     :
     Medium:
     8:
     0.267744,0.290451,0.165676,0.000000,0.077661,181.000000,165.000000,16.000000,0.000000,0.000000,0.000000,0.267744,0.290451,0.165676,0.000000,0.077661,181.000000,165.000000,16.000000,0.000000,0.000000,0.000000:
0000
0000
0000
0000
,
0000
0000
0000
0000
,
0000
0000
0000
0000
,
0000
0000
0000
0000
0000
0100
0010
0000
,
0100
0001
0000
0001
0100
0000
0000
0010
,
0010
0010
0100
0000
0001
0010
0000
0010
,
0100
0000
0000
0000
0000
0010
1001
0000
,
0100
0000
0100
0000
0000
0000
0010
0000
0001
0000
0000
0010
0000
0000
0100
0000
,
0000
0100
1000
0000
0010
0100
0000
0001
,
1001
0100
0001
0100
0000
0010
0101
0000
,
0100
0010
0000
1000
0010
0000
1000
0001
,
0000
0000
0010
0000
1001
0000
0000
1000
0000
0000
0010
0000
0000
0000
1000
0000
,
1000
0000
0000
0001
0000
0000
1000
0000
0100
0000
1000
0000
0000
0000
0001
0000
,
0001
0000
0010
0010
0000
1000
1000
0010
,
0010
0001
0001
0000
0100
0100
0000
0001
,
0001
0000
0000
0100
0000
0000
1000
0000
0000
0000
0010
0000
1001
0000
0000
0000
,
0000
0000
0000
0000
0000
0000
0000
0000
0100
0000
0000
0010
0000
0000
1001
0000
,
0000
0000
1000
0000
0001
0000
0000
1000
0000
0000
0100
0000
0000
0000
0100
0000
,
0010
0000
0000
0100
0000
0000
1001
0000
0000
0000
0001
0000
0010
0000
0000
0001
,
0000
1000
0001
1000
0001
0000
0100
0010
,
0000
1000
0001
0000
0001
1000
0100
1000
,
0010
0000
0000
0000
0100
0000
0100
0000
1000
0000
0100
0000
0001
0000
0000
0001
,
0000
0000
1000
0000
0001
0000
0010
0000
1001
0000
0000
1000
0000
0000
0001
0000
,
0000
0000
1000
0000
0100
0000
0000
1000
0000
0000
0010
0000
0000
0000
1000
0000
,
1001
0000
0000
0001
0000
0000
0100
0000
0000
0000
0001
0000
0010
0000
0000
0001
,
0000
1000
0010
1000
0010
0000
0010
0100
,
0000
1000
0100
0000
0100
0001
0010
0001
,
0100
0000
0000
0000
0010
0000
0001
0000
0010
0000
1000
0000
0010
0000
0000
1001
,
0000
0000
0100
0100
0100
0000
0000
0010
,
0010
0000
0100
0000
1001
0000
0000
0101
0000
0000
0000
0000
0000
0000
0010
0000
,
1010
0000
1000
1100
0000
1000
0001
0000
,
0100
0001
1000
0100
1100
0000
0010
0001
,
0000
1000
0001
0100
0001
1000
0010
0100
,
1001
0000
0000
0000
;

//---------------dance-single - ----------------
#NOTES:
     dance-single:
     :
     Hard:
     12:
     0.440817,0.495475,0.393481,0.113902,0.398658,298.000000,260.000000,38.000000,11.000000,0.000000,0.000000,0.440817,0.495475,0.393481,0.113902,0.398658,298.000000,260.000000,38.000000,11.000000,0.000000,0.000000:
// measure 0
0000
0000
0000
0000
,  // measure 1
0000
0000
0000
0000
,  // measure 2
0000
0000
0000
0000
,  // measure 3
0000
0000
0000
0000
0000
0100
2001
0000
,  // measure 4
3100
0000
0102
0000
0000
0000
1003
0000
0100
0000
0000
1000
0100
0000
0010
0000
,  // measure 5
0001
0100
2010
0000
3001
0011
0100
0010
,  // measure 6
1100
0000
0000
0000
0000
0000
0000
0000
0000
0000
1001
0000
0110
0000
0000
1000
,  // measure 7
0001
0000
0100
0000
0001
0000
1000
0100
1000
0001
0000
0001
1000
0000
0101
0000
,  // measure 8
0000
0000
0100
0000
0010
0000
1000
0010
1000
0001
0100
0000
0000
0000
0110
0000
,  // measure 9
1000
0010
0000
0100
0001
0100
0010
0000
1001
0000
0100
0000
0201
0000
0000
0000
,  // measure 10
0310
1000
0001
0000
0000
0001
1000
0000
0100
0000
1000
0100
1000
0010
1000
0000
,  // measure 11
0001
1000
0010
0000
0101
0000
1000
0100
0000
0100
0010
0000
1001
0000
0100
1000
,  // measure 12
0100
0000
0000
0010
0000
0010
0001
0000
0100
0000
1000
0000
0110
0000
0010
1000
,  // measure 13
0010
0000
0000
0000
1000
0001
0010
0000
0011
0000
0001
1000
0010
1000
0010
0000
,  // measure 14
0100
0001
1100
0000
0010
0101
0000
0100
,  // measure 15
1001
0000
0000
0220
0000
0000
0000
0000
0330
0000
1000
0000
0110
0000
0000
0000
,  // measure 16
0000
0000
0000
0000
0000
0000
0000
0000
1001
0000
0010
0100
0000
0001
1000
0000
,  // measure 17
0110
0000
0001
0010
1000
0000
0010
0001
0000
0100
1000
0000
0100
0001
0010
0000
,  // measure 18
1100
0000
0001
0010
0000
0100
0001
0000
0100
1000
0010
0100
0010
0000
1000
0010
,  // measure 19
0000
0100
0001
0000
0110
0000
1001
0000
0100
0000
0001
0000
1010
0000
0101
0000
,  // measure 20
1000
0000
0100
1000
0010
0000
1000
0010
0100
0010
1000
0001
1000
0001
0100
0001
,  // measure 21
1000
0000
0000
1000
0100
0000
1001
0000
0011
0000
0001
0010
0100
1000
0100
0010
,  // measure 22
0000
0001
0010
0100
1000
0001
1000
0100
0010
0000
0001
1000
0000
0010
0100
0000
,  // measure 23
0001
0100
1000
0100
0001
0000
1000
0010
0000
0100
0001
0000
1000
0000
0011
0000
,  // measure 24
0100
1000
0100
0010
0000
0001
0010
0000
1100
0000
1000
0001
0100
0000
0001
1000
,  // measure 25
0000
1000
0100
0000
1001
0000
0001
0010
0100
0000
0000
1000
0001
0000
0100
0000
,  // measure 26
0001
0000
1010
0000
0100
0000
0010
0000
1000
0001
1000
0000
0100
0000
0001
0100
,  // measure 27
1000
0000
0000
0000
0010
0000
0001
0000
0010
0000
1000
0000
0101
0000
0000
1010
,  // measure 28
0000
1000
0010
0100
0001
0100
0010
0100
0002
0000
0000
0000
0003
0000
1000
0000
,  // measure 29
0101
0000
1001
0000
0100
0000
1000
0020
0000
0000
0130
0000
0000
0000
0000
0000
,  // measure 30
2001
0000
0000
0000
3100
0000
0002
0000
0000
0000
0103
0000
1000
0000
0000
0001
,  // measure 31
0100
0010
1000
0100
0020
0000
0130
0001
,  // measure 32
0100
1000
0100
1000
0001
0000
0100
0000
1000
0000
0100
0000
0001
0000
1000
0100
,  // measure 33
0010
0000
0000
0000
;
