#TITLE:My Turn;
#SUBTITLE:;
#ARTIST:Tasha;
#TITLETRANSLIT:;
#SUBTITLETRANSLIT:;
#ARTISTTRANSLIT:;
#CREDIT:;
#BANNER:;
#BACKGROUND:;
#LYRICSPATH:;
#CDTITLE:;
#MUSIC:My Turn.ogg;
#OFFSET:-1.459;
#SAMPLESTART:42.583;
#SAMPLELENGTH:12.000;
#SELECTABLE:YES;
#BPMS:0.000=127.161;
#STOPS:;
#BGCHANGES:;

//---------------dance-single - ----------------
#NOTES:
     dance-single:
     :
     Hard:
     12:
     0.513,0.508,0.349,0.000,0.246:
0000
0000
0000
0000
,
0000
0000
0000
0000
,
0000
0000
0000
0000
,
0000
0000
0000
0000
,
1001
0000
1000
0000
0100
0000
0010
0000
0100
0000
0000
1000
0000
0000
1100
0000
,
0000
0000
1000
0000
0001
0000
0100
0000
0010
0000
0000
0100
0000
0000
0101
0000
,
0000
0000
1000
0000
0100
0000
0010
0000
0100
0000
0000
1000
0000
0000
1010
0000
,
0000
0000
0000
0010
0100
0001
1000
0100
,
0010
0000
0001
0100
0000
0010
0100
0000
0001
0000
0000
0001
0000
0000
1000
0000
,
0100
0000
0010
0000
0001
0100
0010
1000
,
1001
0000
1000
0000
0100
0000
0010
0000
0100
0000
1000
0100
1000
0000
0001
0000
,
0000
0100
0001
0100
0110
0000
1000
0000
,
1100
0000
0100
0010
,
0001
0100
0010
0100
0001
1000
0100
0010
,
1001
0000
0001
0000
0100
0000
0010
0000
1000
0000
0100
1000
0100
0000
0000
0000
,
0011
0010
0001
0010
0110
0000
1100
0000
,
1001
0000
0001
0100
,
0010
1000
0001
1000
0100
0100
0010
0010
,
0011
0000
1000
0000
0000
0000
1001
0000
0000
0000
0001
0100
0010
0000
0000
0000
,
1010
0000
0001
0000
0010
0000
0100
0000
0000
0000
1000
0100
0010
0000
0000
0000
,
1001
0001
0100
0010
0100
0001
0010
0100
,
1000
0100
0010
0100
1000
1000
0001
0001
,
1001
0000
1000
0000
0010
0000
0100
0000
0101
0000
0000
0001
0000
0000
1000
0000
,
0100
0000
0010
0100
0000
1000
0100
0000
0000
0000
0001
0000
0100
0000
0110
0000
,
0001
0100
0010
0100
0001
0001
0000
1000
,
0100
0000
0010
0001
0100
0010
0100
0001
,
0011
0000
0010
0000
0100
0000
1000
0000
1010
0000
0000
0010
0000
0000
0100
0000
,
0001
0000
0010
0001
0000
0010
0100
0000
0000
0000
1000
0000
0010
0000
1001
0000
,
0000
0000
0001
0100
0010
0000
0010
0100
,
0001
0000
1000
0000
0100
0100
0100
0010
,
0110
0000
0000
0010
0001
0000
1000
0000
0010
0000
0000
0010
0100
0000
0001
0000
,
1000
0000
0000
0100
0010
0000
0001
0000
1000
0000
0000
1000
0010
0000
0000
0000
,
0110
0000
0000
0100
0001
0000
1000
0000
0100
0000
0000
0010
0100
0000
1000
0000
,
0001
0000
0000
0100
0010
0000
1000
0000
0100
0000
0000
0000
0010
0000
0000
0000
,
0011
0000
0000
0001
0100
0000
0010
0000
0100
0000
0000
0000
0001
0000
1000
0000
,
1100
0000
0000
0000
0100
0000
0010
0000
0100
0000
0000
0100
0000
0000
1000
0000
,
1010
0000
0000
0010
0100
0000
0001
0000
1000
0000
0000
1000
0100
0000
0010
0000
,
0011
0000
0000
0001
0100
0000
0010
0000
0100
0000
0100
0000
0001
0000
0001
0000
,
1001
0000
1000
0000
0100
0000
0010
0000
0011
0000
0010
0001
0000
0001
0100
0000
,
0000
0000
0010
0000
1000
0000
0001
0000
0010
0000
0100
1000
0000
1000
0001
0000
,
0000
0000
0001
0000
0100
0000
0010
0000
0110
0000
0010
1000
0000
1000
0001
0000
,
0000
0000
0000
0001
0010
1000
0010
0110
,
1000
0000
0001
0000
0100
0000
0010
0000
1010
0000
0010
0100
0000
0100
0001
0000
,
0000
0000
1000
0000
0100
0000
0010
0000
0001
0000
0001
0100
0000
0100
0010
0000
,
0000
0000
0010
0000
1000
0000
0001
0000
0011
0000
0010
0100
0000
0100
1000
0000
,
0000
0000
0000
0010
0001
0010
1000
0000
,
0010
1000
0000
0010
1000
0000
1000
0000
0100
0000
0100
0000
0000
0000
0000
0000
,
0010
0001
0000
0010
0001
0000
0001
0000
0100
0000
0100
0000
0000
0000
0000
0000
,
0100
0001
0000
0100
0001
0000
0001
0000
0010
0000
0010
0000
0000
0000
0000
0000
,
0100
1000
0000
0100
1000
0000
0010
0000
0001
0000
0000
0000
0000
0000
0000
0000
;

//---------------dance-single - ----------------
#NOTES:
     dance-single:
     :
     Medium:
     11:
     0.443,0.457,0.369,0.000,0.128:
0000
0000
0000
0000
,
0000
0000
0000
0000
,
0000
0000
0000
0000
,
0000
0000
0000
0000
,
0000
0000
0010
0000
0001
0000
1000
0000
0010
0000
0000
0100
0000
0000
0110
0000
,
0000
0000
0100
0000
0001
0000
1000
0000
0100
0000
0000
0010
0000
0000
0110
0000
,
0000
0000
0010
0000
0001
0000
1000
0000
0010
0000
0000
0100
0000
0000
0101
0000
,
0000
0000
0000
0001
0010
0100
0010
0001
,
1000
0000
0010
0100
0000
0100
0000
0000
0001
0000
0000
1000
0000
0000
0100
0000
,
0010
0000
0001
0000
1000
0000
0010
0100
,
0010
1000
1000
0001
0000
0000
0000
0000
,
0010
0001
0010
0000
0100
1000
0100
0000
,
0010
0000
0001
0100
,
0010
1000
0001
1000
0010
0100
0001
0000
,
0001
0010
0100
0010
0001
0000
0000
0000
,
0001
0100
0001
0000
1000
0010
1000
0000
,
1001
0000
0001
0010
,
0100
1000
0001
1000
0010
0100
0001
0000
,
0011
0010
0000
0110
0000
0000
0000
0000
,
0100
0000
0100
0000
1000
0000
0001
0000
0000
0000
0100
0000
0000
0100
0000
0000
,
0110
0010
1000
0010
0100
0010
1000
0001
,
0010
0010
0000
0100
0010
0001
1000
0001
,
0011
0000
0100
1000
1100
0000
0001
0100
,
0010
0000
0100
0001
0000
0000
1000
0000
0000
0000
0100
0000
0000
0000
0010
0000
,
0001
0100
1000
0100
0010
1000
0000
0001
,
0000
0000
0000
0010
0100
1000
0100
0010
,
0011
0000
0100
1000
1100
0000
0010
0001
,
0100
0000
0010
0100
0000
0000
0001
0000
0000
0000
1000
0000
0010
0000
0110
0000
,
0000
0000
0010
1000
0100
0000
0100
0010
,
0001
0000
0000
1000
0010
0100
0001
0010
,
0011
0000
0100
1000
1010
0000
0010
0100
,
0101
0000
0000
1000
0000
0000
0100
0000
1100
0000
0000
0000
0110
0000
0000
0000
,
0011
0000
0001
0100
0110
0000
1000
0000
,
1001
0000
0010
0100
1100
0000
1010
0000
,
1001
0000
0001
0100
0110
0000
0010
1000
,
1100
0000
0000
0000
0100
0000
0010
0000
0011
0000
0000
0001
0000
0000
0100
0000
,
0110
0000
0010
1000
1100
0000
0100
0010
,
0011
0000
0001
0100
0010
0010
0010
0010
,
1000
0000
0001
0000
0010
0000
0100
0000
1000
0000
0100
0010
0000
0000
1001
0000
,
0000
0000
1000
0000
0010
0000
0100
0000
0001
0000
0000
0010
0000
0000
0011
0000
,
0000
0000
0010
0000
0100
0000
1000
0000
0001
0000
0100
0010
0000
0000
1010
0000
,
0000
0000
0000
0001
0010
0100
1000
1010
,
0000
0000
1000
0000
0010
0000
1000
0000
0100
0000
0010
0100
0000
0000
1001
0000
,
0000
0000
1000
0000
0010
0000
0100
0000
0001
0000
0000
0010
0000
0000
0011
0000
,
0000
0000
0001
0000
0100
0000
0010
0000
1000
0000
0010
0100
0000
0000
1001
0000
,
0000
0000
0000
0001
0010
0100
1000
0001
,
0100
0010
0000
0100
0010
0000
0000
0000
1000
0000
0000
0000
0000
0000
0000
0000
,
0001
1000
0000
0001
1000
0000
0000
0000
0100
0000
0000
0000
0000
0000
0000
0000
,
0010
0100
0000
0010
0100
0000
0000
0000
1000
0000
0000
0000
0000
0000
0000
0000
,
0001
1000
0000
0001
1000
0000
1000
0000
0010
0000
0000
0000
0000
0000
0000
0000
;

//---------------dance-single - ----------------
#NOTES:
     dance-single:
     :
     Easy:
     6:
     0.237,0.305,0.185,0.000,0.046:
0000
0000
0000
0000
,
0000
0000
0000
0000
,
0000
0000
0000
0000
,
0000
0000
0000
0000
,
1000
0000
0000
0000
0100
0000
0000
0000
0010
0000
0000
0010
0000
0000
0100
0000
,
0000
0000
0000
0000
1000
0000
0000
0000
0010
0000
0000
0010
0000
0000
0100
0000
,
0000
0000
0000
0000
0001
0000
0000
0000
0010
0000
0000
0010
0000
0000
0100
0000
,
0000
0000
1000
0010
,
0100
0000
0001
0000
,
1000
0000
0100
0100
,
0110
0000
0001
0000
,
0100
0010
0100
0001
,
1000
0000
0100
0000
,
0010
0010
0100
1000
,
0001
0000
0100
0000
,
0010
0100
0001
1000
,
0100
0000
0010
0000
,
0100
1000
0001
0001
,
0101
0000
0000
0100
0000
0000
0000
0000
,
0010
0000
0000
1000
0000
0000
0000
0000
,
0001
0010
0100
0000
,
0010
0001
1000
0000
,
1010
0001
0011
1000
,
0010
0100
0001
0000
,
0001
0010
1000
0010
,
0001
0000
0000
0000
,
0011
1000
1010
0001
,
0010
0100
1000
0001
,
0100
0010
0100
0001
,
1000
0000
0100
0010
,
0110
0000
0001
0000
,
0100
0000
0010
0010
,
1000
0000
0100
0000
,
0010
0000
0001
0100
,
0010
0000
0100
0000
,
0001
0000
1000
0100
,
0010
0000
0001
0000
,
1000
0000
0010
0100
,
0101
0000
0000
0000
0001
0000
0000
0000
0010
0000
0000
0010
0000
0000
0110
0000
,
0000
0000
0000
0000
1000
0000
0000
0000
0010
0000
0000
0010
0000
0000
0110
0000
,
0000
0000
0000
0000
0001
0000
0000
0000
0010
0000
0000
0010
0000
0000
0011
0000
,
0000
0000
1000
0010
,
0100
0000
0000
0000
0001
0000
0000
0000
1000
0000
0000
1000
0000
0000
1001
0000
,
0000
0000
0000
0000
1000
0000
0000
0000
0001
0000
0000
0001
0000
0000
1001
0000
,
0000
0000
0000
0000
0001
0000
0000
0000
1000
0000
0000
1000
0000
0000
1010
0000
,
0000
0000
0010
0100
,
0001
0010
0011
0000
,
1000
0010
1010
0000
,
0001
0100
0101
0000
,
1000
0000
0100
0100
1100
0000
0000
0000
;

//---------------dance-double - ----------------
#NOTES:
     dance-double:
     :
     Hard:
     12:
     0.478,0.533,0.123,0.000,0.272:
00000000
00000000
00000000
00000000
,
00000000
00000000
00000000
00000000
,
00000000
00000000
00000000
00000000
,
00000000
00000000
00000000
00000000
,
00010000
00000000
00001000
00000000
00100000
00000000
00010000
00000000
01000000
00000000
00100000
10000000
00000000
00000000
10010000
00000000
,
00000000
00000000
10000000
00000000
01000000
00000000
00010000
00000000
00001000
00000000
00000000
00000010
00000000
00000000
00001001
00000000
,
00000000
00000000
00000001
00000000
00000100
00000000
00000010
00000000
00010000
00000000
00001000
00100000
00000000
00000000
00110000
00000000
,
00000000
00000000
00000000
10000000
00100000
00010000
00001000
00000010
,
00000001
00000100
00001000
00010000
,
01000000
00000000
10000000
00000000
00100000
00100000
00100000
00100000
,
10000000
01000000
00100000
00001000
00000000
00000000
00000000
00010000
,
00000010
00001000
00000010
00000100
00001000
00000000
00010000
00000000
,
00011000
00000000
00010000
00100000
,
10000000
01000000
00100000
01000000
00010000
00001000
00010000
00000000
,
00011000
00000010
00001000
00000001
00000000
00000000
00000100
00000000
,
00000101
00000100
00000010
00001000
00001100
00000000
00010000
00000000
,
00011000
00000000
00100000
00010000
,
10000000
00000000
00100000
00000000
01000000
00000000
00100000
00000000
00010000
00001000
00010000
00001000
00000100
00000010
00000100
00000010
,
00001000
00000000
00000100
00000000
00000000
00000000
00010000
00000000
00000000
00000000
00001000
00000000
00000000
00100000
00000000
00000000
,
00010000
00000000
01000000
00000000
00100000
00000000
00010000
00000000
00001000
00000000
00000010
00000000
00000000
00000100
00000000
00000000
,
00001000
00000001
00000100
00001000
00010000
00001000
00000100
00001000
,
00010000
00000000
01000000
00000000
10000000
00000000
10000000
00000000
00010000
00000000
00000000
00000000
00100000
01000000
00100000
01000000
,
00010000
00000000
00000010
00000100
00001000
00000000
00010000
01000000
,
10000000
00000000
01000000
00100000
00000000
01000000
00010000
00000000
00001000
00000000
00000100
00000000
00000000
00000000
00000100
00000000
,
00000010
00000100
00000001
00000100
00001000
00010000
00100000
00010000
,
00001000
00000000
00000000
00000010
00000001
00001000
00000001
00000100
,
00001000
00000000
10000000
01000000
00010000
00000000
00001000
00000010
,
00000001
00000000
00000100
00001000
00000000
00000100
00000010
00000000
00000000
00000000
00010000
00000000
00001000
00000000
00011000
00000000
,
00000000
00000000
00100000
00010000
10000000
01000000
00010000
00001000
,
00010000
01000000
00000000
01000000
10000000
00100000
01000000
00001000
,
00011000
00000000
00000000
00000010
00000100
00000000
00000001
00000000
00001000
00000000
00000000
00000100
00000010
00000000
00000001
00000000
,
00001000
00000000
00000000
00000010
00000100
00000000
00001000
00000000
00010000
00000000
00000000
01000000
10000000
00000000
00000000
00000000
,
10010000
00000000
00000000
10000000
00100000
00000000
00010000
00000000
00001000
00000000
00000000
00000010
00000001
00000000
00000100
00000000
,
00001000
00000000
00000000
00010000
00100000
00000000
10000000
00000000
00100000
00000000
00000000
00000000
00010000
00000000
00000000
00000000
,
00011000
00000000
00000000
00001000
00000100
00000000
00000001
00000000
00000010
00000000
00000000
00001000
00010000
00000000
00100000
00000000
,
10000000
00000000
00000000
01000000
00010000
00000000
00001000
00000000
00010000
00000000
00000000
00010000
01000000
00000000
10000000
00000000
,
00100000
00000000
00000000
00100000
00010000
00000000
00001000
00000000
00000010
00000000
00000000
00000010
00001000
00000000
00010000
00000000
,
00100000
00000000
00000000
00100000
10000000
00000000
00010000
00000000
00100000
00001000
00100000
00001000
00010000
00000010
00010000
00000010
,
00001000
00000000
00000001
00000000
00000010
00000000
00000100
00000000
00010000
00000000
00001000
00100000
00000000
00100000
00010000
00000000
,
00000000
00000000
10000000
00000000
00100000
00000000
01000000
00000000
00001000
00000000
00001000
00010000
00000000
00010000
00000100
00000000
,
00000000
00000000
00000010
00000000
00000001
00000000
00000100
00000000
00000010
00000000
00000010
00001000
00000000
00001000
00000001
00000000
,
00000000
00000000
00000000
00000010
00001000
00010000
00100000
10000000
,
00000000
00000000
01000000
00000000
00100000
00000000
00001000
00000000
00010000
00000000
00000010
00000100
00000000
00000100
00000001
00000000
,
00000000
00000000
00000010
00000000
00001000
00000000
00010000
00000000
01000000
00000000
10000000
00100000
00000000
00100000
01000000
00000000
,
00000000
00000000
00001000
00000000
00000100
00000000
00000001
00000000
00000010
00000000
00000100
00010000
00000000
00010000
00001000
00000000
,
00000000
00000000
00000000
00010000
00100000
10000000
01000000
00000000
,
00010000
01000000
00000000
01000000
10000000
00000000
00100000
00000000
00010000
00000000
00000000
00000000
00000000
00000000
00000000
00000000
,
00001000
00000010
00000000
00000010
00000001
00000000
00000100
00000000
00001000
00000000
00000000
00000000
00000000
00000000
00000000
00000000
,
00010000
00100000
00000000
00100000
10000000
00000000
01000000
00000000
00010000
00000000
00000000
00000000
00000000
00000000
00000000
00000000
,
00001000
00000010
00000000
00000010
00000001
00000000
00000100
00000000
00001000
00000000
00000000
00000000
00000000
00000000
00000000
00000000
;

//---------------dance-double - ----------------
#NOTES:
     dance-double:
     :
     Medium:
     10:
     0.383,0.406,0.195,0.000,0.067:
00000000
00000000
00000000
00000000
,
00000000
00000000
00000000
00000000
,
00000000
00000000
00000000
00000000
,
00000000
00000000
00000000
00000000
,
00000000
00000000
00001000
00000000
00100000
00000000
00010000
00000000
10000000
00000000
00000000
10000000
00000000
00000000
00100000
00000000
,
00000000
00000000
01000000
00000000
00010000
00000000
00100000
00000000
00001000
00000000
00000000
00010000
00000000
00000000
00001100
00000000
,
00000000
00000000
00000010
00000000
00000001
00000000
00000100
00000000
00000010
00000000
00000000
00001000
00000000
00000000
00001010
00000000
,
00000000
00000000
00000000
00000010
00001000
00000001
00000010
00000000
,
00000001
00000100
00010000
00001000
,
00000010
00000001
00001000
00010000
,
10000000
01000000
00100000
01000000
00000000
00000000
00010000
00000000
,
00001000
00010000
00001000
00000000
00000010
00000000
00000001
00000000
,
00000101
00000000
00000001
00000010
,
00001000
00010000
00001000
00000000
00100000
00000000
00010000
00000000
,
10000000
00100000
01000000
00100000
00000000
00000000
00100000
00000000
,
00010000
00001000
00010000
00000000
00001000
00000000
00000010
00000000
,
00000001
00000000
00000100
00000010
,
00010000
00001000
00010000
00001000
01000000
00000000
00100000
00000000
,
10100000
00000000
00000000
10010000
00000000
00000000
00000000
00000000
,
00001001
00000000
00000000
00000011
00000000
00000000
00000000
00000000
,
00000010
00000001
00000100
00001000
,
00010000
00000000
01000000
00000000
10000000
00010000
10000000
00010000
,
01000000
00000000
00010000
00001000
00000100
00000000
00000010
00000100
,
00000001
00000000
00000100
00000010
00000000
00000000
00001000
00000000
00000000
00000000
00000100
00000000
00000000
00000000
00010000
00000000
,
00001000
00100000
00001000
00010000
01000000
00100000
00000000
00010000
,
10000000
00000000
00000000
00100000
01000000
00001000
00010000
00000100
,
00001000
00000000
00000010
00000100
00000001
00000000
00000010
00000100
,
00010000
00000000
00001000
00100000
00000000
00000000
00010000
00000000
00000000
00000000
01000000
00000000
00000000
00000000
01010000
00000000
,
00000000
00000000
00100000
10000000
01000000
00000000
01000000
00010000
,
00001000
00000010
00000001
00000100
,
00000101
00000000
00000100
00001000
00010000
00000000
00010000
01000000
,
00100000
00000000
00000000
00001000
00000000
00000000
00010000
00000000
00000010
00000000
00000000
00000000
00000100
00000000
00000000
00000000
,
00000101
00000000
00000001
00000100
00001000
00000000
00010000
01000000
,
10000000
00100000
00110000
00010000
,
00011000
00000000
00001000
00000010
00000100
00000000
00000001
00000100
,
00001000
00000000
00000000
00000000
00000010
00000000
00000100
00000000
00001000
00000000
00000000
00010000
00000000
00000000
01000000
00000000
,
10000000
00000000
00100000
01000000
00001000
00000000
00010000
00000100
,
00000010
00000000
00000001
00000000
00000100
00000010
00001000
00000100
,
00010000
00000000
00001000
00000000
00100000
00000000
00010000
00000000
01000000
00000000
00100000
10000000
00000000
00000000
10010000
00000000
,
00000000
00000000
00010000
00000000
00100000
00000000
00001000
00000000
00010000
00000000
00000000
00000010
00000000
00000000
00001001
00000000
,
00000000
00000000
00000001
00000000
00000010
00000000
00000100
00000000
00010000
00000000
00001000
01000000
00000000
00000000
01010000
00000000
,
00000000
00000000
00000000
00100000
10000000
00010000
00100000
00011000
,
00000000
00000000
00000010
00000000
00001000
00000000
00000001
00000000
00000010
00000000
00000100
00001000
00000000
00000000
00001100
00000000
,
00000000
00000000
00010000
00000000
00001000
00000000
00100000
00000000
00010000
00000000
00000000
10000000
00000000
00000000
10100000
00000000
,
00000000
00000000
00100000
00000000
01000000
00000000
00001000
00000000
00010000
00000000
00000100
00001000
00000000
00000000
00001010
00000000
,
00000000
00000000
00000000
00000010
00000100
00000001
00000010
00000000
,
00000001
00000100
00000001
00000100
00001000
00000000
00000000
00000000
,
00010000
01000000
00010000
01000000
10000000
00000000
00000000
00000000
,
10000000
00100000
10000000
00100000
00010000
00000000
00000000
00000000
,
00001000
00000010
00000001
00000100
00001000
00000000
00000000
00000000
;

//---------------dance-double - ----------------
#NOTES:
     dance-double:
     :
     Easy:
     7:
     0.273,0.305,0.236,0.000,0.046:
00000000
00000000
00000000
00000000
,
00000000
00000000
00000000
00000000
,
00000000
00000000
00000000
00000000
,
00000000
00000000
00000000
00000000
,
10000000
00000000
00000000
00000000
01000000
00000000
00000000
00000000
00010000
00000000
00000000
00010000
00000000
00000000
00001000
00000000
,
00000000
00000000
00000000
00000000
00000001
00000000
00000000
00000000
00000100
00000000
00000000
00000100
00000000
00000000
00001000
00000000
,
00000000
00000000
00000000
00000000
00000010
00000000
00000000
00000000
00000100
00000000
00000000
00000100
00000000
00000000
00001000
00000000
,
00000000
00010000
01000000
10000000
,
00100000
10000000
01000000
00100000
,
00001000
00010000
00000010
00001000
,
00000001
00000100
00001000
00000000
,
00010000
01000000
10000000
00010000
,
10010000
00000000
10000000
00100000
,
01000000
00001000
00010000
00010000
,
00000010
00001000
00000001
00000000
,
00000010
00000001
00000100
00001000
,
00011000
00000000
00100000
00010000
,
10000000
00100000
01000000
00010000
,
00110000
00000000
00000000
00010000
00000000
00000000
00000000
00000000
,
00001000
00000000
00000000
00000010
00000000
00000000
00000000
00000000
,
00000001
00000100
00000010
00000100
,
00000001
00000010
00001000
00010000
,
00011000
00100000
00110000
10000000
,
00100000
01000000
00010000
10000000
,
01000000
00100000
01000000
00010000
,
00001000
00000000
00000010
00000001
,
00000011
00001000
00001010
00000010
,
00000100
00001000
00010000
01000000
,
00100000
00010000
10000000
00100000
,
01000000
00001000
00010000
00000010
,
00001010
00000000
00001001
00000000
,
00000001
00000010
00000100
00010000
,
00011000
00000000
00110000
00000000
,
10000000
00100000
01000000
00010000
,
01010000
00000000
00001000
00000000
,
00000110
00000000
00000001
00000100
,
00000101
00000000
00000100
00000000
,
00000010
00000000
00010000
00001000
,
00100000
00000000
00000000
00000000
00010000
00000000
00000000
00000000
10000000
00000000
00000000
00100000
00000000
00000000
10100000
00000000
,
00000000
00000000
00000000
00000000
00100000
00000000
00000000
00000000
00010000
00000000
00000000
00001000
00000000
00000000
00011000
00000000
,
00000000
00000000
00000000
00000000
00001000
00000000
00000000
00000000
00000010
00000000
00000000
00000001
00000000
00000000
00000101
00000000
,
00000000
00000000
00000100
00000010
,
00010000
00000000
00000000
00000000
00001000
00000000
00000000
00000000
00100000
00000000
00000000
00010000
00000000
00000000
00110000
00000000
,
00000000
00000000
00000000
00000000
10000000
00000000
00000000
00000000
00100000
00000000
00000000
01000000
00000000
00000000
01100000
00000000
,
00000000
00000000
00000000
00000000
00001000
00000000
00000000
00000000
00010000
00000000
00000000
00000100
00000000
00000000
00001100
00000000
,
00000000
00000000
00000010
00000001
,
00000101
00000000
00000001
00000100
00001000
00000000
00000000
00000000
,
00001100
00000000
00000100
00001000
00010000
00000000
00000000
00000000
,
01010000
00000000
00010000
01000000
10000000
00000000
00000000
00000000
,
01000000
00000000
10000000
00100000
00010000
00000000
00000000
00000000
;

//---------------dance-single - ----------------
#NOTES:
     dance-single:
     :
     Beginner:
     1:
     0.089,0.152,0.062,0.000,0.000: // measure 1
0000
0000
0000
0000
,  // measure 2
0000
0000
0000
0000
,  // measure 3
0000
0000
0000
0000
,  // measure 4
0000
0000
0000
0000
,  // measure 5
1000
0000
0000
0000
,  // measure 6
0000
0000
0000
0000
,  // measure 7
0001
0000
0000
0000
,  // measure 8
0000
0000
0000
0000
,  // measure 9
0100
0000
0000
0000
,  // measure 10
0000
0000
0000
0000
,  // measure 11
0100
0000
0000
0000
,  // measure 12
0010
0000
0010
0000
,  // measure 13
1000
0000
0000
0000
,  // measure 14
0001
0000
0001
0000
,  // measure 15
0010
0000
0000
0000
,  // measure 16
0100
0000
0100
0000
,  // measure 17
1000
0000
0000
0000
,  // measure 18
0010
0000
0010
0000
,  // measure 19
0110
0000
0000
0000
,  // measure 20
1001
0000
0000
0000
,  // measure 21
0110
0000
0000
0000
,  // measure 22
1001
0000
0000
0000
,  // measure 23
1000
0000
1000
0000
,  // measure 24
0100
0000
0000
0000
,  // measure 25
0010
0000
0001
0000
,  // measure 26
0010
0000
0000
0000
,  // measure 27
0001
0000
0001
0000
,  // measure 28
0100
0000
0000
0000
,  // measure 29
0010
0000
1000
0000
,  // measure 30
0100
0000
0000
0000
,  // measure 31
0110
0000
0000
0000
,  // measure 32
0001
0000
0000
0000
,  // measure 33
1000
0000
0000
0000
,  // measure 34
0110
0000
0000
0000
,  // measure 35
1000
0000
0000
0000
,  // measure 36
0001
0000
0000
0000
,  // measure 37
0010
0000
0000
0000
,  // measure 38
0100
0000
0000
0000
,  // measure 39
1000
0000
0000
0000
,  // measure 40
0001
0000
0000
0000
,  // measure 41
0001
0000
0000
0000
,  // measure 42
1000
0000
0000
0000
,  // measure 43
0010
0000
0000
0000
,  // measure 44
0100
0000
0000
0000
,  // measure 45
0001
0000
0000
0000
,  // measure 46
0010
0000
0000
0000
,  // measure 47
0001
0000
0001
0000
,  // measure 48
0100
0000
0100
0000
,  // measure 49
0010
0000
0010
0000
,  // measure 50
1000
0000
1000
0000
;
