#TITLE:My Summer Diary;
#SUBTITLE:(Thanks For The Memories!);
#ARTIST:Z-I-v Sound Team "TonyAkita";
#TITLETRANSLIT:;
#SUBTITLETRANSLIT:;
#ARTISTTRANSLIT:;
#GENRE:ONE MORE TRANCE;
#CREDIT:;
#BANNER:mysummerdiary.png;
#BACKGROUND:mysummerdiary-bg.png;
#LYRICSPATH:;
#CDTITLE:;
#MUSIC:My Summer Diary.mp3;
#OFFSET:-0.051850;
#SAMPLESTART:31.975000;
#SAMPLELENGTH:12.692000;
#SELECTABLE:YES;
#BPMS:0.000000=156.000000
;
#STOPS:
;
#BGCHANGES:;
#KEYSOUNDS:;
#ATTACKS:;

//---------------dance-single - ----------------
#NOTES:
     dance-single:
     :
     Hard:
     15:
     0.587709,0.764038,0.270656,0.360874,0.378918,456.000000,426.000000,30.000000,40.000000,0.000000,0.000000,0.587709,0.764038,0.270656,0.360874,0.378918,456.000000,426.000000,30.000000,40.000000,0.000000,0.000000:
0000
0000
0000
0000
,
0000
0000
0000
0000
,
0000
0000
0000
0000
,
0000
0000
0000
0000
,
0000
0000
0000
0000
,
2000
0000
0000
0000
,
3002
0000
0000
0000
,
0203
0000
2000
3000
,
0020
0000
0030
0000
0301
0000
1000
0100
,
0020
0000
0100
0000
1030
0010
0001
0200
,
0000
0000
1000
0000
0301
0000
1000
1000
,
0020
0000
0100
0000
0031
0010
1000
0200
,
0000
0000
0001
0000
1300
0000
0001
0001
,
0200
0000
1000
0000
0301
1000
1000
0200
,
0000
0000
0001
0000
1300
0001
0001
0000
,
2002
0000
0000
3003
,
2000
3200
0320
0032
,
1003
0010
1000
0010
1000
0100
1000
0100
0010
0000
0011
0000
0000
0000
0000
0000
,
0001
0010
0001
0010
0001
0100
0001
0100
0010
0000
1010
0000
0000
0000
0000
0000
,
1000
0010
1000
0000
1100
0000
0000
0000
0001
0010
0001
0000
0101
0000
0000
0000
,
1000
0000
0100
0000
0001
0000
0100
0000
1000
0100
1000
0100
0010
0001
1000
0001
,
0200
0000
0000
0001
0000
0000
0301
0000
0000
0000
1000
0000
0100
0000
0010
0000
,
0002
0000
0000
0010
0000
0000
0013
0000
0000
0001
0000
0000
1000
0000
1000
0000
,
0200
0000
0000
1000
0000
0000
1300
0000
0000
0000
0001
0000
0100
0000
0010
0000
,
2000
0000
0000
0010
0000
0000
3010
0000
0000
1000
0000
0000
0001
0000
0001
0000
,
0200
0000
0000
1000
0000
0000
0301
0000
0000
0000
1000
0000
1000
0000
0200
0000
,
0000
0000
0000
0001
0000
0000
1300
0000
0000
0000
0100
0000
0010
0000
0000
0000
,
0002
0000
0000
0010
0000
0000
0010
0000
0000
1000
0000
0000
1003
0000
0001
0000
,
1000
0010
0100
0010
0001
0010
0100
0010
,
1010
0000
1000
0100
0000
1000
0100
0000
0001
0000
0100
0000
1000
0000
1000
0000
,
1100
0000
1000
0010
0000
1000
0010
0000
0100
0000
0001
0000
0010
0000
0010
0000
,
0011
0000
0001
0100
0000
0001
0100
0000
1000
0000
0100
0000
0001
0000
0001
0000
,
0101
0000
0001
0010
0000
0001
0010
0000
0100
0000
1000
0000
0010
0000
0010
0000
,
2010
0000
0000
0001
0000
0000
3001
0000
0000
0000
1000
0000
0100
0000
0010
0000
,
0012
0000
0000
1000
0000
0000
1003
0000
0000
0000
0101
0000
0000
0000
0001
0000
,
1000
0100
0001
0100
1000
0100
0010
0010
,
0001
0100
1000
0100
0001
0100
0010
0010
,
1000
0000
0001
0010
0000
0001
0010
0000
0001
0100
0000
0001
0100
0000
0010
0000
,
0010
0000
0100
0001
0000
0100
0001
0000
0010
0001
0000
0010
0001
0000
1000
0000
,
1000
0000
0100
0001
0000
0100
0001
0000
0100
1000
0000
0100
1000
0000
0001
0000
,
0001
0000
0100
1000
0000
0100
1000
0000
0100
0001
0000
0100
0001
0000
1000
0000
,
1000
0000
1000
0010
0000
1000
0010
0000
1000
0100
0000
1000
0100
0000
0010
0000
,
0010
0000
0100
1000
0000
0100
1000
0000
0010
1000
0000
0010
1000
0000
0001
0000
,
0002
0100
0203
0010
,
0320
0000
0000
0000
1000
0000
0000
0000
1030
0000
0000
0000
0001
0010
0100
1000
,
0100
0001
0100
1000
0001
0100
0010
0010
,
1010
0000
0000
1010
0000
0000
1001
0000
0000
1001
0000
0000
0001
0000
0001
0000
,
0100
1000
0100
0001
1000
0100
0010
0010
,
0011
0000
0000
0011
0000
0000
1001
0000
0000
1001
0000
0000
1000
0000
1000
0000
,
0010
0001
0010
1000
0100
0010
0001
0001
,
0010
1000
0010
0001
0100
0010
1000
1000
,
0002
0000
0000
0010
0000
0000
0010
0000
0000
1000
0000
0000
1003
0000
0001
0000
,
1000
0010
0100
0010
0001
0010
0100
0010
,
1010
0000
1000
0100
0000
1000
0100
0000
1000
0000
0100
0000
0010
0000
0001
0000
,
0011
0000
0001
0100
0000
0001
0100
0000
1000
0000
0100
0000
0001
0000
0001
0000
,
0101
0000
0001
0100
0000
0001
0100
0000
0001
0000
0100
0000
0010
0000
1000
0000
,
1010
0000
1000
0100
0000
1000
0100
0000
0001
0000
0100
0000
1000
0000
1000
0000
,
2100
0000
0000
0001
0000
0000
3001
0000
1000
0000
0100
0000
0010
0000
0001
0000
,
0102
0000
0000
1000
0000
0000
1003
0000
0000
0000
0011
0000
0000
0000
0001
0000
,
1000
0100
0001
0100
1000
0010
0001
0010
,
1000
0010
1000
0010
0100
0001
0100
0001
1000
0100
0010
0001
0010
0100
1000
0001
,
0200
0000
1000
0000
0301
0000
0100
0010
,
2000
0000
0010
0000
3001
0000
1000
1000
,
0200
0000
0001
0000
1300
0000
0100
0010
,
0002
0000
0010
0000
1003
0000
0001
0001
,
0201
0000
0010
0000
0310
0000
1000
1000
,
1200
0000
0010
0000
0310
0000
0001
0001
,
2002
0000
0000
3003
;

//---------------dance-single - ----------------
#NOTES:
     dance-single:
     :
     Medium:
     9:
     0.332520,0.458423,0.054131,0.189459,0.126306,258.000000,252.000000,6.000000,21.000000,0.000000,0.000000,0.332520,0.458423,0.054131,0.189459,0.126306,258.000000,252.000000,6.000000,21.000000,0.000000,0.000000:
// measure 0
0000
0000
0000
0000
,  // measure 1
0000
0000
0000
0000
,  // measure 2
0000
0000
0000
0000
,  // measure 3
0000
0000
0000
0000
,  // measure 4
0000
0000
0000
0000
,  // measure 5
2000
0000
0000
0000
,  // measure 6
3002
0000
0000
0000
,  // measure 7
0203
0000
1000
0000
,  // measure 8
0010
0000
0000
0000
0301
0000
1000
0100
,  // measure 9
0020
0000
0000
0000
0030
0001
0100
0002
,  // measure 10
0000
0000
0000
0003
,  // measure 11
2000
0000
0000
0000
3000
0100
0010
0200
,  // measure 12
0000
0000
0000
0300
,  // measure 13
0020
0000
0000
0000
0030
0001
1000
0020
,  // measure 14
0000
0000
0000
0000
0030
1000
0001
0000
,  // measure 15
2002
0000
0000
3003
,  // measure 16
1000
0100
0010
0001
,  // measure 17
1000
0010
1000
0010
0200
0000
0300
0000
,  // measure 18
0001
0010
0001
0010
0200
0000
0300
0000
,  // measure 19
1000
0100
1000
0000
0001
0100
0001
0000
,  // measure 20
1000
0000
1000
0000
0001
1000
0001
1000
,  // measure 21
0010
0000
0100
0000
0010
0000
1000
0100
,  // measure 22
0010
1000
0010
0001
,  // measure 23
0010
0000
0100
0000
0010
0000
0001
0100
,  // measure 24
0010
0001
0010
1000
,  // measure 25
0001
0000
0010
0000
0001
0000
1000
0100
,  // measure 26
1000
0010
1000
0001
,  // measure 27
0100
0001
0010
0001
,  // measure 28
1000
0100
0010
0001
,  // measure 29
1000
0000
0000
0010
0000
0000
1000
0000
0000
0010
0000
0000
1000
0000
0100
0000
,  // measure 30
0010
0001
1000
1000
,  // measure 31
0001
0000
0000
0010
0000
0000
0001
0000
0000
0010
0000
0000
0001
0000
0100
0000
,  // measure 32
0010
1000
0001
0001
,  // measure 33
1000
0000
0100
0000
0001
0000
0100
0010
,  // measure 34
0001
0000
0100
0000
1000
0000
0100
0010
,  // measure 35
1000
0100
0010
0001
,  // measure 36
0100
0001
0010
0001
,  // measure 37
1000
0000
0000
0100
0000
0000
1000
0000
0000
0100
0000
0000
0010
0000
0010
0000
,  // measure 38
0100
0000
0000
1000
0000
0000
0100
0000
0000
1000
0000
0000
1100
0000
0000
0000
,  // measure 39
0001
0000
0000
0100
0000
0000
0001
0000
0000
0100
0000
0000
0010
0000
0010
0000
,  // measure 40
0100
0000
0000
0001
0000
0000
0100
0000
0000
0001
0000
0000
0101
0000
0000
0000
,  // measure 41
1000
0000
0000
0100
0000
0000
0001
0000
0000
0100
0000
0000
1000
0000
0000
0000
,  // measure 42
0001
0000
0000
0100
0000
0000
1000
0000
0000
0100
0000
0000
0001
0000
0000
0000
,  // measure 43
0100
0001
0010
0001
,  // measure 44
1000
0100
0010
0001
,  // measure 45
0100
0000
0001
0000
0100
0000
0001
0010
,  // measure 46
0200
0000
0000
0300
,  // measure 47
0100
0000
1000
0000
0100
0000
1000
0010
,  // measure 48
0200
0000
0000
0300
,  // measure 49
0001
0000
0100
0000
1000
0000
0100
0010
,  // measure 50
1000
0100
0001
0100
,  // measure 51
0010
0001
0100
0001
,  // measure 52
1000
0010
0100
0001
,  // measure 53
1000
0000
0000
0100
0000
0000
1000
0000
0000
0100
0000
0000
0010
0000
0000
0000
,  // measure 54
0100
0000
0000
1000
0000
0000
0010
0000
0000
1000
0000
0000
1100
0000
0000
0000
,  // measure 55
0001
0000
0000
0100
0000
0000
0001
0000
0000
0100
0000
0000
0010
0000
0000
0000
,  // measure 56
0100
0000
0000
0001
0000
0000
0010
0000
0000
0001
0000
0000
0101
0000
0000
0000
,  // measure 57
1000
0000
0000
0100
0000
0000
0001
0000
0000
0100
0000
0000
1000
0000
0000
0000
,  // measure 58
0001
0000
0000
0100
0000
0000
1000
0000
0000
0100
0000
0000
0001
0000
0000
0000
,  // measure 59
0100
0010
1000
0000
0100
0010
0001
0000
,  // measure 60
0100
0010
0100
0010
1000
0001
1000
0001
,  // measure 61
0020
0000
0000
0001
,  // measure 62
0032
0000
0000
0003
,  // measure 63
2000
0000
0000
0010
,  // measure 64
3020
0000
0000
0000
0030
0000
0100
0010
,  // measure 65
0100
0001
0010
0001
,  // measure 66
1000
0100
0010
0001
,  // measure 67
2002
0000
0000
3003
;
