#VERSION:0.83;
#TITLE:My Ritual;
#SUBTITLE:;
#ARTIST:YUKIYANAGI;
#TITLETRANSLIT:;
#SUBTITLETRANSLIT:;
#ARTISTTRANSLIT:;
#GENRE:;
#ORIGIN:;
#CREDIT:;
#BANNER:;
#BACKGROUND:;
#PREVIEWVID:;
#JACKET:;
#CDIMAGE:;
#DISCIMAGE:;
#LYRICSPATH:;
#CDTITLE:;
#MUSIC:My Ritual.ogg;
#OFFSET:-0.000507;
#SAMPLESTART:56.462391;
#SAMPLELENGTH:11.294117;
#SELECTABLE:YES;
#BPMS:0.000=170.000;
#STOPS:;
#DELAYS:;
#WARPS:;
#TIMESIGNATURES:0.000=4=4;
#TICKCOUNTS:0.000=4;
#COMBOS:0.000=1;
#SPEEDS:0.000=1.000=0.000=0;
#SCROLLS:0.000=1.000;
#FAKES:;
#LABELS:0.000=Song Start;
#BGCHANGES:;
#KEYSOUNDS:;
#ATTACKS:
;

//---------------dance-single - ----------------
#NOTEDATA:;
#CHARTNAME:;
#STEPSTYPE:dance-single;
#DESCRIPTION:;
#CHARTSTYLE:;
#DIFFICULTY:Challenge;
#METER:16;
#RADARVALUES:0.880519,1.112938,0.392033,0.174237,0.958303,566.000000,530.000000,36.000000,16.000000,0.000000,0.000000,0.000000,0.000000,0.000000,0.880519,1.112938,0.392033,0.174237,0.958303,566.000000,530.000000,36.000000,16.000000,0.000000,0.000000,0.000000,0.000000,0.000000;
#CREDIT:Daniel Van Eden;
#NOTES:
0000
0000
0000
0000
,
0000
0000
0000
0000
,
0000
0000
0000
0000
,
0000
0000
0000
0000
,
0000
0000
0000
0000
,
0000
0000
0000
0000
,
0000
0000
0000
0000
,
0000
0000
0000
0000
,
0002
0000
0013
0002
0000
0100
1003
0010
,
2000
0000
3010
2000
0000
0100
3001
0010
,
0002
0000
0103
0010
0100
0001
1000
0010
,
2000
0000
3100
0010
0100
1000
0001
0010
,
0001
0000
0000
0001
0020
0000
0001
0000
0000
0130
1000
0000
0100
0000
0000
0000
,
1000
0000
0000
1000
0020
0000
1000
0000
0000
0130
0001
0000
0010
0000
0001
0000
,
1000
0000
0000
1000
0200
0000
1000
0000
0000
0310
0001
0000
0010
0000
0000
0000
,
0001
0000
0000
0001
0200
0000
0001
0000
0000
0310
1000
0000
0100
0000
0010
0000
,
1001
0000
0000
0000
1000
0000
0010
1000
0010
0000
1000
0000
0100
0010
0001
0010
,
0001
0000
0000
0000
1000
0000
0001
0010
0001
0000
1000
0000
0001
0100
0010
1000
,
0010
0000
0000
0000
1000
0000
0001
0100
0001
0000
0010
0000
0100
1000
0010
1000
,
0010
0000
1000
0000
1100
0000
0100
0000
0010
0000
0011
0000
0001
1000
0001
0000
,
1001
0000
0000
0000
0001
0000
0010
0001
0010
0000
0001
0000
0100
0010
1000
0010
,
1000
0000
0000
0000
0001
0000
1000
0010
1000
0000
0001
0000
1000
0100
0010
0001
,
0010
0000
0000
0000
0001
0000
1000
0100
1000
0000
0010
0000
0100
0001
0010
0001
,
0010
0000
0000
0000
2001
0000
3100
0000
0000
0000
0012
0000
0103
0010
0100
0000
,
2010
0000
0100
0000
0001
0000
3001
0010
,
0012
0100
1000
1003
,
0102
0000
0010
0000
1000
0000
1003
0100
,
2100
0001
0010
3010
,
1000
0001
0100
0100
0010
1000
0001
0001
,
0010
0100
1000
1000
0100
0010
0001
0001
,
1000
0010
1000
0010
0100
0001
0100
0001
0010
0001
0010
0001
1000
0100
1000
0100
,
0010
0001
1000
0001
0100
0010
1000
0100
1000
0001
1000
0001
1000
0100
0010
0000
,
0001
0000
0000
0011
0000
0001
0010
0100
1000
0000
0000
0101
0000
0001
0100
0010
,
1000
0000
0000
0011
0000
0001
0010
0100
1000
0000
0000
1010
0000
0010
1000
0000
,
0001
0000
0000
1010
0000
1000
0010
0100
0001
0000
0000
1100
0000
1000
0100
0010
,
0001
0000
0000
1010
0000
1000
0010
0100
0001
0000
0000
1000
0100
0000
0010
0000
,
0100
0000
0000
0011
0000
0010
0001
1000
0100
0000
0000
1010
0000
0010
1000
0001
,
0100
0000
0000
0011
0000
0010
0001
1000
0100
0000
0000
1010
0000
0010
1000
0000
,
0001
0000
0000
1001
0000
1000
0100
0010
0001
0000
0000
1001
0000
1000
0010
0100
,
0001
0000
0001
0000
1000
0000
0010
0100
0010
0000
1000
0000
1000
0000
0001
0000
,
1001
0000
1000
0010
0000
0010
1000
0100
0010
0000
0001
0100
0000
0100
0001
0010
,
0100
0000
1000
0010
0000
0010
0100
0001
1000
0000
0100
0010
0000
0010
0001
1000
,
0001
0000
1000
0100
0000
0100
1000
0001
1000
0000
0001
0100
0000
0100
0001
1000
,
0001
0000
1000
0010
0000
0010
1000
0001
1000
0000
0001
0010
0100
0000
1000
0000
,
1001
0000
0001
0010
0000
0010
0001
0100
0010
0000
1000
0100
0000
0100
1000
0010
,
0100
0000
0001
0010
0000
0010
0100
1000
0001
0000
0100
0010
0000
0010
1000
0001
,
1000
0000
0010
1000
0010
0000
0100
0001
0010
0000
0001
0010
0001
0000
0010
0100
,
1000
0000
1010
0000
0000
0011
0000
0000
1001
0000
0001
0100
0010
1000
0100
0000
,
0110
0000
0010
0000
0100
0000
0010
0000
0110
0000
0010
0000
1001
0000
1000
0010
,
1000
0000
0000
1000
0001
0000
0100
0100
1000
0000
0000
1000
0001
0000
0010
0010
,
1000
0000
0000
1000
0000
0000
0100
0100
0001
0000
0000
1000
0001
0000
0010
0010
,
1000
0000
0000
0001
1000
0000
0010
0010
0001
0000
0000
0010
0000
0000
0100
1000
,
0001
0000
0000
0101
0000
0000
0100
0001
0100
0000
0000
0100
0010
0000
0010
1000
,
0010
0000
0000
1000
0001
0000
0100
0100
1000
0000
0000
0001
1000
0000
0010
0010
,
0001
0000
0000
0100
0000
0000
0100
0100
1000
0000
0000
0001
1000
0000
0010
0010
,
0001
0010
0100
0000
1000
0100
0010
0000
0001
0010
0100
1000
0001
1000
0010
0000
,
0110
0000
0100
0001
1000
0000
0100
0000
0010
0000
0001
0010
0100
0000
1000
0000
,
1010
0000
0010
1000
0001
0000
0010
0000
0100
0000
1000
0100
0010
0000
0001
0000
,
0011
0000
0010
0001
1000
0000
0010
0000
0100
0000
0001
0100
0010
0000
1000
0000
,
1100
0000
0100
1000
0001
0000
0100
0000
0010
0000
1000
0010
0100
0000
0001
0000
,
0010
0100
1000
1000
0001
0100
0010
0010
,
1000
0001
0010
0010
0100
1000
0001
0001
,
0100
0001
0100
0001
1000
0010
1000
0010
1000
0001
1000
0001
0010
0001
0010
0001
,
1000
0100
0010
0001
1000
0010
1000
0001
0010
0100
1000
0001
1000
0010
0100
0000
;

//---------------dance-single - ----------------
#NOTEDATA:;
#CHARTNAME:;
#STEPSTYPE:dance-single;
#DESCRIPTION:;
#CHARTSTYLE:;
#DIFFICULTY:Beginner;
#METER:3;
#RADARVALUES:0.206906,0.242979,0.043559,0.000000,0.000000,133.000000,129.000000,4.000000,0.000000,0.000000,0.000000,0.000000,0.000000,0.000000,0.206906,0.242979,0.043559,0.000000,0.000000,133.000000,129.000000,4.000000,0.000000,0.000000,0.000000,0.000000,0.000000,0.000000;
#CREDIT:Daniel Van Eden;
#NOTES:
0000
0000
0000
0000
,
0000
0000
0000
0000
,
0000
0000
0000
0000
,
0000
0000
0000
0000
,
0000
0000
0000
0000
,
0000
0000
0000
0000
,
0000
0000
0000
0000
,
0000
0000
0000
0000
,
1000
0000
0000
1000
0000
0000
0000
0000
,
0001
0000
0000
0001
0000
0000
0000
0000
,
1000
0000
0000
1000
0000
0000
0000
0000
,
0001
0000
0000
0001
0000
0000
0000
0000
,
0010
0000
0000
0010
0000
0000
0000
0000
,
0100
0000
0000
0100
0000
0000
0000
0000
,
0010
0000
0000
0010
0000
0000
0000
0000
,
0100
0000
0000
0100
0000
0000
0000
0000
,
1000
0000
0010
0000
,
0100
0100
0100
0000
,
0001
0000
0010
0000
,
0100
0000
0000
0100
0000
0000
0000
0000
,
0010
0000
0001
0000
,
1000
1000
1000
0000
,
0001
0000
0100
0000
,
0010
0000
0000
0010
0000
0000
0000
0000
,
1000
0000
1000
0000
,
0010
0000
0010
0000
,
1000
0000
0001
0000
,
0010
0000
0010
0000
,
0100
0000
0100
0000
,
1000
0000
1000
0000
,
0001
0000
0100
0000
,
0010
0010
0010
0000
,
0100
0100
0100
0000
,
0010
0000
1000
0000
,
0001
0001
0001
0000
,
1000
0000
0010
0000
,
0100
0100
0100
0000
,
0010
0000
1000
0000
,
0001
0000
0010
0000
,
0100
0000
0000
0100
0000
0000
0000
0000
,
1001
1000
1000
0000
,
0010
0000
0100
0000
,
0010
0010
0010
0000
,
1000
0000
0100
0000
,
0010
0010
0010
0000
,
0001
0000
1000
0000
,
0001
0001
0001
0000
,
1000
0000
1001
0000
,
0010
0000
0000
0110
,
0000
0000
0100
0000
,
0001
0000
1000
1000
,
0000
0100
0100
0000
,
0010
0000
0001
0001
,
0000
1000
1000
0000
,
0010
0000
0100
0100
,
0100
0000
0001
0000
,
1001
0000
0010
0000
,
0001
0001
0001
0000
,
1000
0000
0010
0000
,
1000
1000
1000
0000
,
0100
0000
0010
0000
,
0001
0000
1000
0000
,
0100
0100
0100
0000
,
0010
0010
0010
0010
;

//---------------dance-single - ----------------
#NOTEDATA:;
#CHARTNAME:;
#STEPSTYPE:dance-single;
#DESCRIPTION:;
#CHARTSTYLE:;
#DIFFICULTY:Easy;
#METER:6;
#RADARVALUES:0.318916,0.347793,0.076229,0.000000,0.000000,205.000000,198.000000,7.000000,0.000000,0.000000,0.000000,0.000000,0.000000,0.000000,0.318916,0.347793,0.076229,0.000000,0.000000,205.000000,198.000000,7.000000,0.000000,0.000000,0.000000,0.000000,0.000000,0.000000;
#CREDIT:Daniel Van Eden;
#NOTES:
0000
0000
0000
0000
,
0000
0000
0000
0000
,
0000
0000
0000
0000
,
0000
0000
0000
0000
,
0000
0000
0000
0000
,
0000
0000
0000
0000
,
0000
0000
0000
0000
,
0000
0000
0000
0000
,
1000
0000
0000
1000
0000
0000
0010
0000
,
1000
0000
0000
1000
0000
0000
0001
0000
,
1000
0000
0000
1000
0000
0000
0100
0000
,
0010
0000
0000
0010
0000
0000
0010
0000
,
0001
0000
0000
0001
0000
0000
0010
0000
,
0001
0000
0000
0001
0000
0000
1000
0000
,
0001
0000
0000
0001
0000
0000
0100
0000
,
0010
0000
0000
1000
0000
0000
0001
0000
,
1001
0000
0001
0000
,
1000
0010
1000
0000
,
0001
1000
0001
0000
,
0010
0000
0000
0010
0000
0000
0010
0000
,
0100
1000
0100
0010
,
0001
0001
0001
0000
,
0100
0001
0100
0010
,
0010
0000
0000
1000
0000
0000
1000
0000
,
0001
0001
0001
0010
,
1000
1000
1000
0000
,
1000
1000
1000
0100
,
0001
0001
0001
0000
,
1000
0100
1000
0000
,
0001
0010
0001
0000
,
1000
0010
0100
0001
,
1000
0100
0010
0001
,
1000
1001
0001
0010
,
0010
0100
0100
1000
,
0001
1000
1000
0010
,
0010
0100
0100
0001
,
1000
0001
0001
0010
,
0010
0100
0100
1000
,
0001
1000
0100
0010
,
0001
0000
0000
1000
0000
0000
0010
0000
,
0110
0100
0001
1000
,
0100
0010
0001
0001
,
1000
0010
1000
0001
,
0010
0100
1000
1000
,
0010
1000
0001
0100
,
0010
0100
0001
0001
,
1000
0100
0010
0001
,
1000
0000
1001
0001
,
1000
0000
0010
1001
,
0001
0010
0001
1000
,
0001
0100
0010
0100
,
0001
1000
0010
1000
,
0100
0000
0010
1001
,
1000
0010
1000
0001
,
1000
0100
0010
0100
,
1000
0001
1000
0001
,
1001
0000
0001
0100
,
0001
0000
1000
0100
,
1000
0000
0010
1000
,
0010
0000
0100
0001
,
0100
0010
0010
1000
,
0001
0010
0010
0100
,
1000
0001
0100
0010
,
1000
0000
1000
0000
1000
0000
0010
0100
;

//---------------dance-single - ----------------
#NOTEDATA:;
#CHARTNAME:;
#STEPSTYPE:dance-single;
#DESCRIPTION:;
#CHARTSTYLE:;
#DIFFICULTY:Hard;
#METER:14;
#RADARVALUES:0.696948,0.869483,0.163347,0.000000,0.446482,448.000000,433.000000,15.000000,0.000000,0.000000,0.000000,0.000000,0.000000,0.000000,0.696948,0.869483,0.163347,0.000000,0.446482,448.000000,433.000000,15.000000,0.000000,0.000000,0.000000,0.000000,0.000000,0.000000;
#CREDIT:Daniel Van Eden;
#NOTES:
0000
0000
0000
0000
,
0000
0000
0000
0000
,
0000
0000
0000
0000
,
0000
0000
0000
0000
,
0000
0000
0000
0000
,
0000
0000
0000
0000
,
0000
0000
0000
0000
,
0000
0000
0000
0000
,
0001
0000
0100
0100
0000
0010
0100
0001
,
1000
0000
0100
0100
0000
0010
0100
1000
,
0001
0000
0010
0010
0000
0100
1000
0001
,
1000
0000
0010
0010
0000
0100
0001
1000
,
0010
0000
0000
0010
0000
0000
0010
0000
0000
1000
0000
0000
1000
0000
0001
0000
,
0010
0000
0000
0010
0000
0000
0010
0000
0000
0001
0000
0000
0001
0000
1000
0000
,
0100
0000
0000
0100
0000
0000
0100
0000
0000
1000
0000
0000
1000
0000
0001
0000
,
0100
0000
0000
0100
0000
0000
0100
0000
0000
0010
0000
0000
0010
0000
1000
0000
,
1001
0000
0001
1000
0000
0010
1000
0001
,
1000
0000
0100
0001
0100
1000
0001
0010
,
0001
0000
1000
0001
0000
0010
0001
1000
,
0001
0000
0000
0001
0100
0000
0010
0000
1000
0010
1000
0000
0001
0000
0010
0000
,
0100
0000
0010
0001
0000
1000
0001
0010
,
0100
0000
1000
0010
0001
0010
1000
0001
,
0100
0000
0010
1000
0000
0001
1000
0010
,
0100
0000
0000
0100
0010
0000
1000
0000
0001
0010
0001
0000
0100
0000
0001
0000
,
1000
0010
1000
0010
0100
0001
1000
0001
,
0001
0010
0001
0010
0100
1000
0001
0000
,
0001
0100
0001
0100
0010
1000
0001
1000
,
1000
0100
1000
0100
0010
0001
1000
0000
,
0001
0010
0001
0001
1000
0010
0100
0001
,
1000
0010
1000
1000
0001
0010
0100
1000
,
0001
0000
0100
0001
0100
0000
0010
0100
0010
0000
1000
0010
1000
0000
0001
1000
,
0001
0000
0010
0000
0100
0000
1000
0000
0001
1000
0001
1000
0100
0010
0001
0000
,
1001
0000
0000
1000
0000
0010
0100
0000
0001
0000
0000
1000
0000
0100
0010
0000
,
0001
0000
0000
1000
0000
0010
0100
0000
0001
0000
0000
1000
0000
0000
0100
0000
,
1000
0000
0000
0001
0000
0010
0100
0000
1000
0000
0000
0001
0000
0100
0010
0000
,
1000
0000
0000
0001
0000
0010
0100
0000
1000
0000
0000
0010
0000
0000
1000
0000
,
0001
0000
0000
0001
0000
0010
0100
0000
1000
0000
0000
1000
0000
0010
0100
0000
,
0001
0000
0000
0001
0000
0100
0010
0000
1000
0000
0000
1000
0000
0100
0010
0000
,
0001
0000
0000
0001
0000
0000
1000
0010
1000
0000
0000
1000
0000
0000
0001
0010
,
0001
0000
0000
1000
0000
0000
0001
0000
0000
0100
0000
0000
0100
0000
0010
0000
,
1001
0000
0000
0000
0001
0000
0100
0010
0100
0000
0001
0000
1000
0000
0001
0010
,
0001
0000
0100
0000
0010
0000
1000
0100
1000
0000
0010
0000
1000
0000
0100
0010
,
0001
0000
0000
0000
1000
0000
0100
0010
0100
0000
1000
0000
0001
0000
1000
0010
,
1000
0000
0100
0000
0010
0000
0001
0100
0001
0000
0010
0000
0100
0000
1000
0000
,
0001
0000
0000
0101
0000
0100
0001
0000
1000
0000
0000
1100
0000
0100
1000
0000
,
0010
0000
0000
0110
0000
0100
0001
0000
0010
0000
0000
0110
0000
0100
1000
0000
,
0001
0010
1000
0010
0001
0100
1000
0100
,
0010
0000
0100
0000
0000
0110
0000
0000
1001
0000
0000
0001
0010
0100
1000
0000
,
0001
0010
0100
0010
1000
0010
0110
0000
,
0010
0001
1000
0010
1000
0100
1100
0000
,
1000
0100
0010
0100
0001
0100
0110
0000
,
0100
1000
0001
0100
0001
1000
0010
0000
,
0100
0000
0000
0010
0000
0000
0010
1000
0001
0000
0000
0000
1001
0000
0000
0000
,
1000
0010
1000
0100
0001
0100
0010
0000
,
0011
0001
0100
1000
0100
0010
1010
0000
,
1000
0000
0010
0000
0001
0000
0010
0000
1000
0000
0001
1000
0100
0010
0001
0000
,
1000
0000
0000
0010
1000
0000
0001
0000
1000
0000
0100
0000
0010
0000
0001
0000
,
1000
0000
0000
0010
1000
0000
0001
0000
1000
0000
0100
0010
0001
0000
1000
0000
,
0001
0000
0000
0010
0001
0000
1000
0000
0001
0000
0100
0000
0010
0000
1000
0000
,
0001
0000
0000
0010
0001
0000
1000
0000
0001
0000
0100
0010
1000
0000
0001
0000
,
1000
0100
1000
1000
0001
0100
0010
1000
,
0001
0100
0001
0001
1000
0100
0010
0001
,
1000
0000
0010
1000
0010
0000
0100
0010
0100
0000
0001
0100
0001
0000
1000
0001
,
1000
0000
0100
0000
0010
0000
0001
0000
1000
0001
1000
0001
0010
0100
1000
0000
;

//---------------dance-single - ----------------
#NOTEDATA:;
#CHARTNAME:;
#STEPSTYPE:dance-single;
#DESCRIPTION:;
#CHARTSTYLE:;
#DIFFICULTY:Medium;
#METER:11;
#RADARVALUES:0.488486,0.626028,0.054449,0.000000,0.021780,314.000000,309.000000,5.000000,0.000000,0.000000,0.000000,0.000000,0.000000,0.000000,0.488486,0.626028,0.054449,0.000000,0.021780,314.000000,309.000000,5.000000,0.000000,0.000000,0.000000,0.000000,0.000000,0.000000;
#CREDIT:Daniel Van Eden;
#NOTES:
// measure 0
0000
0000
0000
0000
,  // measure 1
0000
0000
0000
0000
,  // measure 2
0000
0000
0000
0000
,  // measure 3
0000
0000
0000
0000
,  // measure 4
0000
0000
0000
0000
,  // measure 5
0000
0000
0000
0000
,  // measure 6
0000
0000
0000
0000
,  // measure 7
0000
0000
0000
0000
,  // measure 8
0001
0000
0000
0001
0000
0000
0010
0000
,  // measure 9
0001
0000
0000
0001
0000
0000
1000
0000
,  // measure 10
1000
0000
0000
1000
0000
0000
0010
0000
,  // measure 11
1000
0000
0000
1000
0000
0000
0100
0000
,  // measure 12
0010
0000
0001
0010
0000
0001
1000
0000
,  // measure 13
0010
0000
1000
0010
0000
1000
0001
0000
,  // measure 14
0100
0000
0001
0100
0000
0001
1000
0000
,  // measure 15
0100
0000
1000
0100
0000
0010
0100
0000
,  // measure 16
0110
0000
0100
1000
0100
0000
0010
0000
,  // measure 17
0001
0000
1000
0010
0000
1000
0001
0000
,  // measure 18
0100
0000
0010
1000
0010
0000
1000
0000
,  // measure 19
0001
0000
0010
0100
0000
1000
0001
0000
,  // measure 20
1001
0000
1000
0100
1000
0000
0001
0000
,  // measure 21
0010
0000
0001
0010
0000
0001
1000
0000
,  // measure 22
0010
0000
0100
0001
0100
0000
0010
0000
,  // measure 23
1000
0000
0100
0010
0000
0001
1000
0000
,  // measure 24
0010
0000
0010
0000
0010
0100
0010
0000
,  // measure 25
1000
0000
1000
0000
0001
1000
0001
0000
,  // measure 26
0010
0000
0010
0000
0010
0100
0010
0000
,  // measure 27
0001
0000
0001
0000
1000
0001
1000
0000
,  // measure 28
0010
1000
0100
0010
,  // measure 29
0001
0100
0010
1000
,  // measure 30
0001
0010
0001
0010
0100
1000
0100
1000
,  // measure 31
0001
1000
0001
1000
0000
0000
0000
0010
,  // measure 32
0100
0000
0010
1000
0010
0000
1000
0100
,  // measure 33
0010
0000
0001
0010
0001
0000
0010
0100
,  // measure 34
1000
0000
0001
0100
0001
0000
0100
0010
,  // measure 35
1000
0000
0100
1000
0100
0000
0010
0001
,  // measure 36
1000
0000
0001
1000
0001
0000
0010
0100
,  // measure 37
1000
0000
0010
0100
0010
0000
1000
0100
,  // measure 38
0010
0000
0001
1000
0010
0000
1000
0001
,  // measure 39
0010
0000
0000
0010
0000
0000
0010
0000
0000
0100
0000
0000
0100
0000
0000
0000
,  // measure 40
1000
0000
0010
0000
1000
0001
1000
0001
,  // measure 41
1000
0000
0100
0000
1000
0010
0100
0000
,  // measure 42
0001
0000
0010
0000
0001
1000
0001
1000
,  // measure 43
0001
0000
0010
0000
0100
1000
0001
0000
,  // measure 44
0100
0000
0010
0000
1000
0010
1000
0010
,  // measure 45
1000
0000
0001
0000
0010
0100
1000
0000
,  // measure 46
0001
0000
0100
0000
0010
1000
0001
0000
,  // measure 47
0010
0000
0100
0000
0000
0100
0000
0000
0100
0000
0000
0100
0000
0000
1000
0000
,  // measure 48
0001
0010
0100
1001
,  // measure 49
1000
0010
1000
0001
1000
0001
0100
0000
,  // measure 50
0001
0010
0001
1000
0001
1000
0100
0000
,  // measure 51
1000
0010
1000
0001
1000
0001
0100
0000
,  // measure 52
0010
1000
0100
1001
,  // measure 53
0001
0010
0100
1000
0001
1000
0010
0000
,  // measure 54
1000
0010
0100
0001
1000
0001
0010
0000
,  // measure 55
0100
1000
0001
1000
0100
0010
0001
1000
,  // measure 56
0001
0000
0100
0010
1000
0010
0100
0000
,  // measure 57
0001
0000
1000
0100
0010
0001
1000
0001
,  // measure 58
1000
0000
0100
0010
0001
0010
0100
0000
,  // measure 59
1000
0000
0001
0100
0010
1000
0001
1000
,  // measure 60
0001
0000
0010
0010
0001
0000
0100
0100
,  // measure 61
0010
0000
0010
0010
1000
0000
0100
0100
,  // measure 62
1000
0100
0010
0001
1000
0100
0010
0001
,  // measure 63
0010
0010
0100
0100
1000
0001
1000
1001
;
