#TITLE:My My My;
#SUBTITLE:;
#ARTIST:C-Show;
#TITLETRANSLIT:;
#SUBTITLETRANSLIT:;
#ARTISTTRANSLIT:;
#GENRE:Hard Dance;
#CREDIT:;
#BANNER:My My My.png;
#BACKGROUND:My My My-bg.png;
#LYRICSPATH:;
#CDTITLE:cdtitle.png;
#MUSIC:My My My.ogg;
#OFFSET:0.849270;
#SAMPLESTART:33.436443;
#SAMPLELENGTH:10.971428;
#SELECTABLE:YES;
#BPMS:0.000000=175.000000
;
#STOPS:260.000000=1.029000
;
#BGCHANGES:3.333=My My My.mp4=1.000=1=0=1===CrossFade==,
99999=-nosongbg-=1.000=0=0=0 // don't automatically add -songbackground-
;
#KEYSOUNDS:;
#ATTACKS:;

//---------------dance-single - ----------------
#NOTES:
     dance-single:
     :
     Challenge:
     16:
     0.836057,0.998351,0.408307,0.424319,0.680512,731.000000,680.000000,51.000000,53.000000,0.000000,0.000000,0.836057,0.998351,0.408307,0.424319,0.680512,731.000000,680.000000,51.000000,53.000000,0.000000,0.000000:
0000
0000
0000
0000
,
0000
0000
0000
0000
,
0000
0000
0000
0000
,
0000
0000
0000
0000
,
0000
0000
0000
0000
,
1000
0100
0010
0001
,
0010
0100
1000
0001
,
1000
0010
0100
0001
,
1000
0000
1000
0000
0001
1000
1001
0000
,
1000
0000
0001
0000
0001
0000
1000
0200
0000
0000
0310
0000
0001
0010
0100
1000
,
0001
0000
0000
0011
0000
0000
2001
0000
0000
0000
0000
0000
3010
0100
0010
0100
,
0001
0000
1000
0000
1000
0000
0001
0200
0000
0000
0310
0000
1000
0010
0100
0001
,
1000
0000
0000
1010
0000
0000
1002
0000
0000
0000
0000
0000
0013
0000
0000
0000
,
0100
0000
0010
0000
0010
0000
0100
1000
0000
1000
0001
0000
1000
0000
0010
0000
,
0100
0001
1000
0200
0010
0000
1300
0001
,
0100
0000
0010
0000
0010
0000
0100
0001
0000
0001
1000
0000
0001
0000
0010
0000
,
0110
1000
0001
2001
0000
0010
3010
0000
,
1000
0000
0000
0000
0010
0000
0000
0000
0001
0000
0000
0000
0001
0000
0010
0001
,
0010
0000
0000
0000
0001
0000
0000
0000
0100
0000
0000
0000
0100
0000
0001
0100
,
0001
0000
0000
0000
0100
0000
0000
0000
1000
0000
0000
0000
1000
0000
0100
1000
,
0100
0000
0000
0000
1000
0000
0000
0000
0010
0000
0000
0000
0010
0000
1000
0010
,
1000
0001
0010
0001
1000
0010
0100
0010
,
0100
0001
1000
0100
0010
0001
0010
0100
2000
0000
0000
0000
3010
0000
0100
0000
,
0001
0000
0000
0000
,
0011
0000
0000
0000
1010
0000
0000
0000
0011
0000
1000
0001
0100
0000
0000
0000
,
2010
0000
3001
0000
1000
0100
0010
0001
1000
0100
0010
0001
2000
0000
0100
0000
,
3002
0000
0100
0000
1003
0010
0100
0001
1000
0010
0100
0001
0020
0000
0001
0000
,
0130
0000
1000
0000
0010
0000
1000
0000
1000
0000
0010
0100
0001
1000
0100
0000
,
2100
0000
3001
0000
0102
0000
1003
0000
2100
0000
3010
0100
0001
0000
0010
0000
,
0012
0000
1003
0000
0001
0100
0010
1000
0001
0100
0010
1000
0002
0000
0100
0000
,
2003
0000
0100
0000
3001
0010
0100
1000
0001
0010
0100
1000
0020
0000
1000
0000
,
0130
0000
0001
0000
1000
0100
0010
0100
0010
0100
1000
0001
1000
0001
0100
0010
,
2000
0000
0000
0000
0010
0000
0010
0000
0010
0000
3001
1000
0100
0000
0010
0000
,
0120
0000
0031
0000
1000
0010
0100
0001
1000
0100
0010
0001
1000
0010
0100
0001
,
0020
0000
0001
0000
0130
0010
0001
1000
0001
0100
0010
1000
0100
0000
0010
0000
,
0012
1003
0000
1000
2010
0000
3001
0001
,
0021
0000
0000
0000
0130
0000
0210
0000
0000
0000
1300
0001
0100
0000
0010
0000
,
0120
0000
1030
0000
0001
0010
0100
1000
0001
0100
0010
1000
0001
0010
0100
1000
,
0020
0000
1000
0000
0130
0010
1000
0001
1000
0100
0010
0001
2000
0000
3020
0000
,
0200
0030
0000
0000
,
0000
0000
0000
0000
0000
0000
0000
0000
0000
0000
1300
0100
0001
0000
0000
0000
,
1001
0000
0000
0000
,
0000
0000
0000
0000
,
0001
0000
0000
0100
0001
1000
0000
0001
,
0000
1000
0000
0100
1000
0001
1000
0000
,
0001
0100
0010
0100
0001
1000
0001
1000
,
0100
0010
0100
2000
0000
3001
0100
0010
,
1000
0100
0010
0100
1000
0001
0100
0010
,
1010
0000
0000
0000
0011
0000
0000
0000
1010
0000
0001
1000
0200
0000
0000
0000
,
0310
0001
0011
1000
1100
0001
0011
1000
,
0001
0100
0010
1020
0000
1030
0100
0010
,
0001
1000
1010
0001
0101
1000
1010
0001
,
1000
0000
0100
0000
0010
0001
0010
0001
1000
0000
0010
0000
0110
0000
0000
0000
,
0001
0100
0010
0000
1000
0100
1000
0100
0010
0000
0010
0000
0100
1000
0001
1000
,
0010
0100
0001
0000
0010
0100
0010
0100
1000
0000
0001
0000
0100
0000
0010
0000
,
1010
0001
0011
1000
1100
0001
0101
0000
,
1000
0010
0100
0001
0010
0100
2000
0000
0000
0000
3100
1000
0010
0000
0000
0000
,
0120
1000
0000
1000
0000
1000
0000
1030
,
2010
0001
0000
0001
0000
0001
0000
3001
,
0021
0100
0000
0100
0000
0100
0000
0130
,
0210
1000
0000
1000
0000
1300
0001
0100
,
0210
0301
1000
1000
1002
0013
0100
0100
,
0210
1300
0001
0001
2001
3010
0100
0100
,
0002
1000
1000
1000
1000
1000
1000
1003
,
0001
0010
0100
1000
0001
1000
0100
0010
0001
1000
0001
0100
0010
0100
0010
0100
,
0010
0000
0000
0000
0010
0000
0000
0000
0010
0000
0000
0000
0010
0000
0100
0010
,
1000
0000
0010
1000
0001
0010
0100
1000
0001
0010
0100
0002
0000
0103
0010
0000
,
0001
0000
1000
0001
1000
0010
0100
0001
1000
0010
0100
2000
0000
3100
0010
0000
,
1000
0000
0001
1000
0001
0010
0100
1000
0001
0010
0100
0002
0000
0103
0010
0000
,
0001
0000
1000
0001
1000
0010
0100
0001
1000
0010
1000
0200
0000
0310
0001
0100
,
0010
0000
1000
0001
1000
0100
0010
0001
1000
0100
0010
2000
0000
3010
0100
0000
,
1000
0000
0001
1000
0001
0100
0010
1000
0001
0100
0010
0002
0000
0013
0100
0000
,
0001
0000
1000
0001
1000
0100
0010
0001
1000
0100
0010
2000
0000
3010
0100
0000
,
1000
0000
0001
0000
0100
0010
0100
0010
0100
0010
1000
0001
1000
0001
1000
0001
,
0010
0100
1000
0001
0100
0000
0010
0000
0010
0000
1000
0010
1000
0001
0010
0000
,
0100
0000
0100
0000
0001
0000
0100
0000
0010
0000
0001
1000
0000
0001
0100
0010
,
1000
0000
0001
1000
0100
0000
0010
0000
0010
0000
0001
0010
0001
1000
0010
0000
,
0100
0000
0100
0000
1000
0000
0100
0000
0010
0000
1000
0001
0000
1000
0100
0000
,
0120
0000
0031
1000
0010
0000
0100
0000
0100
0000
0010
0100
0001
1000
0100
0000
,
0010
0000
0010
0000
1000
0000
0010
0000
0100
0000
1000
0001
0000
1000
0010
0100
,
0001
1000
0100
0010
0001
0010
0100
1000
,
0001
0010
0100
1000
0001
0000
1000
0010
0100
0000
0210
0000
0000
0000
0000
0000
,
0301
0000
1000
0100
0010
0100
1000
0001
,
1000
0000
0010
0000
0100
0001
1000
0100
0010
0001
0010
0100
2000
0000
0000
0000
,
3010
0010
1001
0000
0000
0000
0000
0000
,
0000
0000
0000
0000
0011
0000
0000
0000
1010
0000
0000
0000
0011
0000
1000
0001
,
0100
0000
0000
0000
;

//---------------dance-single - ----------------
#NOTES:
     dance-single:
     :
     Hard:
     13:
     0.606170,0.688518,0.152114,0.464349,0.144108,530.000000,511.000000,19.000000,58.000000,0.000000,0.000000,0.606170,0.688518,0.152114,0.464349,0.144108,530.000000,511.000000,19.000000,58.000000,0.000000,0.000000:
0000
0000
0000
0000
,
0000
0000
0000
0000
,
0000
0000
0000
0000
,
0000
0000
0000
0000
,
0000
0000
0000
0000
,
1000
0100
0010
0001
,
0010
0100
1000
0001
,
1000
0010
0100
0001
,
1000
0000
1000
0000
0001
1000
0001
0000
,
1000
0000
0100
0000
0010
0000
0002
1000
0000
0000
0013
0000
0100
0000
1000
0000
,
0001
0000
0000
1001
0000
0000
0202
0000
0000
0000
0000
0000
0303
0000
0000
0000
,
0001
0000
0100
0000
0010
0000
2000
0001
0000
0000
3010
0000
0100
0000
0001
0000
,
1000
0000
0000
1001
0000
0000
2200
0000
0000
0000
0000
0000
3300
0000
0000
0000
,
1000
0100
0010
0000
0100
0010
0001
0000
,
0100
0010
1000
0000
0001
0100
0010
0000
,
1000
0100
0010
0001
0010
0100
1000
0001
,
0100
0010
0100
0220
0000
0300
0030
0000
,
1000
0000
0010
0000
0001
0000
0010
0001
,
0010
0000
0001
0000
0100
0000
0001
0100
,
0001
0000
0100
0000
1000
0000
0100
1000
,
0100
0000
1000
0000
0010
0000
1000
0010
,
1000
0000
0001
0010
0001
0000
1000
0010
,
0100
0001
0010
0100
2000
0000
3001
0100
,
0020
0000
0000
0000
,
0100
0000
0100
0000
0100
1030
1010
0000
,
1001
0000
1000
0100
0010
0001
2000
3200
,
0302
0203
1300
0010
0100
0001
2000
0010
,
3200
0000
0310
0001
1000
0010
0100
0100
,
0001
0000
0010
0000
0001
0000
0010
0000
0100
0000
1000
0001
1000
0000
0000
0000
,
1001
0000
0001
0100
0010
1000
0002
0203
,
2300
3200
0301
0010
0100
1000
0002
0010
,
0103
0000
0000
0000
0001
0000
1000
0010
1000
0000
0001
0010
0001
0000
1000
0000
,
1001
0000
0001
0100
0001
1000
0100
0000
,
0020
2030
3010
0001
1000
0100
0010
0001
,
0200
2300
3100
0001
1000
0010
0200
0010
,
0301
0001
0000
1000
0200
0000
0310
0001
,
2000
0000
0000
0000
3001
0000
0002
0000
0000
0000
0103
0010
0100
0000
0000
0000
,
0020
0032
0013
1000
0001
0100
0010
1000
,
0200
0302
0103
1000
0001
0010
0200
2300
,
0002
3000
0000
0000
,
0000
0000
0000
0000
0000
0000
0000
0000
0000
0000
1003
0001
0100
0000
0000
0000
,
0110
0000
0000
0000
,
0000
0000
0000
0000
,
0001
0000
0000
1000
0010
0100
0000
0001
,
0000
0001
0000
0001
0010
0100
1000
0000
,
0010
0000
0100
0001
0001
0100
0001
0001
,
1000
0000
0100
1000
1000
0100
1000
1000
,
0001
0000
1000
0010
0010
0100
0001
0001
,
2000
3000
0002
0003
2000
3001
1001
0000
,
1000
0100
0001
0100
1000
0100
0001
0100
,
1000
0001
0100
0020
0000
0100
0100
1030
,
0001
0100
1000
0100
0001
0100
1000
0100
,
0001
1000
0100
0020
0000
0100
0100
0031
,
1000
0010
1000
0000
0010
0000
0100
0000
0001
0000
0001
0000
1000
0000
1000
0000
,
0001
0010
0001
0000
1000
0000
0010
0000
1000
0000
0100
0000
0001
0000
0000
0000
,
0100
0010
0100
0010
0001
1000
0010
0100
,
0001
1000
0001
0000
0010
0000
0020
0000
0000
0000
0100
0000
0031
0000
0000
0000
,
1002
0100
0100
0103
,
2001
0100
0100
3100
,
0012
1000
1000
1003
,
2010
0001
0001
3001
,
1000
0100
1000
0000
0100
0001
0100
0000
,
0001
0010
0001
0000
0010
1000
0010
0000
,
1000
0100
0010
0001
1000
0010
0100
0001
,
0010
1000
0010
0001
1000
0010
0100
0010
,
0200
0000
0010
0000
0010
0000
0010
0301
,
1001
0000
0000
0000
0001
0000
0010
0000
0100
0000
0001
0100
0000
0001
0100
0000
,
0010
0000
0001
0000
1000
0000
0010
0000
0100
0000
1000
0100
0000
1000
0100
0000
,
0010
0000
1000
0000
0001
0000
0010
0000
0100
0000
0001
0100
0000
0001
0100
0000
,
0010
0000
0001
0000
1000
0000
0010
0000
0100
0000
0001
0020
0000
0000
0130
0010
,
0100
0000
1000
0000
0001
0000
0100
0000
0010
0000
0001
0010
0000
0001
0010
0000
,
0100
0000
0001
0000
1000
0000
0100
0000
0010
0000
1000
0010
0000
1000
0010
0000
,
0100
0000
1000
0000
0001
0000
0100
0000
0010
0000
0001
0010
0000
0001
0010
0000
,
0100
0001
0010
0100
0010
0100
0010
0100
,
1000
0000
0000
0000
0001
0000
0100
0000
0010
0000
2000
0001
0000
0000
3010
0100
,
0010
0000
0100
0000
0001
0000
1000
0000
0002
0000
0010
0000
0000
0000
1003
0010
,
0100
0000
0001
0000
1000
0000
0100
0000
0010
0000
0002
1000
0000
0000
0013
0100
,
0010
0100
1000
0001
0200
0010
0000
0301
,
1001
0000
0000
0000
0001
0000
0010
0000
0100
0000
2000
0001
0000
0000
3100
0010
,
0100
0000
0010
0000
0001
0000
1000
0000
0002
0000
0100
0000
0000
0000
1003
0100
,
0010
0001
0010
0100
1000
0001
0100
0010
,
0100
0010
0100
0010
0100
0000
0000
0000
0000
0000
2002
0000
0000
0000
0000
0000
,
3003
0000
0001
0010
0001
1000
0010
1000
,
0001
0010
0100
1000
0010
0100
0002
0000
,
1003
0100
0020
0000
0000
0000
0000
0000
,
0000
0000
0100
0000
0100
0000
0100
0031
,
0011
0000
0000
0000
;

//---------------dance-single - ----------------
#NOTES:
     dance-single:
     :
     Medium:
     10:
     0.428894,0.550814,0.208157,0.408307,0.000000,375.000000,349.000000,26.000000,51.000000,0.000000,0.000000,0.428894,0.550814,0.208157,0.408307,0.000000,375.000000,349.000000,26.000000,51.000000,0.000000,0.000000:
0000
0000
0000
0000
,
0000
0000
0000
0000
,
0000
0000
0000
0000
,
0000
0000
0000
0000
,
0000
0000
0000
0000
,
1000
0100
0010
0001
,
0010
0100
1000
0001
,
1000
0010
0100
0001
,
1000
0000
1000
0000
0001
1000
0001
0000
,
0021
0000
0000
0100
0000
0000
0031
1000
,
0002
0000
0000
0200
0000
0000
0303
0000
,
1020
0000
0000
0100
0000
0000
1030
0001
,
2000
0000
0000
0200
0000
0000
3300
0000
,
1000
1000
0010
0100
,
0001
0001
0010
0100
,
1000
0010
0100
0001
,
1000
0100
0020
0002
0000
0030
0003
0000
,
1000
0010
0001
0001
,
0010
0001
0100
0100
,
0001
0100
1000
1000
,
0100
1000
0010
0010
,
1000
0010
0001
0100
,
1000
0100
0010
0001
2000
0000
3002
0000
,
0103
0000
0000
0000
,
0100
0000
0100
0000
0100
0010
1000
0000
,
0002
0000
1003
0100
0010
0001
2000
0000
,
3002
0000
0013
0100
1000
0001
0200
0000
,
0320
0000
1030
0000
0001
1000
0001
0000
,
0020
0230
0320
0130
,
2000
0000
3001
0100
0010
1000
0002
0000
,
2003
0000
3010
0100
0001
1000
0200
0000
,
0320
0031
0100
0010
,
0220
0000
0330
0110
,
2000
0000
3001
0010
0100
1000
0100
0010
,
0002
0000
1003
0100
0010
0001
0100
0010
,
2000
0000
3002
0000
,
0023
0000
0000
0230
0000
0000
1300
0000
,
0002
0000
1003
0010
0100
0001
0100
0010
,
2000
0000
3001
0100
0010
1000
0200
0000
,
0020
0300
0000
0000
,
0000
0000
0000
0130
,
0110
0000
0000
0000
,
0000
0000
0000
0000
,
0001
0000
1000
0000
,
0001
0001
1000
0000
,
0001
0100
0001
0100
,
0010
1000
0001
0001
,
1000
0100
1000
0100
,
0010
0000
0010
0000
0010
0001
1000
0000
,
0001
0100
0001
0000
0100
0001
0100
0000
,
0001
0100
0010
1000
0002
0000
0100
0000
,
1003
0100
1000
0000
0100
1000
0100
0000
,
1000
0100
0010
0001
2000
0000
0100
0000
,
3010
1000
0100
0000
0010
0001
0100
0000
,
0010
0000
0010
0000
0100
0001
1000
0000
,
0100
0010
0100
0010
0001
1000
0010
0000
,
0100
0010
1000
0200
0000
0000
0310
0000
,
0011
0000
0000
0000
,
1010
0000
0000
0000
,
1100
0000
0000
0000
,
0101
0000
0000
0000
,
0011
0000
1010
0000
,
1100
0000
0101
0000
,
0011
1010
1100
0101
,
0001
0100
0010
1000
0002
0000
2003
0000
,
3100
0000
0100
0000
0100
0000
0100
0010
,
0001
0000
1000
0010
0100
0001
1000
0000
,
1010
0000
0001
0010
0100
1000
0001
0000
,
0011
0000
1000
0010
0100
0001
1000
0000
,
1010
0000
0001
0010
0100
0000
1000
0010
,
0100
0000
0001
1000
0100
0010
0100
0000
,
0011
0000
1000
0001
0100
0010
0100
0000
,
1010
0000
0001
1000
0100
0010
0100
0000
,
0011
0000
2000
0000
0000
3002
0000
0000
,
1003
0000
0001
0100
0010
1000
0020
0000
,
0001
0000
1030
0010
0100
0001
2000
0000
,
3001
0000
1000
0100
0010
0001
0020
0000
,
1000
0000
0031
0010
0100
1000
0001
0000
,
1001
0000
1000
0010
0100
0001
0200
0000
,
1000
0000
0301
0100
0010
1000
0002
0000
,
1003
0000
0001
0010
0100
0000
1000
0010
,
0100
0000
0101
0000
0000
2200
0000
0000
,
3300
1000
0010
0001
,
0100
0000
1000
0100
0010
0001
2000
0000
,
3002
0103
0000
0000
,
0000
0000
0100
0000
0100
0000
0100
0010
,
1000
0000
0000
0000
;

//---------------dance-single - ----------------
#NOTES:
     dance-single:
     :
     Easy:
     7:
     0.297366,0.344259,0.096072,0.232175,0.000000,260.000000,248.000000,12.000000,29.000000,0.000000,0.000000,0.297366,0.344259,0.096072,0.232175,0.000000,260.000000,248.000000,12.000000,29.000000,0.000000,0.000000:
0000
0000
0000
0000
,
0000
0000
0000
0000
,
0000
0000
0000
0000
,
0000
0000
0000
0000
,
0000
0000
0000
0000
,
1000
0100
0010
0000
,
0001
0010
0100
0000
,
1000
0010
0100
0000
,
0001
1000
1001
0000
,
0001
0000
0000
0002
0000
0000
0003
0000
,
0010
0000
0000
0200
0000
0000
0300
0000
,
1000
0000
0000
2000
0000
0000
3000
0000
,
0010
0000
0000
0200
0000
0000
0300
0000
,
0001
0010
0100
0000
,
1000
0010
0100
0000
,
0001
0010
0100
1000
,
0002
0000
0000
2000
0000
0000
3003
0000
,
1000
0010
1000
0000
,
0010
0001
0010
0000
,
0001
0100
0001
0000
,
0100
1000
0100
0000
,
1000
0010
0001
0100
,
2000
0000
3001
1000
,
0001
0000
0000
0000
,
0001
0001
0001
1000
,
0001
0010
0100
1000
,
0001
1000
0100
0010
,
0001
0000
0010
0001
,
0100
0100
0100
0010
,
1000
0010
0100
0001
,
1000
0001
0100
0010
,
1000
0000
0010
1000
,
0100
0000
0100
0010
,
0001
0100
0010
1000
,
0001
0010
0100
1000
,
0002
0000
0203
0000
,
0320
0000
1030
0001
,
1000
0100
0010
0001
,
1000
0010
0100
0001
,
0020
0000
0000
0000
,
0000
0000
0000
0130
,
0110
0000
0000
0000
,
0000
0000
0000
0000
,
1000
0000
0001
0000
,
1000
1000
0001
0000
,
1000
1000
0010
0000
,
0100
0100
0001
0000
,
1000
1000
0001
0001
,
1000
0100
0010
0000
,
0001
0100
0001
0100
,
0010
1000
0200
0300
,
1000
0100
1000
0100
,
0010
0001
0200
0300
,
0001
0100
0010
1000
,
0100
0010
0002
0003
,
1000
1000
0001
0001
,
0100
0010
0220
0330
,
1010
0000
0000
0000
,
0101
0000
0000
0000
,
0011
0000
0000
0000
,
1100
0000
0000
0000
,
0001
0000
0001
0000
,
1000
0000
1000
0000
,
0001
0100
0010
1000
,
0100
0010
0001
0100
,
0010
0010
0010
0010
,
1001
1000
0100
0020
,
0100
0031
0100
0020
,
0100
1030
0100
0020
,
0100
0031
1000
1001
,
0000
1000
0010
0200
,
0010
0301
0010
0200
,
0010
1300
0010
0200
,
0010
0000
0302
0000
0000
2003
0000
0000
,
3001
1000
0100
0010
,
0001
0010
0100
2000
,
0100
3001
0100
0010
,
1000
0010
0100
0001
,
1001
0001
0010
0100
,
1000
0100
0010
0002
,
0100
1003
1000
0001
,
0001
0000
1001
0000
0000
0220
0000
0000
,
0330
0001
0010
1000
,
0100
0002
0000
1003
,
0001
1000
0000
0000
,
0000
1000
1000
1000
,
0001
0000
0000
0000
;

//---------------dance-single - ----------------
#NOTES:
     dance-single:
     :
     Beginner:
     3:
     0.179564,0.240281,0.016012,0.064048,0.000000,157.000000,155.000000,2.000000,8.000000,0.000000,0.000000,0.179564,0.240281,0.016012,0.064048,0.000000,157.000000,155.000000,2.000000,8.000000,0.000000,0.000000:
// measure 0
0000
0000
0000
0000
,  // measure 1
0000
0000
0000
0000
,  // measure 2
0000
0000
0000
0000
,  // measure 3
0000
0000
0000
0000
,  // measure 4
0000
0000
0000
0000
,  // measure 5
1000
0000
0000
0000
,  // measure 6
0100
0000
0000
0000
,  // measure 7
0010
0000
0000
0000
,  // measure 8
0001
0000
0000
0000
,  // measure 9
2000
0000
0000
3000
0000
0000
0000
0000
,  // measure 10
0020
0000
0000
0030
0000
0000
0000
0000
,  // measure 11
0200
0000
0000
0300
0000
0000
0000
0000
,  // measure 12
0002
0000
0000
0003
0000
0000
0000
0000
,  // measure 13
1000
0000
1000
0000
,  // measure 14
0001
0000
0001
0000
,  // measure 15
1000
0000
0001
0000
,  // measure 16
2002
0000
0000
3003
0000
0000
0000
0000
,  // measure 17
1000
0000
1000
0000
,  // measure 18
0010
0000
0010
0000
,  // measure 19
0001
0000
0001
0000
,  // measure 20
0100
0000
0100
0000
,  // measure 21
1000
0000
0010
0000
,  // measure 22
0001
0000
0100
0000
,  // measure 23
1000
0000
0000
0000
,  // measure 24
1000
1000
1000
0000
,  // measure 25
0001
0000
0010
0000
,  // measure 26
0100
0000
1000
0000
,  // measure 27
0001
0000
1000
0000
,  // measure 28
0001
0001
0001
0000
,  // measure 29
1000
0000
0010
0000
,  // measure 30
0100
0000
0001
0000
,  // measure 31
1000
0000
0001
0000
,  // measure 32
0010
0000
0000
0000
,  // measure 33
0001
0001
0001
0000
,  // measure 34
1000
1000
1000
0000
,  // measure 35
0001
0000
0001
0000
,  // measure 36
0100
0000
0010
0000
,  // measure 37
1000
1000
1000
0000
,  // measure 38
0001
0001
0001
0000
,  // measure 39
0010
0000
0000
0000
,  // measure 40
0000
0000
0000
0000
,  // measure 41
1001
0000
0000
0000
,  // measure 42
0000
0000
0000
0000
,  // measure 43
0000
0000
0000
0000
,  // measure 44
0000
0000
0000
0000
,  // measure 45
1000
0000
0010
0000
,  // measure 46
1000
0000
0000
0000
,  // measure 47
0001
0000
0010
0000
,  // measure 48
0001
0000
0000
0000
,  // measure 49
0001
0001
0001
0000
,  // measure 50
0100
0000
0010
0000
,  // measure 51
1000
1000
1000
0000
,  // measure 52
0010
0000
0100
0000
,  // measure 53
0001
0001
0001
0000
,  // measure 54
0010
0000
0100
0000
,  // measure 55
1000
1000
1000
0000
,  // measure 56
0100
0000
0010
0000
,  // measure 57
0001
0000
0000
0000
,  // measure 58
0001
0000
0000
0000
,  // measure 59
1000
0000
0000
0000
,  // measure 60
1000
0000
0000
0000
,  // measure 61
0001
0000
0001
0000
,  // measure 62
1000
0000
1000
0000
,  // measure 63
0001
0000
0100
0000
,  // measure 64
1000
0000
0010
0000
,  // measure 65
0001
0001
0001
0001
,  // measure 66
0000
0010
0010
0010
,  // measure 67
0000
0100
0100
0100
,  // measure 68
0000
0010
0010
0010
,  // measure 69
0000
0001
0000
1000
,  // measure 70
0000
0010
0010
0010
,  // measure 71
0000
0100
0100
0100
,  // measure 72
0000
0010
0010
0010
,  // measure 73
0000
2000
0000
3000
,  // measure 74
0000
1000
1000
1000
,  // measure 75
0000
0010
0000
1000
,  // measure 76
0000
0001
0001
0001
,  // measure 77
0000
0010
0000
0001
,  // measure 78
0000
1000
1000
1000
,  // measure 79
0000
0100
0000
1000
,  // measure 80
0000
0001
0001
0001
,  // measure 81
0000
0000
0200
0000
0000
0300
0000
0000
,  // measure 82
0000
0001
0000
0010
,  // measure 83
0000
1000
0000
0100
,  // measure 84
0000
0001
0000
0000
,  // measure 85
0000
0001
0001
0001
;
