#TITLE:Mr.X;
#SUBTITLE:;
#ARTIST:ルゼ;
#TITLETRANSLIT:;
#SUBTITLETRANSLIT:;
#ARTISTTRANSLIT:Luze;
#GENRE:;
#CREDIT:;
#MUSIC:Mr. X.ogg;
#BANNER:Mr. X-bn.png;
#BACKGROUND:Mr. X-bg.png;
#CDTITLE:;
#SAMPLESTART:29.330;
#SAMPLELENGTH:12.000;
#SELECTABLE:YES;
#OFFSET:-0.530;
#BPMS:0.000=200.000
,8.000=400.000
,24.000=200.000
,32.000=400.000
,48.000=100.000
,64.000=200.000
,95.000=400.000
,159.000=200.000
,174.500=400.000
,239.000=100.000
,251.000=50.000
,253.000=200.000
,261.000=400.000
,277.000=200.000
,285.000=400.000
,297.000=799.999
,301.000=400.000
,358.667=800.000
,359.333=400.000
,359.667=200.000
,360.000=400.000
,429.000=200.000
,437.000=400.000
,453.000=200.000
,461.000=400.000
,475.000=800.000
,476.000=400.000
,476.500=200.000
,503.000=400.000
,507.000=100.000
,508.000=400.000
,556.000=800.000
,580.000=50.000
;
#STOPS:77.000=0.150
,78.500=0.150
,174.500=0.075
,297.000=0.050
,297.667=0.050
,298.333=0.050
,299.000=0.050
,299.667=0.050
,300.333=0.050
,503.000=0.050
,503.333=0.050
,503.667=0.050
,504.000=0.050
,504.333=0.050
,504.667=0.050
,505.000=0.050
,505.333=0.050
,505.667=0.050
,506.000=0.050
,506.333=0.050
,506.667=0.050
;
#DISPLAYBPM:100.000:800.000;
#BGCHANGES:;
#FGCHANGES:;

//--------------- dance-single - Peter ----------------
#NOTES:
     dance-single:
     Peter:
     Beginner:
     11:
     0,0,0,0,0:
0000
0000
0000
0000
,
0000
0000
0000
0000
,
0000
0000
0000
0000
,
0000
0000
0000
0000
,
0000
0000
0000
0000
,
0000
0000
0000
0000
,
100M
0100
0010
0001
,
1000
0010
0100
0001
,
10M0
0000
0100
0000
,
1000
0000
0000
0010
0000
0000
0100
0000
,
0001
0000
0010
0000
,
0001
0000
0000
0100
0000
0000
0010
0000
,
100M
0000
0001
0000
,
0010
0000
0100
0000
,
1000
0000
0010
0000
,
0100
0000
0000
0000
0000
0000
0000
0000
0000
0000
0000
0000
0000
0000
0000
0000
0001
0000
0000
0000
0000
0000
0000
0000
0000
0000
0000
0000
2000
3000
0000
0000
,
0M01
0010
0001
0010
,
0100
1000
0100
1000
,
0010
0100
0010
0100
,
0001
0000
0000
1000
0000
0000
0001
0000
,
0100
0001
0100
0010
,
1000
0010
1000
0100
,
0010
0100
0010
0001
,
0000
1000
0000
0000
0001
0000
20M0
0000
,
3000
1000
0200
0300
,
0100
0020
0030
0010
,
0002
0003
0001
2000
,
3000
0000
0000
0002
,
0003
0001
0200
0300
,
0100
0020
0030
0010
,
2000
3000
1000
0002
,
0003
2000
0000
3002
,
0003
0001
0020
0030
,
0010
0200
0300
0100
,
2000
3000
1000
0002
,
0003
0000
2000
3200
,
0300
0020
0030
0002
,
0003
0020
0000
0030
0200
0000
2300
0000
,
0000
3000
0002
0203
,
0000
0320
0000
103M
,
0000
0100
0000
0001
,
0000
0100
1000
0001
,
0000
0100
0000
1000
,
0000
0000
0000
0000
0000
0000
0000
0000
0100
0000
0000
0000
0000
0000
0000
0000
0000
0000
0002
0003
0000
0000
0000
0000
20M0
0000
0000
0000
0000
0000
0000
0000
,
3000
1000
0020
0030
,
0010
0200
0300
0100
,
0002
0003
0001
2000
,
3000
0000
0000
0002
,
0003
0001
0020
0030
,
0010
0200
0300
0100
,
2000
3000
1000
0002
,
0003
2000
0000
3002
,
0003
0001
0200
0300
,
0100
0020
0030
0010
,
2000
3000
1000
0002
,
0003
0000
2000
3200
,
0300
0020
0030
0002
,
0003
0200
0000
0300
0020
0000
2030
0000
,
0000
3000
0200
0320
,
0000
0032
0000
1M03
,
0000
0010
0000
0100
,
0000
0001
0000
0010
,
0000
0100
0000
0000
,
0000
0000
100M
0000
0000
0010
0000
0000
,
0100
0001
0000
0010
,
0100
100M
0000
0010
,
0000
0100
0000
0010
,
0000
1000
0000
0100
,
0000
0010
0000
0001
,
0000
0000
1M00
0000
0000
0100
0000
0000
,
0010
0001
0000
0100
,
0010
100M
0000
0100
,
0000
0010
0000
0100
,
0000
1000
0000
0010
,
0000
0200
0000
0000
,
0000
0301
0000
0010
,
0000
0100
0000
0001
,
0000
0100
0000
1000
,
0000
0010
0000
0100
,
0000
0001
0000
0010
,
0000
1000
0000
0010
,
0000
0100
0000
1000
,
0000
0010
0000
0100
,
0000
0001
0000
1000
,
0000
0100
0000
0001
,
0000
0100
0000
0010
,
0000
0001
0000
1000
,
0000
0010
0000
0100
,
0000
1000
0000
0100
,
0000
0000
0000
0001
0000
0000
0000
0000
20M2
0000
0000
0000
,
30M3
0002
0000
0000
,
0003
1000
0000
0100
,
0000
0001
0000
0100
,
0000
1000
0000
0001
,
0000
0100
0000
1000
,
0000
0100
0000
0001
,
0000
1000
0000
0010
,
0000
0001
0000
0010
,
0000
1000
0000
0001
,
0000
0010
0000
1000
,
0000
0010
0000
0001
,
0000
0100
0000
0010
,
0000
0001
0000
0010
,
0000
1000
0000
0100
,
0000
0001
0000
0100
,
0000
1000
0000
0010
,
0000
0100
0000
0000
,
0000
M001
0000
0000
,
0000
0000
0000
0000
,
0000
1M00
0000
0010
,
0000
0100
0000
0010
,
0000
0001
0000
0010
,
0000
0100
0000
0001
,
0000
10M0
0000
0000
,
0000
0000
0000
0000
,
0000
00M1
0000
0100
,
0000
1000
0000
0100
,
0000
0002
0000
0000
,
0000
0000
0000
00M3
,
0000
1000
0000
0000
,
0000
0000
0000
0000
,
0000
0100
0010
0000
0000
0000
0000
0000
,
0000
0000
0000
0000
0000
0000
0000
0000
0000
0000
0000
0000
0001
0000
0000
0100
,
0000
0010
1000
0000
0000
0000
0000
0000
,
0000
0000
0000
0000
0000
0000
0000
0001
,
0000
0010
0100
0000
0000
1000
0002
0000
,
0000
0000
0000
0003
,
10M0
0100
1000
0000
,
0001
0000
0100
0010
,
0100
0001
0000
1000
,
0200
0000
0320
0000
,
0031
0000
0100
0000
,
1000
0000
0100
0000
,
0001
1000
0100
1000
,
0001
0000
0100
0000
,
0010
1000
0001
0000
,
0010
0100
1000
0000
,
0010
0100
0001
0000
,
0100
0010
1000
0000
,
0002
0000
0000
0000
,
0000
0000
0000
0000
,
0000
0000
0000
0000
,
0000
0000
0000
0000
,
0000
0000
0000
0000
,
0000
0000
0000
0000
,
1003
0000
0000
0000
;

//--------------- dance-single - Peter ----------------
#NOTES:
     dance-single:
     Peter:
     Easy:
     14:
     0,0,0,0,0:
0000
0000
0000
0000
,
0000
0000
0000
0000
,
0000
0000
0000
0000
,
0000
0000
0000
0000
,
0000
0000
0000
0000
,
0000
0000
0000
0000
,
100M
0000
0100
1000
0000
0010
0100
0000
0001
0010
0000
0001
,
1000
0000
0010
1000
0000
0100
0010
0000
0001
0100
0000
0001
,
10M0
0100
0010
1000
,
0010
0000
0000
0001
0000
0000
0100
0000
,
0010
0001
0010
1000
,
0001
0000
0000
0010
0000
0000
0100
0000
,
100M
0010
0100
0001
,
0010
1000
0010
0100
,
0010
0001
0100
0010
,
1000
0000
0000
0000
0000
0000
0000
0000
0100
0000
0000
0000
0000
0000
0000
0000
0010
0000
0000
0000
0000
0000
0000
0000
0001
0000
0000
0000
2000
3000
0000
0000
,
0M11
0000
0000
0000
0101
0000
0000
0000
0110
0000
0000
0010
0000
0000
1000
0000
,
1001
0001
0010
0100
1000
0010
0100
0001
,
0101
0000
0000
0000
0110
0000
0000
0000
1100
0000
0000
0100
0000
0000
0001
0000
,
1100
1000
0000
0101
0000
0000
1100
0000
,
1010
0000
0000
0000
0110
0000
0000
0100
0000
0000
0001
0000
1001
0000
1000
0000
,
0010
0100
0001
0010
0100
1000
0001
0001
,
0001
0000
0100
0100
0100
0010
0010
0010
,
1000
1000
0001
0010
0100
1000
00M1
0000
,
0100
0100
0001
0010
,
0010
0001
1000
1000
,
0001
0010
0010
0001
,
0100
0010
0000
1000
,
0100
0100
1000
0010
,
0010
1000
0001
0001
,
1000
0010
0010
1000
,
0100
0010
0001
1000
,
0010
0010
1000
0100
,
0100
1000
0001
0001
,
1000
0100
0100
1000
,
0010
0100
0000
0001
,
0010
0100
0010
1000
,
0000
0010
0000
0000
0001
0000
1000
0000
,
0010
0001
0010
0100
,
0001
0010
0100
100M
,
0010
0100
0001
0010
,
0001
0000
0100
0000
0010
0000
1000
0000
0000
0001
0000
0000
1000
0000
0100
0000
,
0010
0001
0100
0001
,
0010
0000
0000
0000
0100
0000
0000
0000
1000
0000
0000
0000
0000
0000
0001
0000
0000
0000
0002
0003
0000
0000
0000
0000
1000
0000
0000
0000
0000
0000
0000
0000
,
0010
0010
1000
0100
,
0100
1000
0001
0001
,
1000
0010
0010
1000
,
0100
0010
0000
0001
,
0010
0010
0001
0100
,
0100
0001
1000
1000
,
0001
0010
0010
0001
,
0100
0010
1000
0001
,
0100
0100
0001
0010
,
0010
0001
1000
1000
,
0001
0100
0100
0001
,
0010
0100
0000
1000
,
0010
0100
0010
0001
,
0000
0010
0000
0000
1000
0000
0001
0000
,
0010
1000
0010
0100
,
1000
0010
0100
M001
,
0010
0100
0001
0100
,
1000
0010
0100
0001
,
0010
1000
0010
0000
,
0000
0000
M002
0000
0010
2003
0000
0010
,
3002
0000
0100
2003
0000
0100
3002
0000
,
0023
M130
0100
1000
,
0001
0000
0100
0000
0000
0010
0000
0000
,
0001
0010
1000
0100
,
0010
0000
0001
0000
0000
0100
0000
0000
,
0010
0000
200M
0000
0100
3002
0000
0100
,
2003
0000
0010
3002
0000
0010
2003
0000
,
3200
031M
0010
0001
,
1000
0000
0010
0000
0000
0001
0000
0000
,
0010
0100
0001
0020
,
0000
0230
0000
0000
,
0000
0000
0000
1300
0000
0001
0000
0000
0000
0100
0000
0000
,
0000
0000
0000
0001
0000
1000
0000
0000
0000
0100
0000
0000
,
0000
0000
0000
1000
0000
0010
0000
0000
0000
0100
0000
0000
,
0000
0000
0000
0001
0000
0010
0000
0000
0000
0100
0000
0000
,
0000
0000
0000
1000
0000
0010
0000
0000
0000
0001
0000
0000
,
0000
0000
0000
0010
0000
0100
0000
0000
0000
0001
0000
0000
,
0000
0000
0000
0010
0000
1000
0000
0000
0000
0010
0000
0000
,
0000
0000
0000
0100
0000
1000
0000
0000
0000
0001
0000
0000
,
0000
0000
0000
1000
0000
0001
0000
0000
0000
0010
0000
0000
,
0000
0000
0000
0001
0000
1000
0000
0000
0000
0010
0000
0000
,
0000
0000
0000
1000
0000
0100
0000
0000
0000
0010
0000
0000
,
0000
0000
0000
0001
0000
0100
0000
0000
0000
0010
0000
0000
,
0000
0000
0000
1000
0000
0100
0000
0000
0000
0001
0000
0000
,
0000
0000
0000
0100
0000
0010
0000
0000
0000
0001
0000
0000
,
0000
0000
0000
0100
0000
0010
0000
0000
2M02
0000
0000
0000
,
3M03
0000
0000
0002
0000
0003
0000
0020
0000
0030
0000
0200
,
0000
0300
0000
1000
0000
0010
0000
0000
0000
0100
0000
0000
,
0000
0000
0000
0010
0000
0001
0000
0000
0000
0010
0000
0000
,
0000
0000
0000
0100
0000
0001
0000
0000
0000
0010
0000
0000
,
0000
0000
0000
1000
0000
0010
0000
0000
0000
0001
0000
0000
,
0000
0000
0000
1000
0000
0010
0000
0000
0000
0001
0000
0000
,
0000
0000
0000
0010
0000
0100
0000
0000
0000
0001
0000
0000
,
0000
0000
0000
0010
0000
1000
0000
0000
0000
0010
0000
0000
,
0000
0000
0000
0100
0000
1000
0000
0000
0000
0002
0000
0000
,
0000
0000
0000
1003
0000
0100
0000
0000
0000
0010
0000
0000
,
0000
0000
0000
0100
0000
0001
0000
0000
0000
0100
0000
0000
,
0000
0000
0000
0010
0000
0001
0000
0000
0000
0100
0000
0000
,
0000
0000
0000
1000
0000
0100
0000
0000
0000
0001
0000
0000
,
0000
0000
0000
1000
0000
0100
0000
0000
0000
0010
0000
0000
,
0000
0000
0000
1000
0000
0010
0000
0000
0000
0001
0000
0000
,
0000
0000
0000
0100
0000
0010
0000
0000
0000
0001
0000
0000
,
0000
0000
0000
0010
0000
1000
0000
0000
0000
0002
0000
0000
,
2003
3M01
0000
0010
,
0000
1000
0000
0000
0010
0000
0000
0001
,
0000
1M00
0010
0100
,
0010
0000
1000
0000
0000
0100
0000
0000
,
0010
0001
0010
1000
,
0010
0000
0001
0000
0000
0100
0000
0000
,
0010
100M
0000
0100
,
0000
0001
0000
0000
0100
0000
0000
1000
,
0000
00M1
0100
0010
,
0100
0000
0001
0000
0000
0010
0000
0000
,
0100
2000
0000
0000
,
0000
0000
0000
30M0
,
0000
0000
0001
0000
0000
0010
0000
0000
,
1000
0000
0000
0010
0000
0000
0100
0000
,
1000
0000
0001
0000
0000
0100
0000
0000
,
0010
0000
0000
0001
0000
0000
0010
0000
,
1000
0000
0001
0000
0000
0010
0000
0000
,
1000
0000
0000
0010
0000
0000
0001
0000
,
1000
0000
0010
0000
0000
0001
0020
0000
,
0000
0000
0000
0030
,
100M
0100
1000
0001
,
0100
0010
0001
0010
,
1000
0001
0010
0001
,
1000
0010
0100
0001
,
1000
0100
0001
0100
,
1000
0100
0010
0001
,
1000
0010
0100
0010
,
0001
0010
0100
0001
,
1000
0100
0010
1000
,
0010
0001
0100
1000
,
0100
0001
0010
1000
,
0010
0001
0100
0010
,
200M
0000
0000
0000
,
0000
0000
0000
0000
,
0000
0000
0000
0000
,
0000
0000
0000
0000
,
0000
0000
0000
0000
,
0000
0000
0000
0000
,
3002
0003
0000
0000
0000
0000
0000
0000
0000
0000
0000
0000
0000
0000
0000
0000
;

//--------------- dance-single - Peter ----------------
#NOTES:
     dance-single:
     Peter:
     Medium:
     16:
     0,0,0,0,0:
0000
0000
0000
0000
,
0000
0000
0000
0000
,
0000
0000
0000
0000
,
0000
0000
0000
0000
,
0000
0000
0000
0000
,
0000
0000
0000
0000
,
10M0
0000
0100
1000
0001
0100
0010
0000
0100
0001
1000
0010
,
0100
0000
0001
0010
0100
0010
0001
0000
0100
0001
1000
0100
,
001M
0000
0001
0010
0001
0000
0010
0000
,
0100
1000
0000
0100
1000
0000
0001
0000
,
0100
0010
0100
0000
0001
0000
1000
0100
,
1000
0000
0010
0100
0000
0001
0100
0000
,
M001
0010
0100
1000
,
0010
0000
0100
1000
0100
0001
1000
0100
,
0010
0001
0100
0010
,
1000
0000
0000
0000
0000
0000
0000
0000
0001
0000
0000
0000
0010
0000
0000
0000
1000
0000
0000
0000
0010
0000
0000
0000
0001
0000
0000
0000
2000
3000
0000
0000
,
0M00
0010
0100
0010
0000
0010
0001
0010
,
0000
0010
1000
0010
0100
0001
1000
0100
,
0000
0100
0010
0000
0010
0100
0001
0100
,
0000
0100
0000
0100
1000
0000
0000
0010
,
0100
0010
0000
0001
0010
0001
0000
0010
,
1000
0010
1000
0100
0010
0001
0000
0100
,
1000
0000
0100
0010
0100
0001
0000
1000
,
0100
0010
0001
0100
0010
1000
0M02
0000
,
0013
0100
0010
0000
0002
0000
1003
0010
,
1000
0000
0002
0000
0103
0010
0100
0000
,
0002
0000
1003
0100
1000
0000
0002
0000
,
0013
0000
0001
0000
0100
0010
2000
0000
,
3100
0010
0100
0000
2000
0000
3001
0100
,
0001
0000
2000
0000
3010
0100
0010
0000
,
2000
0000
3001
0010
0001
0000
2000
0000
,
3100
0000
0010
0001
0010
0100
2000
0000
,
3010
0100
0010
0000
2000
0000
3001
0010
,
0001
0000
2000
0000
3100
0010
0100
0000
,
2000
0000
3001
0100
0001
0000
2000
0000
,
3100
0000
0010
0001
1000
0000
0002
0000
,
0013
0001
2000
0000
3010
1000
0002
0000
,
0013
0200
0000
1300
0002
0000
0103
0010
,
0100
0001
1000
0000
0100
0010
0100
1000
,
0001
0000
0010
0100
1000
0001
10M0
0000
,
0100
0010
0100
1000
,
0001
0100
0010
1000
0010
0100
0001
0000
,
0010
0100
0010
0000
0001
0000
0100
0000
,
0010
0000
0000
0000
0000
0000
0000
0000
1000
0000
0000
0000
0000
0000
0001
0000
0000
0000
0002
0003
0000
0000
0000
0000
2M00
0000
0000
0000
0000
0000
0000
0000
,
3010
0100
0010
0000
2000
0000
3001
0010
,
0001
0000
2000
0000
3100
0010
0100
0000
,
2000
0000
3001
0100
0001
0000
2000
0000
,
3100
0000
0001
0000
0100
1000
0002
0000
,
0103
0010
0100
0000
0002
0000
1003
0100
,
1000
0000
0002
0000
0013
0100
0010
0000
,
0002
0000
1003
0010
1000
0000
0002
0000
,
0013
0000
0100
1000
0010
0100
0002
0000
,
0013
0100
0010
0000
0002
0000
1003
0010
,
1000
0000
0002
0000
0103
0010
0100
0000
,
0002
0000
1003
0100
1000
0000
0002
0000
,
0103
0000
0010
0000
1000
0001
0020
0000
,
0031
1000
0020
0000
0130
0001
2000
0000
,
3100
0020
0000
0031
2000
0000
3010
0100
,
0010
1000
0001
0000
0010
0100
0010
0001
,
1000
0000
0010
0100
0001
1000
01M0
0000
,
0001
0100
1000
0001
,
0100
0010
1000
0100
0010
0001
1000
0000
,
0010
0001
0010
0000
,
0000
0000
100M
0100
1000
0001
0100
0001
,
1000
0010
1000
0001
0010
0100
1000
0010
,
0100
0001
10M0
0000
0100
0010
0001
0000
,
1000
0000
0010
0100
0000
0010
1000
0000
,
0001
0000
0010
0100
1000
0000
0001
0100
,
0010
0000
1000
0000
0100
0010
0000
0100
,
1000
0000
00M1
0100
0001
1000
0100
1000
,
0001
0010
0001
1000
0010
0100
0001
0010
,
0100
1000
00M1
0000
0100
0010
1000
0000
,
0001
0000
0010
0100
0000
0010
0001
0000
,
1000
0000
0010
0100
0001
0000
1000
0100
,
0010
0001
2000
0000
0000
0000
0000
0000
,
0000
0000
0000
3001
0000
0100
0000
0000
0000
0001
0000
0010
,
0000
0000
0000
0100
0000
1000
0000
0000
0000
0010
0000
1000
,
0000
0000
0000
0001
0000
0010
0000
0000
0000
0001
0000
0100
,
0000
0000
0000
0010
0000
1000
0000
0000
0000
0100
0000
1000
,
0000
0000
0000
0010
0000
0100
0000
0000
0000
0001
0000
1000
,
0000
0000
0000
0100
0000
0010
0000
0000
0000
0001
0000
1000
,
0000
0000
0000
0100
0000
0001
0000
0000
0000
0100
0000
1000
,
0000
0000
0000
0001
0000
0100
0000
0000
0000
1010
0000
0000
,
0000
0000
0000
1000
0000
0100
0000
0000
0000
1000
0000
0010
,
0000
0000
0000
0100
0000
0001
0000
0000
0000
0010
0000
0001
,
0000
0000
0000
1000
0000
0010
0000
0000
0000
1000
0000
0100
,
0000
0000
0000
0010
0000
0001
0000
0000
0000
0100
0000
0001
,
0000
0000
0000
0010
0000
0100
0000
0000
0000
1000
0000
0001
,
0000
0000
0000
0100
0000
0010
0000
0000
0000
1000
0000
0001
,
0000
0000
0000
0010
0000
0100
0000
0000
022M
0000
0000
0000
,
033M
0000
0000
2000
0000
3000
0000
0002
0000
0003
0000
2000
,
0000
3000
0000
0001
0000
0100
0000
0000
0000
0010
0000
0001
,
0000
0000
0000
0010
0000
1000
0000
0000
0000
0100
0000
0010
,
0000
0000
0000
0001
0000
0010
0000
0000
0000
0100
0000
0001
,
0000
0000
0000
0100
0000
1000
0000
0000
0000
0010
0000
0100
,
0000
0000
0000
0001
0000
0010
0000
0000
0000
1000
0000
0010
,
0000
0000
0000
0100
0000
0010
0000
0000
0000
0001
0000
0010
,
0000
0000
0000
0001
0000
0100
0000
0000
0000
1000
0000
0100
,
0000
0000
0000
0001
0000
0010
0000
0000
0000
0100
0000
1000
,
0000
0000
0000
0001
0000
0100
0000
0000
0000
1000
0000
0100
,
0000
0000
0000
0010
0000
1000
0000
0000
0000
0100
0000
0010
,
0000
0000
0000
0001
0000
0010
0000
0000
0000
1000
0000
0010
,
0000
0000
0000
0100
0000
1000
0000
0000
0000
0010
0000
0100
,
0000
0000
0000
0001
0000
0100
0000
0000
0000
0010
0000
0100
,
0000
0000
0000
1000
0000
0100
0000
0000
0000
0001
0000
0100
,
0000
0000
0000
0001
0000
0010
0000
0000
0000
1000
0000
0010
,
0000
0000
0000
0001
0000
1000
0000
0000
0000
0000
0000
0000
,
0000
0000
0M01
0020
0030
0000
2000
3000
,
0000
0002
0003
0000
0200
0300
0000
2000
,
3000
0000
00M1
0000
0100
0010
0100
0000
,
0001
0000
1000
0100
0000
0010
0001
0000
,
1000
0000
0010
0100
0010
0000
1000
0100
,
1000
0000
0100
0000
0010
0001
0000
0010
,
0100
0000
100M
0020
0030
0000
0002
0003
,
0000
2000
3000
0000
0200
0300
0000
0002
,
0003
0000
10M0
0000
0100
0010
0100
0000
,
1000
0000
0001
0100
0000
0010
1000
0000
,
0001
2002
0000
0000
,
0000
0000
0000
3003
,
0000
0000
1M00
0010
1000
0001
0010
0001
,
1000
0100
1000
0001
0100
0010
1000
0100
,
0010
0001
1000
0100
1000
0001
0100
0001
,
1000
0010
1000
0001
0010
0100
1000
0010
,
0100
0010
1000
0100
1000
0001
0010
0001
,
1000
0010
1000
0001
0100
0010
1000
0100
,
0010
0001
1000
0010
0100
0001
2000
0000
,
3200
0320
0032
0003
,
1M00
0000
0010
0100
0001
0000
0010
0000
,
0100
0010
1000
0000
0010
0000
0001
0000
,
1000
0000
0010
0100
0010
0000
1000
0000
,
0200
0320
0032
2003
,
3010
0000
0100
0000
0000
0000
1000
0000
0100
0000
0000
0000
,
0001
1000
0100
0010
0001
0000
0100
0000
,
0010
0000
1000
0010
0100
0001
1000
0000
,
0100
0001
0100
0000
1000
0001
1000
0000
,
0001
0010
0001
0000
1000
0010
1000
0000
,
0001
0100
0001
0000
1000
0100
1000
0000
,
0010
0100
0010
0000
1000
0001
1000
0000
,
0100
0010
0100
0000
1000
0001
1000
0000
,
20M2
0000
0000
0000
,
0000
0000
0000
0000
,
0000
0000
0000
0000
,
0000
0000
0000
0000
,
0000
0000
0000
0000
,
0000
0000
0000
3003
,
2002
3003
0000
0000
0000
0000
0000
0000
0000
0000
0000
0000
0000
0000
0000
0000
;

//--------------- dance-single - Peter ----------------
#NOTES:
     dance-single:
     Peter:
     Hard:
     18:
     0,0,0,0,0:
0000
0000
0000
0000
,
0000
0000
0000
0000
,
0000
0000
0000
0000
,
0000
0000
0000
0000
,
0000
0000
0000
0000
,
0000
0000
0000
0000
,
10M0
0100
1000
0001
0010
0001
1000
0100
1000
0001
0010
0001
,
0100
0001
0100
0010
1000
0010
0100
0001
0100
0010
1000
0010
,
M100
0001
1000
0100
0010
0000
0100
0000
,
1000
0001
0000
0001
0100
0000
0100
0000
,
0010
1000
0010
0000
0100
0001
0100
0001
,
1000
0000
0100
0010
0000
0001
1000
0000
,
0M01
0000
0010
0000
0100
0000
0010
0000
0001
0000
0100
0010
1000
0100
0010
0100
,
1000
0000
0010
0000
0100
0000
1000
0000
0100
0000
0001
0010
0100
1000
0100
0010
,
0001
0000
0100
0000
0010
0000
0100
0000
0001
0000
0010
0100
1000
0010
0100
0010
,
1000
0000
0000
0000
0100
0000
0000
0000
0001
0000
0000
0000
0100
0000
0000
0000
0010
0000
0002
0000
0000
0000
0000
0000
0000
0000
0003
0000
2000
3000
0000
0000
,
1M10
0000
0000
0000
0011
0000
0000
0000
0110
0000
0000
0100
0001
0000
1000
0000
,
1001
0000
0000
0000
1100
0000
0000
0000
0110
0000
0000
0100
0001
0000
0100
0000
,
0101
0000
0000
0000
0110
0000
0000
0000
0011
0000
0000
0001
1000
0000
0010
0000
,
0110
0000
0000
1001
0000
0000
1100
0000
,
0101
0000
0000
0000
0110
0000
0000
0010
1000
0000
0010
0000
1010
0000
0000
0000
,
0110
0000
0000
0000
0011
0000
0000
0001
1000
0000
0001
0000
1000
0100
1000
0000
,
1100
0000
0000
0000
0001
0100
0001
0000
0101
0000
1000
0010
1000
0000
1010
0000
,
0001
0010
0001
0000
0011
0000
1000
0001
1000
0001
1000
0000
10M1
0000
0000
0000
,
1000
0100
0010
0000
0011
0000
0001
0100
,
0010
0000
0110
0000
0100
0001
1000
0000
,
1100
0000
0100
0010
0001
0000
0011
0000
,
0001
0010
0100
1000
0001
0000
1001
0000
,
0001
0010
0100
0000
1100
0000
1000
0001
,
0100
0000
0101
0000
0001
1000
0100
0000
,
1100
0000
1000
0010
0100
0000
0110
0000
,
0100
0000
0001
0010
0100
1000
0010
0000
,
0010
0100
0001
0000
0101
0000
0001
0010
,
0100
0000
0110
0000
0010
0001
1000
0000
,
1001
0000
1000
0010
0100
0000
0101
0000
,
0001
0010
0100
0000
1100
0000
1001
0000
,
0001
0100
0001
0000
1000
0100
1000
0000
,
0010
0100
0000
0001
1000
0000
0100
0010
,
0100
1000
0001
0000
0100
0010
0100
0001
,
1000
0100
0010
0001
0010
0100
100M
0100
,
0010
0100
1000
0010
0100
0010
1000
0000
,
0001
0010
0100
0000
0010
0100
1000
0001
0000
0001
1000
0000
0001
0000
0100
0000
,
0010
0100
0001
0010
0100
0010
0001
0100
,
0010
0000
1000
0000
0100
0000
0010
0000
0000
0000
0001
0000
0000
0000
0001
0000
0000
0000
0002
0003
0000
0000
0000
0000
1M01
0000
0000
0000
0000
0000
0000
0000
,
1000
0010
0100
0000
0101
0000
0001
1000
,
0100
0000
0011
0000
0010
0100
1000
0000
,
1001
0000
0001
0100
0001
0000
1010
0000
,
1000
0100
0010
0001
1000
0000
1001
0000
,
0001
0010
0100
0000
1100
0000
1000
0001
,
0100
0000
1010
0000
0010
0100
0001
0000
,
1001
0000
1000
0100
1000
0000
0011
0000
,
0001
0000
1000
0010
0100
0001
0010
0000
,
0100
0010
1000
0000
1010
0000
0010
0100
,
1000
0000
1100
0000
1000
0001
0100
0000
,
0110
0000
0010
0001
0010
0000
0011
0000
,
0010
1000
0001
0000
0010
0100
1000
0000
,
0010
0100
0010
0000
0001
0010
0100
0000
,
0001
0010
0000
0100
1000
0000
0010
0100
,
0001
1000
0100
0000
0010
0100
1000
0001
,
0100
0010
1000
0100
0010
0001
1M00
0100
,
1000
0100
0001
0100
0001
0100
1000
0010
,
1000
0010
0001
0010
0001
0010
1000
0001
,
0010
1000
0010
0001
0100
0010
0000
0000
,
0000
0000
0000
0000
100M
0100
1000
0100
0020
0000
0031
0100
0001
0100
0020
0000
,
1030
0100
1000
0001
0100
0000
0010
1000
0001
0100
0010
0000
2000
0000
3200
0000
,
0320
0032
1M03
0010
1000
0010
1000
0000
,
1001
0000
0001
0010
0000
0100
0001
0000
,
0100
0000
1000
0001
1000
0000
0010
0100
,
0010
1000
0001
0000
0010
0100
0000
1000
,
0001
0000
0000
0000
1M00
0010
1000
0010
0200
0000
0301
0010
0001
0010
0200
0000
,
1300
0010
1000
0001
0010
0000
0100
1000
0001
0010
0100
0000
2000
0000
3020
0000
,
0230
0302
10M3
0100
1000
0100
1000
0000
,
1001
0000
0001
0100
0000
0010
0001
0000
,
0010
0000
1000
0100
0010
0000
0001
1000
,
0001
0000
0000
1000
0000
0000
0002
0000
0003
0000
2000
0000
3000
0000
0002
0000
0003
0000
2000
0000
3000
0000
0002
0000
,
0003
2000
3000
0001
0000
0010
0000
0001
0000
1000
0000
0100
,
0000
1000
0000
0001
0000
0100
0000
0001
0000
1000
0000
0010
,
0000
1000
0000
0100
0000
0010
0000
0100
0000
1000
0000
0001
,
0000
1000
0000
0010
0000
0100
0000
0010
0000
1000
0000
0001
,
0000
1000
0000
0001
0000
0100
0000
0001
0000
1000
0000
0010
,
0000
1000
0000
0001
0000
0010
0000
0001
0000
1000
0000
0100
,
0000
1000
0000
0010
0000
0100
0000
0010
0000
1000
0000
0001
,
0000
1000
0000
0100
0000
0010
0000
0100
0000
1001
0000
0000
,
0000
0000
0000
0001
0000
0010
0000
0100
0000
0010
0000
0001
,
0000
1000
0000
0001
0000
0100
0000
0010
0000
0100
0000
0001
,
0000
1000
0000
0010
0000
0100
0000
0001
0000
0100
0000
0010
,
0000
1000
0000
0100
0000
0010
0000
0001
0000
0010
0000
0100
,
0000
1000
0000
0001
0000
0100
0000
0010
0000
1000
0000
0010
,
0000
0100
0000
0001
0000
0010
0000
0100
0000
1000
0000
0100
,
0000
0000
0010
0000
0000
0000
0001
0000
0000
1000
0000
0000
0001
0000
0000
0000
20M2
0000
0000
0000
0000
0000
0000
0000
,
30M3
0000
0000
0220
0000
0330
0000
0202
0000
0303
0000
2002
,
0000
3003
0000
1000
0000
0100
0000
0010
0000
1000
0000
0010
,
0000
0001
0000
1000
0000
0100
0000
0001
0000
0100
0000
0010
,
0000
0001
0000
0100
0000
0010
0000
0001
0000
0010
0000
1000
,
0000
0001
0000
0100
0000
1000
0000
0100
0000
0010
0000
1000
,
0000
0001
0000
0010
0000
0100
0000
0001
0000
0100
0000
0010
,
0000
0001
0000
0100
0000
0010
0000
0001
0000
0010
0000
0100
,
0000
0001
0000
1000
0000
0100
0000
0010
0000
0001
0000
0100
,
0000
0010
0000
1000
0000
0010
0000
0100
0000
0001
0000
0010
,
0000
0100
0000
1000
0000
0010
0000
0001
0000
1000
0000
0100
,
0000
0001
0000
1000
0000
0100
0000
0010
0000
1000
0000
0001
,
0000
0100
0000
1000
0000
0100
0000
0001
0000
1000
0000
0010
,
0000
0001
0000
1000
0000
0010
0000
0100
0000
1000
0000
0001
,
0000
0010
0000
1000
0000
0100
0000
0010
0000
1000
0000
0001
,
0000
0100
0000
0010
0000
0001
0000
0100
0000
0010
0000
0001
,
0000
1000
0000
0100
0000
0010
0000
1000
0000
0100
0000
0010
,
0000
0001
0000
0010
0000
0100
0000
1000
0000
0001
1000
0001
,
2000
0000
3M01
0010
0001
0100
0010
1000
,
0100
0000
1000
0000
0010
0000
0100
0000
0001
0000
0010
0000
0001
0010
0100
1000
,
0000
1000
0001
0000
10M0
0000
0100
0000
1000
0000
0100
0000
1000
0000
0000
0000
,
0001
0000
0100
0010
0000
0001
0010
0000
,
0100
0000
0010
1000
0001
0000
0010
0100
,
1000
0001
0100
0000
0010
1000
0000
0100
,
0010
0000
M001
0100
0001
0010
0100
1000
,
0010
0000
1000
0000
0100
0000
0010
0000
0001
0000
0100
0000
0001
0100
0010
1000
,
0000
1000
0001
0000
1M00
0000
0010
0000
1000
0000
0010
0000
1000
0000
0000
0000
,
0001
0000
0010
0100
0000
0001
0100
0000
,
0010
0200
0000
0000
,
0000
1000
0000
0300
,
0000
10M1
0000
0000
,
0000
0000
0000
0000
,
0000
0100
0110
0000
0000
0000
0000
0000
,
0000
0000
0000
0000
0000
0000
0000
0000
0000
0000
0000
0000
0101
0000
0000
0011
,
0000
1100
1001
0000
0000
0000
0000
0000
,
0000
0000
0000
0000
0000
0000
0000
0110
,
0000
1010
1001
0000
0000
0110
1001
0000
,
0000
0000
0002
0003
0020
0030
0200
0300
2000
3000
0020
0030
0200
0300
0002
0003
2000
3000
0000
0000
0000
0000
0000
0000
,
M001
0010
0100
0010
0001
0000
1001
0000
,
1000
0010
0100
0000
2000
0000
3200
0000
,
0301
0000
0000
0000
0000
0000
0010
0000
0000
0100
0000
0000
1000
0000
0000
0000
0010
0000
0000
0000
0001
0000
0000
0000
,
0010
0000
0000
1000
0000
0000
0010
0000
0000
1000
0000
0000
0001
0000
0000
0000
0010
0000
0000
0000
0100
0000
0000
0000
,
1000
0010
1000
0000
0001
0010
0001
0000
,
0100
0010
1000
0001
0010
0000
0100
0000
,
1001
0000
0001
0100
0010
0100
0001
0100
,
0010
1000
0100
0010
0100
1000
0001
0000
,
0100
0010
1000
0001
0010
0100
0010
0001
,
1000
0010
0100
0010
1000
0001
0010
0001
,
1000
0010
0100
0001
0010
0001
0100
0010
,
1000
0001
0010
0100
1000
0010
0100
0001
,
10M0
0001
1000
0001
,
1000
0001
1000
0001
,
1000
0001
1000
0001
,
1000
0001
1000
0001
,
1000
0001
1000
0001
,
1000
0001
1000
0001
,
2000
3000
0000
0000
0000
0000
0000
0000
0000
0000
0000
0000
0000
0000
0000
0000
;

//--------------- dance-single - Peter ----------------
#NOTES:
     dance-single:
     Peter:
     Challenge:
     19:
     0,0,0,0,0:
0000
0000
0000
0000
,
0000
0000
0000
0000
,
0000
0000
0000
0000
,
0000
0000
0000
0000
,
0000
0000
0000
0000
,
0000
0000
0000
0000
,
10M0
0100
1000
0001
0100
0001
1000
0010
1000
0001
0010
0001
,
1000
0010
0100
0001
0010
0100
1000
0100
0010
0001
0100
0010
,
100M
0100
1000
0100
0010
0000
0001
0000
,
0100
0010
0000
0001
0010
0000
1000
0000
,
0001
0010
0001
0000
0100
0010
1000
0001
,
0010
0000
0100
0010
0000
1000
0010
0000
,
0M01
1000
0010
0001
1000
0100
0001
0010
,
0100
0000
0001
0000
0100
0000
1000
0010
0100
0000
0010
0000
0100
0000
0001
0000
,
1000
0100
0001
0100
0010
0100
1000
0001
,
0100
0000
0000
0000
0010
0000
0000
0000
0001
0000
0000
0000
0010
0000
1000
0000
0001
0000
0000
0000
0010
0000
0000
0000
0100
0000
1000
0000
0002
0003
0000
0000
,
10M0
0100
0001
0100
0010
0001
0100
0010
,
0001
0010
0100
0010
1000
0010
0100
0001
,
1000
0100
0001
0000
1000
0010
0001
0010
,
0100
1000
0000
0010
0100
0000
0001
1000
,
0100
0001
0100
1000
0010
0100
0010
0001
,
0010
0000
1000
0000
0001
0000
0000
0010
0100
0000
1000
0000
0001
0100
0001
0100
,
0010
0000
0000
0000
1000
0100
1000
0100
0010
0000
0001
0010
0001
0010
0100
0000
,
1000
0010
1000
0010
0100
0000
0001
1000
0100
0010
0001
1000
0M01
0000
0000
0000
,
0010
0001
1000
0000
1010
0000
1000
0100
,
0010
0000
0001
1000
0010
0100
0010
0000
,
1010
0000
1000
0100
0010
0000
0011
0000
,
0001
0100
0010
0100
0010
0000
0101
0000
,
0001
0010
0100
0000
1100
0000
1000
0001
,
0100
0000
1000
0100
0010
1000
0001
0000
,
0011
0000
0010
0100
0001
0000
0101
0000
,
0100
1000
0001
1000
0001
1000
0001
0000
,
0011
0000
0110
0000
0100
1000
0010
0100
,
0001
0000
1000
0100
0010
0100
1000
0000
,
1001
0000
0001
0100
0010
0000
0110
0000
,
1010
0000
1000
0100
0010
0001
0100
0000
,
0010
1000
0001
0000
0010
0001
1000
0000
,
0010
0001
0010
0100
0001
0000
0010
0100
,
1000
0001
0100
0000
0010
0100
0001
1000
,
0100
0000
0010
0000
0100
0000
0001
0000
0100
0000
0010
0000
M001
0000
1000
0010
,
0100
0010
1000
0000
0001
0000
0010
0000
0100
0000
1000
0000
0100
0000
0010
0000
,
0100
1000
0100
0010
0001
1000
0010
0100
0000
0100
0001
0000
1000
0000
0100
0010
,
0100
1000
0001
0100
0010
0000
1000
0000
0010
0000
0100
0000
0001
0000
0010
0000
,
0100
0000
0010
0000
0001
0000
1000
0000
0100
0000
0010
0000
0000
0000
0010
0000
0000
0000
0020
0030
M000
0000
0000
0000
0011
0000
0000
0000
0000
0000
0000
0000
,
1001
0000
1010
0000
0100
0001
1000
0100
,
0010
0000
1000
0010
0001
1000
0010
0000
,
0110
0000
0100
0001
1000
0000
1100
0000
,
1001
0000
0001
0100
0010
1000
0100
0000
,
0101
0000
0110
0000
0010
0001
1000
0010
,
0100
0000
1000
0100
0001
1000
0100
0000
,
1100
0000
1000
0001
0100
0000
0110
0000
,
1010
0000
1000
0100
0010
0001
1000
0000
,
1010
0000
0101
0000
0001
0010
1000
0010
,
0100
0000
1000
0010
0100
0010
0001
0000
,
0010
0100
0001
1000
0100
0000
0110
0000
,
0011
0000
1000
0001
1000
0001
0100
0000
,
1000
0100
0010
0000
1000
0100
0001
0000
,
0100
0010
0001
1000
0010
0000
0100
0010
,
0001
0010
0100
0000
0010
1000
0001
0010
,
0100
0001
0100
1000
0010
0100
M001
0010
,
1000
0001
0100
1000
0010
0100
0001
0010
,
1000
0000
0010
0001
1000
0000
0010
0000
0100
0000
0001
0000
1000
0000
0100
0000
,
0001
0100
1000
0010
0001
0010
0000
0000
,
0000
0000
0000
0000
100M
0100
0010
0100
2000
0000
3001
0100
0010
0100
0002
0000
,
1003
0100
0010
0001
0020
0000
0130
0010
0001
0010
0200
0000
1300
0010
0100
0001
,
1000
0010
0100
0001
10M0
0000
0100
0000
1000
0000
0100
0000
0020
0000
0000
0000
,
0031
0100
0001
0100
0020
0000
1030
0100
,
0010
0001
0200
0000
0320
0000
0130
0001
,
2000
0000
3100
0010
0100
1000
0001
0100
,
0010
0000
1000
0M00
0001
0010
0100
0010
0002
0000
1003
0010
0100
0010
2000
0000
,
3001
0010
0100
1000
0020
0000
0130
0010
1000
0010
0200
0000
0301
0010
0100
1000
,
0001
0010
0100
1000
00M1
0000
0100
0000
0001
0000
0100
0000
0020
0000
0000
0000
,
1030
0100
1000
0100
0020
0000
0031
0100
,
0010
0000
0000
1000
0000
0000
0200
0000
0000
0000
0000
0000
1300
0000
0000
0001
0000
0000
0100
0000
0000
0000
0010
0000
,
0000
1000
0000
0002
0003
0020
0030
2000
3000
0002
0003
0200
,
0300
2000
3000
0001
0000
0100
0000
1000
0000
0100
0000
0010
,
0000
1000
0000
0100
0000
0001
0000
0100
0000
0010
0000
0001
,
0000
1000
0000
0010
0000
0100
0000
1000
0000
0001
0000
0010
,
0000
0100
0000
0001
0000
1000
0000
0100
0000
0010
0000
0001
,
0000
0010
0000
0100
0000
0010
0000
1000
0000
0010
0000
0100
,
0000
1000
0000
0010
0000
0100
0000
0001
0000
0010
0000
0100
,
0000
0000
1000
0000
0000
0000
0001
0000
0000
1000
0000
0000
0001
0000
0000
1000
0000
0000
0001
0000
0000
0000
0010
0000
,
0000
0000
0100
0000
0000
0000
1000
0000
0000
0010
0000
0000
0100
0000
0000
0000
0000
0000
0101
0000
0000
0000
0000
0000
,
0000
0000
0000
0001
0000
0010
0000
1000
0000
0010
0000
0100
,
0000
1000
0000
0010
0000
0100
0000
1000
0000
0100
0000
0001
,
0000
1000
0000
0100
0000
0010
0000
1000
0000
0001
0000
0100
,
0000
0000
0010
0000
0000
0000
0001
0000
0000
0100
0000
0000
0010
0000
0000
0000
0000
0000
1000
0000
0000
0100
0000
0000
,
0010
0000
0000
0001
0000
1000
0000
0010
0000
0001
0000
0010
,
0000
1000
0000
0001
0000
0010
0000
1000
0000
0010
0000
0001
,
0000
0000
1000
0000
0000
0000
0010
0000
0000
0100
0000
0000
0001
0000
0000
0000
M202
0000
0000
0000
0000
0000
0000
0000
,
M303
0000
0000
0220
0000
0330
0000
2020
0000
3030
0000
2002
,
0000
3003
0000
1000
0000
0010
0000
0001
0000
1000
0000
0100
,
0000
0010
0000
1000
0000
0001
0000
0010
0000
1000
0000
0001
,
0000
0100
0000
0010
0000
0001
0000
1000
0000
0010
0000
0001
,
0000
0010
0000
0100
0000
0001
0000
0010
0000
1000
0000
0001
,
0000
0100
0000
1000
0000
0010
0000
0100
0000
1000
0000
0001
,
0000
0010
0000
1000
0000
0001
0000
0010
0000
0100
0000
0001
,
0000
1000
0000
0010
0000
0001
0000
1000
0000
0010
0000
0001
,
0000
1000
0000
0100
0000
0010
0000
1000
0000
0001
1000
0001
,
1000
0001
1000
0001
0000
0010
0000
1000
0000
0001
0000
0100
,
0000
1000
0000
0010
0000
0001
0000
0010
0000
1000
0010
1000
,
0010
1000
0000
0100
0000
0001
0000
1000
0000
0010
0000
0001
,
0000
0100
0000
0010
0000
0001
0000
0010
0000
1000
0001
1000
,
0001
1000
0000
0001
0010
0001
0000
1000
0000
0010
0100
0010
,
0000
1000
0000
0001
0100
0001
0000
0010
0000
0100
1000
0100
,
1000
0100
1000
0001
0000
1000
0000
0010
0000
0100
0001
0100
,
0001
0100
0001
1000
0000
0010
0000
0100
0001
1000
0001
1000
,
0001
0000
1000
0000
0001
0000
10M0
0000
0000
0100
0000
0000
0000
0000
0000
0100
0000
0000
0001
0000
0000
0000
0000
0000
,
0001
0100
0000
0100
1000
0010
0100
0001
,
1000
0000
0M01
0010
0100
0010
0001
0000
,
1000
0000
0010
0100
0000
0010
1000
0000
,
0100
0000
0010
0001
0010
0000
0001
0100
,
0001
1000
0001
0000
0010
1000
0000
0010
,
0001
0000
1M00
0010
0000
0010
0001
0000
,
0001
0010
0000
0010
1000
0000
0100
0010
,
0001
0000
1M00
0010
0100
0010
1000
0000
,
0001
0000
0010
0100
0000
0010
0001
0000
,
1000
1020
0000
0001
,
0000
0000
0100
0000
0000
0000
203M
3000
,
0000
0000
0000
0000
0001
0010
0001
0010
0100
0000
1000
0010
1000
0010
0100
0000
,
0001
0010
0100
1000
0001
0000
0100
0010
0100
0001
1000
0000
0100
0010
0100
1000
,
0001
0010
0100
1000
0001
0100
0001
0100
0010
0000
1000
0100
1000
0100
0010
0000
,
0001
0100
0010
1000
0001
0000
0010
0100
0010
0001
1000
0000
0010
0100
0010
1000
,
0001
0100
0010
1000
0001
0010
0100
0010
0001
0000
1000
0010
0100
0010
1000
0000
,
0001
0010
0100
1000
0010
0000
0100
0001
0100
0010
1000
0000
0001
0010
0100
0010
,
0001
0000
0000
0010
0000
0000
0100
0000
0000
1000
0000
0000
0001
0000
0000
0100
0000
0000
0010
0000
0000
1000
0000
0000
0010
0000
0000
0100
0000
0000
0010
0000
0000
1000
0000
0000
0002
0000
0003
0000
0020
0000
0030
0000
0200
0000
0300
0000
,
2000
3000
0020
0030
0002
0003
2000
3000
0200
0300
0002
0003
0020
0030
0200
0300
2000
3000
0000
0000
0000
0000
0000
0000
,
00M1
0000
0100
0000
0001
0000
0100
0000
0000
0000
0000
0000
1010
0000
0000
0000
0000
0000
1000
0000
0000
0100
0000
0000
,
0010
0000
0001
0000
0010
0000
0100
0000
0000
0000
0000
0000
1000
0000
0000
0010
0000
0000
0100
0000
0000
0000
0000
0000
,
0101
0000
0001
0010
1000
0010
0100
0000
,
1000
0000
0010
0000
0100
0000
0001
0000
0100
0000
0010
0000
1000
0000
0000
0001
0000
0000
0010
0000
0000
0100
0000
0000
,
1000
0010
0100
0001
0000
0000
1000
0100
0010
0001
0000
0000
,
1000
0000
0000
0010
0000
0000
0100
0000
0001
0000
1000
0000
0100
0000
0000
0000
0000
0000
0010
0000
0001
0000
0010
0000
,
0100
1000
0100
1000
0001
0100
0001
0100
,
0010
1000
0001
0000
0010
1000
0010
0001
,
1000
0010
0100
0010
1000
0001
0010
0100
,
0001
0100
1000
0010
0100
1000
0100
0001
,
0100
0010
1000
0001
0010
0100
0010
0001
,
1000
0010
0001
0010
1000
0100
0010
0001
,
1M00
0001
1000
0001
,
1000
0001
1000
0001
,
1000
0001
1000
0001
,
1000
0001
1000
0001
,
1000
0001
1000
0001
,
1000
0001
1000
0001
,
2MM2
3003
0000
0000
0000
0000
0000
0000
0000
0000
0000
0000
0000
0000
0000
0000
;
