#TITLE:Mowgli's Road;
#SUBTITLE:;
#ARTIST:Marina & the Diamonds;
#TITLETRANSLIT:;
#SUBTITLETRANSLIT:;
#ARTISTTRANSLIT:;
#GENRE:;
#CREDIT:Melody Love;
#MUSIC:Mowgli's Road.ogg;
#BANNER:Mowgli's Road.png;
#BACKGROUND:Mowgli's Road-bg.png;
#JACKET:Mowgli's Road-jacket.png;
#CDTITLE:;
#SAMPLESTART:49.172;
#SAMPLELENGTH:26.693;
#SELECTABLE:YES;
#OFFSET:-0.304;
#BPMS:0.000=146.107;
#STOPS:;
#BGCHANGES:-1.104=Mowgli's Road.avi=1.000=1=0=0=StretchNoLoop==CrossFade==,
99999.000=-nosongbg-=1.000=0=0=0=StretchNoLoop====
;
#FGCHANGES:;

//--------------- dance-single - Melody Love ----------------
#NOTES:
     dance-single:
     Melody Love:
     Beginner:
     3:
     0,0,0,0,0:
0000
0000
0000
0000
,
0000
0000
0000
0000
,
0000
0000
0000
0000
,
0000
0000
0000
0000
,
0000
0000
0000
0000
,
0000
0000
0000
0000
,
0000
0000
0000
0000
,
0000
0000
0000
0000
,
0000
0000
0000
0000
,
0000
0000
0000
0000
,
1000
0000
1000
0000
,
1000
0000
0100
0000
,
0001
0000
0001
0000
,
0001
0000
0100
0000
,
0010
0000
0010
0000
,
0010
0000
0010
0000
,
0100
0000
0001
0000
,
0100
0000
0001
0000
,
0010
0000
0010
0000
,
0010
0000
0010
0000
,
0100
0000
1000
0000
,
0100
0000
1000
0000
,
0001
0000
0001
0000
,
0001
0000
0001
0000
,
1000
0000
0010
0000
,
1000
0000
0010
0000
,
1000
0000
1000
0000
,
1000
0000
1000
0000
,
0001
0000
0100
0000
,
0001
0000
0100
0000
,
0002
0000
0000
0000
,
1003
0000
0000
0000
,
2000
0000
0000
0000
,
3001
0000
0000
0000
,
0200
0000
0000
0000
,
0310
0000
0000
0000
,
0020
0000
0000
0000
,
0130
0000
0000
0000
,
0001
0000
0000
0000
,
0001
0000
1000
0000
,
1000
0000
0000
0000
,
1000
0000
0001
0000
,
0100
0000
0100
0000
,
0010
0000
0010
0000
,
0220
0000
0000
0330
,
0000
0000
0100
0010
,
0010
0000
0000
0000
,
0000
0000
0000
0000
,
1000
0000
1000
0000
,
0001
0000
0001
0000
,
0100
0000
0100
0000
,
0010
0000
0010
0000
,
1000
0000
0001
0000
,
0100
0000
0010
0000
,
1000
0000
1000
0000
,
0001
0000
0001
0000
,
2002
0000
0000
3003
,
0000
0000
0000
0000
,
0220
0000
0000
0330
,
0000
0000
0000
0000
,
0001
0000
0010
0000
,
0100
0000
1000
0000
,
1000
0000
0100
0000
,
0010
0000
0001
0000
,
1000
0000
0000
0000
,
1000
0000
0001
0000
,
0001
0000
0000
0000
,
0001
0000
1000
0000
,
0010
0000
0010
0000
,
0100
0000
0100
0000
,
0220
0000
0000
0330
,
0000
0000
0010
0100
,
0200
0000
0000
0000
,
0000
0300
0000
0000
;

//--------------- dance-single - Melody Love ----------------
#NOTES:
     dance-single:
     Melody Love:
     Easy:
     5:
     0,0,0,0,0:
0000
0000
0000
0000
,
0000
0000
0000
0000
,
0000
0000
0000
0000
,
0000
0000
0000
0000
,
0000
0000
0000
0000
,
0000
0000
0000
0000
,
1000
1000
1000
0000
,
0010
0010
0010
0000
,
0100
0100
0100
0000
,
0001
0001
0001
0000
,
1000
1000
1000
0000
,
0001
0001
0001
0000
,
0100
0100
0100
0000
,
0010
0010
0010
0000
,
2000
0000
0010
3000
,
0002
0000
0010
0003
,
1000
0100
0010
0000
,
0010
0100
1000
0000
,
0002
0000
0100
0003
,
2000
0000
0100
3000
,
0001
0100
0010
0000
,
0010
0100
0001
0000
,
2000
0010
0010
3000
,
0002
0010
0010
0003
,
1000
0010
0100
0000
,
0100
0010
1000
0000
,
0002
0100
0100
0003
,
2000
0100
0100
3000
,
0001
0010
0100
0000
,
0100
0010
0001
0000
,
0011
0000
1001
0000
,
1010
0000
1001
0000
,
0101
0000
1001
0000
,
1100
0000
1001
0000
,
0001
0001
0100
0000
,
0010
0010
1000
0000
,
0100
0100
0010
0000
,
0001
0001
1000
1000
,
0001
0100
0010
0100
,
0002
0003
0002
0003
,
1000
0100
0010
0100
,
2000
3000
2000
3000
,
1001
0001
0100
0000
,
1001
1000
0100
0000
,
0220
0000
0000
0330
,
1000
0100
0010
0001
,
0011
0000
0000
0000
,
0000
0000
0000
0000
,
1000
1000
0010
0020
,
0100
1000
0130
0000
,
0001
0001
0010
0020
,
0100
0001
0130
0000
,
2000
3000
1010
0000
,
0002
0003
0101
0000
,
0200
0300
1010
0000
,
0020
0030
0101
0000
,
1000
1000
0100
1000
,
0001
0001
0100
0001
,
0010
0010
0100
0010
,
0100
0100
0010
0100
,
1000
1000
0001
0001
,
0100
0100
0010
0010
,
1000
0010
0100
0001
,
0001
0010
0100
1000
,
1000
0010
0100
0010
,
2000
3000
2000
3000
,
0001
0010
0100
0010
,
0002
0003
0002
0003
,
1001
1000
0100
0000
,
1001
0001
0100
0000
,
0220
0000
0000
0330
,
0001
0010
0100
1000
,
1100
0000
00M0
000M
0000
0000
0000
0000
0000
0000
0000
0000
;

//--------------- dance-single - Melody Love ----------------
#NOTES:
     dance-single:
     Melody Love:
     Medium:
     9:
     0,0,0,0,0:
0000
0000
0000
0000
,
0000
0000
0000
0000
,
0000
0000
0000
0000
,
0000
0000
0000
0000
,
0000
0000
0000
0000
,
0000
0000
0000
0000
,
1000
0000
0000
1000
0000
0000
1000
0000
1000
0100
0000
0000
,
0010
0000
0000
0010
0000
0000
0010
0000
0010
0001
0000
0000
,
0100
0000
0000
0100
0000
0000
0100
0000
0100
0010
0000
0000
,
1000
0000
0000
1000
0000
0000
1000
0000
1000
0010
0000
0000
,
0100
0000
0000
0100
0000
0000
0100
0000
0100
0001
0000
0000
,
0010
0000
0000
0010
0000
0000
0010
0000
0010
0100
0000
0000
,
1000
0000
0000
1000
0000
0000
1000
0000
1000
0001
0000
0000
,
0001
0010
0100
1000
,
0002
0000
0000
0000
0010
0000
0100
0003
,
2000
0000
0000
0000
0100
0000
0010
3000
,
0001
0001
0010
0010
,
0100
0100
1000
1000
,
0020
0000
0000
0000
0100
0000
1000
0030
,
0200
0000
0000
0000
0010
0000
0001
0300
,
0010
0010
0100
0100
,
0001
0001
1000
1000
,
0020
0000
0000
0000
1000
0000
1000
0030
,
0200
0000
0000
0000
0001
0300
0001
0000
,
0010
0010
0100
0100
,
1000
1000
0001
0001
,
0020
0000
0000
0000
0100
0000
0001
0030
,
0200
0000
1000
0310
,
0001
0001
1000
1000
,
0001
0001
0100
0100
,
0002
0003
0102
0000
,
2003
0000
3000
0000
2100
0000
0000
3000
,
0001
0000
0000
0010
0000
0000
0001
0000
0010
0001
0000
0000
,
1000
0000
0000
0010
0000
0000
1000
0000
0010
1000
0000
0000
,
0010
0000
0000
0010
0000
0100
0010
0000
0000
0010
0000
0000
,
0100
0000
0000
0100
0000
0010
0100
0000
0000
0100
0000
0000
,
0001
0000
0000
0001
0000
0100
0001
0000
0000
0001
0000
0000
,
1000
0000
0000
1000
0000
0100
1000
0000
0000
1000
0000
0000
,
0001
0000
0100
0001
0000
0000
1000
0000
0100
1000
0000
0000
,
2002
0000
0000
3003
0110
0000
0000
0000
,
0010
0000
0100
0010
0000
0000
0100
0000
0010
0100
0000
0000
,
0220
0000
0000
0330
1001
0000
0000
0000
,
1000
0000
0100
1000
0000
0000
0001
0000
0100
0001
0000
0000
,
1000
0000
0010
1000
0000
0000
0001
0000
0010
0001
0000
0000
,
2002
0003
0020
3000
,
0200
0030
0302
0000
,
1003
0000
0000
0000
,
0000
0000
0000
0000
,
1100
1100
2100
3010
,
0101
0101
0102
0013
,
1100
2100
3020
0130
,
0101
0102
0023
0130
,
1000
0000
0000
0100
0000
0000
1000
0000
0100
0010
0000
0000
,
0001
0000
0000
0010
0000
0000
0001
0000
0010
0100
0000
0000
,
1000
0000
1000
0200
0000
0000
0320
0000
0000
0032
0000
0000
,
1003
0000
1000
0002
0000
0000
0013
0000
0010
0100
0010
0100
,
0020
0031
0100
0010
,
0120
1030
0100
0010
,
0210
1300
0010
0100
,
0210
0301
0010
0100
,
0210
1300
0120
0031
,
0210
1300
0120
0031
,
1000
0000
0001
0100
0000
0000
0010
0000
1000
0001
0000
0000
,
0100
0000
0010
0100
0000
0000
0001
0000
0000
1000
0000
0000
,
1000
0000
0100
1000
0000
0000
0001
0000
0100
0001
0000
0000
,
2002
0000
0000
3003
0110
0000
0000
0000
,
0010
0000
0100
0010
0000
0000
0100
0000
0010
0100
0000
0000
,
0220
0000
0000
0330
1001
0000
0000
0000
,
0001
0000
0100
0001
0000
0000
1000
0000
0100
1000
0000
0000
,
0001
0000
0010
0001
0000
0000
1000
0000
0010
1000
0000
0000
,
2002
3000
0020
0003
,
0200
0030
2300
0000
,
3001
0000
000M
0M00
0000
0000
0000
0000
0000
0000
0000
0000
;

//--------------- dance-single - Melody Love ----------------
#NOTES:
     dance-single:
     Melody Love:
     Hard:
     13:
     0,0,0,0,0:
0000
0000
0000
0000
,
0000
0000
0000
0000
,
0000
0000
0000
0000
,
0000
0000
0000
0000
,
0000
0000
0000
0000
,
0000
0000
0000
0000
,
1000
0000
0000
1000
0000
0100
1000
0000
0000
1000
0000
0000
,
1000
0000
0100
0001
0000
0000
0001
0000
0100
1000
0000
0000
,
1000
0000
0000
0001
0000
0100
0001
0000
0000
0001
0000
0000
,
0001
0000
0100
1000
0000
0000
1000
0000
0100
0001
0000
0000
,
0001
0000
0000
1000
0000
0010
1000
0000
0000
1000
0000
0000
,
1000
0000
0010
0001
0000
0000
0001
0000
0010
1000
0000
0000
,
1000
0000
0000
0001
0000
0010
0001
0000
0000
0001
0000
0000
,
0001
0000
0010
1000
0000
0000
0010
0000
0000
0100
0000
0000
,
2000
0000
0100
0000
0001
0000
0100
3000
,
0002
0000
0100
0000
1000
0003
0100
0000
,
0010
0000
0010
1000
0000
0000
0010
0000
0000
1000
0000
0000
,
0010
0000
0010
0100
0000
0000
0001
0000
0000
0100
0000
0000
,
0002
0000
0010
0000
1000
0000
0010
0003
,
2000
0000
0010
0000
0001
3000
0010
0000
,
0100
0000
0100
0001
0000
0000
0100
0000
0000
0001
0000
0000
,
0100
0000
0100
0010
0000
0000
1000
0000
0000
0010
0000
0000
,
1002
0100
0010
0103
,
2001
0100
0010
3100
,
1000
0000
0100
0010
0000
0000
0001
0000
0000
0001
0000
0000
,
0001
0000
0010
0100
0000
0000
1000
0000
0000
1000
0000
0000
,
0012
0100
1000
0013
,
2100
0010
0001
3100
,
1000
0000
0010
0100
0000
0000
0001
0000
0000
0001
0000
0000
,
0001
0000
0100
0010
0000
0000
1000
0000
0000
1000
0000
0000
,
1100
0000
0000
1100
0000
1000
0100
0000
0010
0100
0000
0000
,
0011
0000
0000
0011
0000
0010
0001
0000
0100
0010
0000
0000
,
1010
0000
0000
1010
0000
1000
0010
0000
0100
0001
0000
0000
,
0101
0000
0000
0101
0000
0001
0010
0000
0100
1000
0000
0000
,
0010
0000
0001
1000
0000
0000
0001
0000
0010
1000
0000
0000
,
0100
0000
0001
1000
0000
0000
0001
0000
0100
1000
0000
1000
,
0002
0000
0000
0103
0000
0100
0020
0000
0000
1030
0000
1000
,
0200
0000
0000
0310
0000
0010
0001
0000
1000
0001
0000
0001
,
1000
0000
0000
0001
0000
0100
1000
0000
0100
0010
0000
2000
,
0002
0000
0000
0000
0000
0000
0000
0000
0000
3003
0000
0000
0110
0000
0000
0000
0010
0000
0100
0000
0010
0000
0100
0000
,
0010
0000
0000
0100
0000
0010
1000
0000
0010
0001
0000
0020
,
0200
0000
0000
0000
0000
0000
0000
0000
0000
0330
0000
0000
1001
0000
0000
0000
0001
0000
1000
0000
0001
0000
1000
0000
,
0010
0000
0010
1000
0000
1000
0100
0000
0100
0001
0000
0001
,
0100
0000
0100
1000
0000
1000
0010
0000
0010
0001
0000
0001
,
0020
0000
0000
0030
0000
1000
0001
0000
1000
0001
0000
2000
,
0000
0000
0000
3000
0001
0000
0100
0000
0001
0000
0100
0000
0020
0000
0000
0030
1000
0000
0100
0000
1000
0000
0200
0000
,
0000
0300
0000
0000
0000
0000
0000
0000
0000
0000
0000
0000
0000
0000
0000
0000
0000
0000
0000
0000
0000
0000
0000
0000
,
0000
0000
0000
0000
,
0101
0000
0000
0101
0000
0000
0101
0000
0100
0010
0000
0010
,
1000
0000
0000
1010
0000
0000
1010
0000
1000
0100
0000
0100
,
0010
0000
0000
0110
0000
0000
0110
0000
0010
0001
0000
0001
,
0100
0000
0000
0101
0000
0000
0101
0000
0001
0100
0000
0100
,
0002
0000
0000
0013
0000
0000
1000
0000
0010
0002
0000
0000
,
0203
0000
0000
1300
0000
0100
0001
0000
1000
0001
0000
1000
,
0100
0000
0010
0001
0000
0100
0010
0000
1000
0100
0000
0010
,
0100
0000
0010
0001
0000
0010
0100
1000
0010
0100
0001
1000
,
0201
0000
0000
0301
0000
0010
0001
0000
0000
0100
0000
0000
,
1200
0000
0000
1300
0000
0010
1000
0000
0000
0100
0000
0000
,
0201
0000
0000
0301
0000
0010
0001
0000
0000
0100
0000
0000
,
1200
0000
0000
1300
0000
0010
1000
0000
0000
0100
0000
0000
,
0010
0000
0010
0001
0000
0001
0100
0000
0100
1000
0000
1000
,
0010
0000
0010
0001
0000
0001
0200
0000
0000
0310
0000
0000
,
1000
0000
0010
0100
0000
0000
0001
0000
0100
0010
0000
0010
,
1000
0000
0100
0010
0000
0010
0001
0000
0010
0100
0000
0100
,
1000
0000
0000
0001
0000
0100
1000
0000
0100
0010
0000
2000
,
0002
0000
0000
0000
0000
0000
0000
0000
0000
3003
0000
0000
0110
0000
0000
0000
0010
0000
0100
0000
0010
0000
0100
0000
,
0010
0000
0000
0100
0000
0010
1000
0000
0010
0001
0000
0020
,
0200
0000
0000
0000
0000
0000
0000
0000
0000
0330
0000
0000
1001
0000
0000
0000
0001
0000
1000
0000
0000
0000
0000
0000
,
1100
0000
1000
0001
0000
0000
0101
0000
0001
1000
0000
0000
,
1010
0000
1000
0001
0000
0000
0011
0000
0001
1000
0000
0000
,
2002
0000
0000
3003
0000
1000
0001
0000
1000
0001
0000
2000
,
0000
0000
0000
3000
0001
0000
0100
0000
0001
0000
0100
0000
0020
0000
0000
0030
1000
0000
0100
0000
1000
0000
0200
0000
,
0000
0300
0000
0000
00M0
0000
0M00
0000
0000
0000
0000
0000
0000
0000
0000
0000
0000
0000
0000
0000
0000
0000
0000
0000
;
