#TITLE:Mousou Kanshou Daishou Renmei;
#SUBTITLE:Kanade Yoisaki Cover;
#ARTIST:DECO*27;
#TITLETRANSLIT:;
#SUBTITLETRANSLIT:;
#ARTISTTRANSLIT:;
#GENRE:;
#CREDIT:;
#BANNER:banner.png;
#BACKGROUND:bg.png;
#LYRICSPATH:;
#CDTITLE:;
#MUSIC:MKDR.ogg;
#OFFSET:-0.071000;
#SAMPLESTART:49.436291;
#SAMPLELENGTH:17.454548;
#SELECTABLE:YES;
#BPMS:0.000000=110.000000
;
#STOPS:
;
#BGCHANGES:;
#KEYSOUNDS:;
#ATTACKS:;

//---------------dance-single - DS FS XO FSDS-----------------
#NOTES:
     dance-single:
     :
     Challenge:
     14:
     0.613064,0.643276,0.155539,0.579735,0.657504,607.000000,585.000000,22.000000,82.000000,14.000000,0.000000,0.613064,0.643276,0.155539,0.579735,0.657504,607.000000,585.000000,22.000000,82.000000,14.000000,0.000000:
0000
0000
0000
0000
,
0000
0000
0000
0000
0000
1000
1000
1000
,
0002
0000
0013
0000
0100
1000
0010
1000
0001
0100
0001
0010
0001
1000
0000
0100
,
1000
0000
0010
1000
0001
1000
0100
0010
0001
1000
0001
0100
0001
0010
0000
0100
,
1000
0000
M200
0001
0000
0000
0000
0310
1000
0000
M020
0001
0000
0000
0000
0130
,
1000
0000
0001
0100
0001
1000
0010
1000
0100
1000
0001
0100
0001
0000
0000
1000
,
0010
0M00
0010
0001
0000
0010
0100
1000
0100
0010
0001
0100
0001
1000
0000
0001
,
0010
0M00
0010
1000
0000
0010
0100
0001
0100
0010
1000
0100
1000
0001
0000
0100
,
0001
0000
020M
1000
0000
0000
0000
0310
0001
0000
002M
1000
0000
0000
0000
0130
,
0001
1000
0001
1000
0100
0010
0001
0010
0100
1000
0010
1000
0002
0000
0100
0000
,
1003
0000
0100
0000
0010
0000
0001
0100
0001
0000
1000
0000
0100
0000
1000
0000
,
0010
0000
0100
0000
0001
0000
1000
0100
1000
0000
0001
0000
0001
0000
0001
0000
,
2010
0000
3001
0100
0000
0010
1000
0100
0010
0100
1000
0010
1000
0001
0000
0100
,
0010
1000
0100
1000
0001
0100
0001
1000
0100
0010
0001
1000
0000
0010
0000
0100
,
0001
0000
020M
1000
0000
0000
0000
0310
0001
0000
002M
1000
0000
0000
0000
0130
,
0001
0000
1000
0100
1000
0010
0100
0001
1000
0100
0001
0100
1000
0000
0000
0000
,
1001
0000
0001
0000
0100
0010
0100
0001
1000
0100
0010
0100
1000
0001
0000
1000
,
0010
0000
1000
0100
1000
0001
0100
0010
1000
0100
1000
0001
1000
0010
0000
0100
,
0001
0000
020M
1000
0000
0000
0000
0310
0001
0000
002M
1000
0000
0000
0000
0130
,
0001
1000
0100
1000
0010
0100
0010
1000
0001
0100
1000
0100
0001
0000
1000
0100
,
0020
0000
0031
1000
1002
0000
0103
0020
,
0000
0000
0130
0000
1000
0000
0100
0001
1000
0000
0100
0000
0010
0000
0001
0000
,
1002
0000
0000
0000
1003
0000
0100
0010
0100
0000
0001
0000
0100
0000
1000
0000
,
2001
3100
1002
0103
2001
3100
1002
0103
,
1100
0000
0100
0000
0101
0000
0001
1000
0010
0000
1000
0001
0010
0000
1000
0000
,
0010
0000
0100
0000
1000
0000
0001
0100
0010
0000
0100
0000
1000
0000
0100
0010
,
1000
0000
0001
0000
1000
0100
0010
0100
0002
0000
0000
0000
0103
0000
1000
0000
,
2001
0000
3100
0000
1002
0000
0103
0000
0010
1000
0001
0000
2001
0000
3100
0000
,
0101
0000
0100
0000
1100
0000
1000
0001
0100
0001
1000
0000
0010
0000
0001
0000
,
0010
0000
0100
0000
0001
0000
1000
0100
0010
0000
0100
0000
0001
0000
0100
0010
,
0001
1000
0001
1000
0020
0000
0200
0330
,
1002
0000
0000
0000
0000
0000
1003
0100
0001
0100
0020
0000
0032
0000
0000
0000
,
2003
0000
0000
0000
0000
0000
3001
0100
1000
0100
0020
0000
2030
0000
0000
0000
,
3001
0010
0001
0100
0001
1000
0100
1000
0010
0100
1000
0100
0001
0000
1000
0001
,
1000
0100
00M0
0100
0001
0000
1000
0010
0M00
0010
0001
0010
0100
0000
1000
0001
,
0200
0000
0320
0000
1030
0001
1000
0200
,
0000
0310
1000
0010
0001
1000
0010
0100
,
0002
0000
0000
0000
0000
0000
0013
0100
1000
0000
0001
0000
2000
0000
0002
0000
,
0000
0000
0000
0000
3003
0001
0100
0020
,
1000
0230
0001
0320
1000
0130
0001
0200
,
1000
0000
0320
0000
0001
0000
0130
0001
1000
0000
0100
1000
0001
0000
0010
0000
,
0100
1000
0100
0001
0100
0010
0001
0100
,
1000
0000
0100
0000
0010
0000
0100
0000
0002
0000
0000
0000
1003
0000
0100
0020
,
0001
0000
0230
0000
1000
0000
0310
0000
0001
1000
0001
0000
0010
0000
0200
0000
,
0001
0000
0320
0000
1000
0000
0130
1000
0001
0100
0001
0000
1000
0000
0010
0000
,
1000
0000
0100
0000
0010
0000
0001
0000
1000
0010
1000
0010
0100
0001
0100
0001
,
1000
0100
0010
0001
1000
0000
2001
0000
,
3010
0001
0010
1000
0020
0000
0000
0000
0130
1000
0100
0001
0200
0000
0000
0000
,
0310
0000
1010
0000
0001
0010
0000
0002
0100
0000
2003
0000
0100
0000
3001
0000
,
0010
1000
0010
0001
0020
0000
0000
0000
0130
0001
0100
1000
0200
0000
0000
0300
,
0012
0000
0103
0000
2010
0000
3100
0010
0001
0000
1000
0000
1002
0000
0000
0000
,
0013
1000
0010
0001
0020
0000
0000
0000
0130
0001
0100
1000
0200
0000
0000
0000
,
0310
0000
0011
0000
1000
0010
0000
2000
0100
0000
3002
0000
0100
0000
1003
0000
,
0010
0001
0010
1000
0020
0000
0000
0000
0130
1000
0100
0001
0200
0000
0000
0000
,
0301
0100
00M0
0100
1000
0000
0001
0010
0M00
0010
1000
0010
0200
0000
0000
0000
,
0301
0100
0010
1000
0002
0000
0000
0000
1003
0100
0010
0001
2000
0000
0000
0000
,
0100
0000
3002
0000
0000
0203
0000
0000
0310
0000
1000
0100
1000
0000
0001
0000
,
1000
0010
0100
0001
2000
0000
0000
0000
3001
0010
0100
1000
0002
0000
0000
0000
,
0100
2003
0010
3002
2003
0000
0000
0000
,
3001
0010
0001
0010
0002
0000
0000
0000
1003
0100
1000
0100
2000
0000
0000
0000
,
0001
0000
3020
0000
0000
0230
0000
0000
0301
1000
0100
0000
0010
0000
0001
0000
,
1000
0010
1000
0010
2000
0000
0000
0000
3001
0100
0001
0100
0002
0000
0000
0000
,
0010
2003
0100
3002
2000
0000
3003
0000
;

//---------------dance-single - ----------------
#NOTES:
     dance-single:
     :
     Hard:
     11:
     0.457526,0.488002,0.014140,0.388846,0.272193,453.000000,451.000000,2.000000,55.000000,0.000000,0.000000,0.457526,0.488002,0.014140,0.388846,0.272193,453.000000,451.000000,2.000000,55.000000,0.000000,0.000000:
0000
0000
0000
0000
,
0000
0000
0000
0000
0000
1000
0100
1000
,
0001
0000
0001
0000
1000
0000
0010
0000
0100
0000
0001
0000
1000
0100
0000
0010
,
0001
0000
1000
0000
0010
0000
1000
0000
0001
0000
1000
0000
0001
0100
0000
0001
,
0010
0000
0010
1000
0000
0000
0000
0001
0100
0000
0100
1000
0000
0000
0000
0001
,
1000
0100
0001
1000
0010
0001
1000
0000
,
0001
0000
0100
0010
0000
0100
0001
0000
1000
0000
0100
0000
0010
0001
0000
1000
,
0010
0000
0100
0001
0000
0100
0010
0000
1000
0000
0001
0000
0100
0010
0000
1000
,
0010
0000
0010
0001
0000
0000
0000
1000
0100
0000
0100
0001
0000
0000
0000
1000
,
0001
0100
1000
0001
0010
1000
0100
0010
,
0002
0100
0000
1003
0200
0010
0000
1300
,
0020
0001
0000
0130
0001
1000
0100
1000
,
0001
0000
0100
1000
0000
0100
0001
0000
1000
0000
0100
0000
0010
0001
0000
1000
,
0100
0000
0001
0000
0100
0000
1000
0000
0100
0000
0010
0001
0000
1000
0000
0001
,
0100
0000
0100
1000
0000
0000
0000
0001
0010
0000
0010
1000
0000
0000
0000
0001
,
1000
0100
0001
1000
0010
0001
1000
0010
,
0100
1000
0001
0010
1000
0100
1000
0001
,
1000
0000
0100
0000
0001
0000
1000
0000
0010
0000
0001
0000
1000
0000
0000
0001
,
0100
0000
0100
1000
0000
0000
0000
0001
0010
0000
0010
1000
0000
0000
0000
0001
,
1000
0000
0100
0000
0001
0000
1000
0000
0010
0000
0001
0000
1000
0000
0001
0100
,
2000
0000
3200
0000
0302
0000
1003
0200
,
0000
0310
1000
0010
0001
1000
0010
0100
,
0002
0000
0000
0000
0000
0000
0013
0100
0010
0000
0001
0000
0010
0000
0100
0000
,
1000
1000
0001
0001
0100
0100
0010
0010
,
0001
0010
1000
0010
0001
0010
0100
0001
,
1000
0100
0010
0100
0001
1000
0010
0001
,
1000
0001
0100
0010
2000
0000
3100
0010
,
0001
0000
0001
0000
1000
0000
1000
0000
0100
1000
0100
0000
0010
0000
0010
0000
,
1000
0000
0010
0000
0001
0000
0010
0100
1000
0000
0001
0000
0100
0000
0010
0000
,
1000
0100
0010
0100
0001
1000
0010
0001
,
1000
0010
0100
0001
2000
0000
3200
0000
,
0320
0000
0000
0000
,
0000
0000
0000
0000
,
0031
0000
1000
0010
1000
0000
0100
0000
0010
0000
0001
0100
0001
0000
1000
0000
,
0001
0010
0000
0001
0010
0000
0100
1000
0000
0100
1000
0000
0001
0000
1000
0100
,
0002
0000
0203
0000
0320
0000
0031
0200
,
0000
0310
0001
0010
1000
0001
0010
0100
,
2000
0000
0000
0000
0000
0000
3010
0100
0010
0000
1000
0000
0001
0000
1000
0000
,
0000
0000
0000
0000
0000
0001
0010
0100
,
1000
1000
0001
0001
0100
0100
0010
0010
,
0001
0010
1000
0010
0001
0010
1000
0002
,
0000
0013
0100
1000
0010
1000
0001
0100
,
1000
0100
0010
0100
0002
0000
0000
1003
,
0001
0000
0001
0000
1000
0000
1000
0000
0100
0010
0100
0000
0010
0000
0010
0000
,
1000
0010
0001
0010
1000
0010
0001
2000
,
0000
3010
0100
0001
0010
0001
1000
0100
,
0001
0100
0010
0100
2000
0000
3002
0000
,
1003
0010
1000
0010
2000
0000
0000
0000
3001
0100
0001
0100
0002
0000
0000
0000
,
1003
0000
0100
0000
0000
1100
0000
0000
0002
0000
0000
0000
0203
0000
0000
0000
,
0310
1000
0010
1000
0020
0000
0000
0000
0130
0001
0100
0001
0200
0000
0000
0000
,
0310
1000
0001
1000
0200
0000
0000
0000
,
0310
0001
0010
0001
0020
0000
0000
0000
0130
1000
0100
1000
0200
0000
0000
0000
,
1300
0000
0010
0000
0000
1010
0000
0000
0002
0000
0000
0000
2003
0000
0000
0000
,
3001
0010
0001
0010
0002
0000
0000
0000
1003
0100
1000
0100
2000
0000
0000
0000
,
3001
0100
1000
0100
0002
0000
0000
0000
,
1003
0000
0001
0010
0002
0000
0000
0000
1003
0000
0001
0100
0002
0000
0000
0000
,
0013
0000
0200
0000
0000
2300
0000
0000
3002
0000
0000
0000
0203
0000
0000
0000
,
0310
0000
1000
0001
2000
0000
0000
0000
3100
0000
1000
0001
2000
0000
0000
0000
,
3010
0100
0001
0100
0020
0000
1030
0000
,
0001
0000
1000
0010
2000
0000
0000
0000
3001
0000
1000
0100
2000
0000
0000
0000
,
3010
0000
0200
0000
0000
0302
0000
0000
2003
0000
0000
0000
3200
0000
0000
0000
,
0310
0000
0001
1000
0002
0000
0000
0000
0103
0000
0001
1000
0002
0000
0000
0000
,
0013
0100
1000
0002
2000
0000
3003
0000
;

//---------------dance-single - ----------------
#NOTES:
     dance-single:
     :
     Medium:
     8:
     0.371677,0.378595,0.000000,0.374707,0.014140,368.000000,368.000000,0.000000,53.000000,0.000000,0.000000,0.371677,0.378595,0.000000,0.374707,0.014140,368.000000,368.000000,0.000000,53.000000,0.000000,0.000000:
// measure 0
0000
0000
0000
0000
,  // measure 1
0000
0000
0000
0000
0000
1000
0001
1000
,  // measure 2
0001
0000
1000
0100
0010
0001
2000
0000
,  // measure 3
3001
0100
0010
1000
0010
0100
0002
0000
,  // measure 4
2003
3100
0002
0103
,  // measure 5
1000
0100
1000
0100
0010
0001
1000
0000
,  // measure 6
0001
0100
0010
1000
0010
0100
0002
0000
,  // measure 7
1003
0100
0010
0001
0010
0100
2000
0000
,  // measure 8
3002
0103
2000
3100
,  // measure 9
0010
0001
0100
0001
0010
0100
1000
0001
,  // measure 10
0100
0001
0000
1000
0100
1000
0000
0001
,  // measure 11
0010
0001
0000
1000
0010
1000
0001
1000
,  // measure 12
0001
0010
0001
0100
0001
0010
0200
0000
,  // measure 13
1300
0010
0100
0010
1000
0010
0200
0000
,  // measure 14
0302
0013
2000
3010
,  // measure 15
0100
0001
0010
0001
0100
0010
2000
0000
,  // measure 16
3001
0010
0100
1000
0010
1000
0002
0000
,  // measure 17
0103
0010
0100
0001
0010
0001
2000
0000
,  // measure 18
3002
0013
2000
3010
,  // measure 19
0100
0001
1000
0100
0010
0001
0010
0100
,  // measure 20
2000
0000
3020
0000
0230
0000
0301
1000
,  // measure 21
0000
0001
0010
0001
1000
0010
0100
0001
,  // measure 22
0020
0000
0130
1000
0001
1000
0001
0100
,  // measure 23
1000
0100
0001
0100
1000
0100
0001
0010
,  // measure 24
1000
0010
0001
0010
1000
0010
0001
1000
,  // measure 25
0000
0001
0100
0001
0010
0100
1000
0010
,  // measure 26
1000
0001
1000
0001
2000
0000
0000
3100
,  // measure 27
0001
0100
1000
0100
0001
0100
1000
0010
,  // measure 28
0001
0010
1000
0010
0001
0010
1000
0001
,  // measure 29
0000
1000
0100
1000
0010
0100
0001
0010
,  // measure 30
0001
1000
0001
1000
0002
0000
0023
0000
,  // measure 31
0230
0000
0000
0000
,  // measure 32
0300
0000
0000
0000
,  // measure 33
1000
0010
1000
0010
0100
0001
0100
0001
,  // measure 34
2000
3200
0320
0032
,  // measure 35
2003
0000
3020
0000
0230
0000
0301
1000
,  // measure 36
0000
0001
0010
0001
1000
0010
0100
0001
,  // measure 37
2000
0000
0000
0000
3100
0010
0001
2000
,  // measure 38
0000
0000
0000
0000
0000
3001
0100
0001
,  // measure 39
0010
0001
0100
0001
0010
0001
0100
0010
,  // measure 40
1000
0100
1000
0010
1000
0100
1000
0001
,  // measure 41
0000
0100
0010
1000
0002
0000
0023
0000
,  // measure 42
0130
1000
0100
1000
0002
0000
0000
1003
,  // measure 43
0010
1000
0100
1000
0010
1000
0100
0010
,  // measure 44
0001
0100
0001
0010
0001
0100
0001
1000
,  // measure 45
0000
0100
0010
0001
1000
0001
1000
0001
,  // measure 46
0200
0320
2030
3002
,  // measure 47
1003
0100
1000
0000
0001
0100
0002
0000
,  // measure 48
0013
0000
0100
0000
0000
1000
0000
0000
0002
0000
0000
0000
0203
0000
0000
0000
,  // measure 49
0310
1000
0010
0000
0100
0001
0100
0000
,  // measure 50
0010
1000
0001
1000
0200
0000
0310
0000
,  // measure 51
0001
0100
0001
0000
1000
0100
2000
0000
,  // measure 52
3010
0000
0100
0000
0000
0001
0000
0000
2000
0000
0000
0000
3200
0000
0000
0000
,  // measure 53
0310
0001
0010
0000
0100
1000
0100
0000
,  // measure 54
0010
0001
1000
0001
0200
0000
0000
0000
,  // measure 55
0310
1000
0100
0000
0010
0001
0100
0000
,  // measure 56
0010
0000
1000
0000
0000
0001
0000
0000
2000
0000
0000
0000
3000
0000
0000
0000
,  // measure 57
0100
0010
0001
0000
0100
0010
1000
0000
,  // measure 58
0001
1000
0001
1000
0002
0000
0000
0000
,  // measure 59
0013
0001
0100
0000
0010
1000
0100
0000
,  // measure 60
0010
0000
0001
0000
0000
1000
0000
0000
0002
0000
0000
0000
0003
0000
0000
0000
,  // measure 61
0100
0010
1000
0000
0100
0010
0001
0000
,  // measure 62
1000
0001
1000
0001
2000
0000
0000
0000
,  // measure 63
3000
0000
0000
0000
;
