#TITLE:Motivation;
#SUBTITLE:;
#ARTIST:Normani;
#TITLETRANSLIT:;
#SUBTITLETRANSLIT:;
#ARTISTTRANSLIT:;
#GENRE:;
#CREDIT:;
#BANNER:Motivation.png;
#BACKGROUND:Motivation-bg.png;
#LYRICSPATH:;
#CDTITLE:;
#MUSIC:Motivation.ogg;
#OFFSET:-0.694000;
#SAMPLESTART:45.554001;
#SAMPLELENGTH:14.035000;
#SELECTABLE:YES;
#BPMS:0.000000=171.000000
;
#STOPS:
;
#BGCHANGES:-1.978=Motivation.avi=1.000=1=0=0=StretchNoLoop==CrossFade==,
99999=-nosongbg-=1.000=0=0=0 // don't automatically add -songbackground-
;
#KEYSOUNDS:;
#ATTACKS:;

//---------------dance-single - ----------------
#NOTES:
     dance-single:
     :
     Hard:
     12:
     0.542086,0.596365,0.245946,0.570947,0.061487,432.000000,404.000000,28.000000,65.000000,0.000000,0.000000,0.542086,0.596365,0.245946,0.570947,0.061487,432.000000,404.000000,28.000000,65.000000,0.000000,0.000000:
// measure 0
0000
0000
0000
0000
,  // measure 1
0000
0000
0000
0000
,  // measure 2
0000
0000
0000
0000
,  // measure 3
0000
0000
0000
0000
,  // measure 4
0001
1000
0001
0100
2000
0000
3100
0010
,  // measure 5
1000
0001
0010
0100
2000
0000
3020
0000
,  // measure 6
2030
0000
3100
0000
0000
0100
0000
0100
,  // measure 7
1000
0001
1000
0000
0220
0000
0330
0000
,  // measure 8
1001
0001
0100
0101
,  // measure 9
0002
0000
0023
0000
0130
1000
0100
1000
,  // measure 10
0020
0000
0130
0000
1002
0000
0013
0100
,  // measure 11
0020
0000
0230
0000
1300
0010
1000
0010
,  // measure 12
0100
0000
0100
0000
1001
0000
1000
0001
,  // measure 13
0010
0000
0001
1000
0020
0000
0130
0001
,  // measure 14
0020
0000
0230
0000
1300
0100
0001
0000
,  // measure 15
0001
0000
0100
0000
1000
0000
0010
0000
0100
0000
0001
0000
1000
0000
0100
0010
,  // measure 16
0100
1000
0010
1010
,  // measure 17
0020
0000
0230
0000
0301
0010
0100
1000
,  // measure 18
0001
0000
0010
0000
0011
0000
1000
0100
,  // measure 19
0020
0000
0032
0000
1003
0001
1000
0001
,  // measure 20
0200
0000
0310
0000
1001
0000
0001
1000
,  // measure 21
0100
0000
1000
0001
0100
0000
0001
1000
,  // measure 22
0020
0000
0230
0000
0301
0100
1000
0000
,  // measure 23
1000
0000
0100
0000
0001
0000
0010
0000
0100
0000
1000
0000
0010
0000
1000
0001
,  // measure 24
1000
0000
0012
0000
0100
0000
1003
0001
,  // measure 25
0200
0000
0302
0000
2003
0000
3010
0000
0000
1001
0000
0000
,  // measure 26
0002
0000
0023
0000
0230
0000
0302
0000
0203
0000
2300
0000
,  // measure 27
3020
0000
0000
0000
0230
0000
0000
0000
2300
0000
0000
0000
3100
0000
0000
0001
0000
0000
1000
0000
0000
0001
0000
0000
,  // measure 28
0010
0000
2001
0000
0100
0000
3010
1000
,  // measure 29
0200
0000
0000
0000
0320
0000
0000
0000
0032
0000
0000
0000
1003
0000
0000
0010
0000
0000
0200
0000
0000
0000
0000
0000
,  // measure 30
0301
0000
0000
0000
,  // measure 31
0000
1000
0001
1000
0010
0010
1000
0001
,  // measure 32
1000
0100
1000
0100
0010
0000
0001
0100
,  // measure 33
0010
0100
0001
1000
0020
0000
0230
0000
,  // measure 34
1000
0000
0010
0000
0301
1000
0000
1000
,  // measure 35
0001
0010
0100
1000
0020
0000
0130
0001
,  // measure 36
0010
0100
0010
0100
0002
0000
0103
1000
,  // measure 37
0010
0100
0010
0100
1000
0000
2010
0000
,  // measure 38
0001
0000
0100
0000
3001
0100
0000
0100
,  // measure 39
0001
0000
1000
0000
0100
0000
0010
0000
0001
0000
1000
0000
0010
0000
0100
0001
,  // measure 40
1000
0001
1000
0001
0010
0000
0022
0000
,  // measure 41
0033
0000
0010
0100
1000
0001
1000
0010
,  // measure 42
0100
0010
0100
0001
1000
0000
2020
0000
,  // measure 43
3030
0000
0010
0100
0001
1000
0200
0000
,  // measure 44
0310
0000
0110
1001
,  // measure 45
1000
0100
1000
0000
0001
0100
0001
0000
,  // measure 46
1000
0010
0100
0001
0020
0000
0230
0000
,  // measure 47
0001
0000
0010
0000
1300
0001
0100
0100
,  // measure 48
0010
0000
0000
0000
,  // measure 49
0000
0110
0000
0000
,  // measure 50
1001
0000
0000
0000
,  // measure 51
0000
0000
0011
0000
0000
1100
0000
0000
,  // measure 52
1010
0000
0000
0000
,  // measure 53
0000
1001
0000
0000
,  // measure 54
0001
0010
0001
1000
0010
0000
0100
0000
,  // measure 55
0000
0000
0000
0000
0001
1000
0010
0010
,  // measure 56
0100
0000
0100
0000
0100
0010
1000
0100
,  // measure 57
0000
0100
1000
0000
0001
0000
0100
0000
,  // measure 58
0010
0000
1001
0000
0001
0010
0100
2000
,  // measure 59
0000
3010
0100
1000
0100
0001
0010
0100
,  // measure 60
1000
0000
2001
0000
3010
0000
1000
0001
,  // measure 61
0000
0001
1000
0000
0001
0010
0001
0010
,  // measure 62
0100
2002
0000
0000
,  // measure 63
3003
0000
0000
0000
1000
0001
0100
0100
,  // measure 64
0001
0010
0001
0010
0100
0000
1000
0010
,  // measure 65
0100
0010
1000
0100
0010
0000
2001
0000
,  // measure 66
0100
0000
0001
0000
3010
1000
0000
1000
,  // measure 67
0100
0010
0001
1000
0010
0100
0001
0001
,  // measure 68
1000
0010
0100
0010
0002
0000
0013
1000
,  // measure 69
0100
0001
0100
1000
0001
0000
0012
0000
,  // measure 70
0100
0000
1000
0000
0013
0001
0000
0001
,  // measure 71
1000
0000
0010
0000
0100
0000
0001
0000
1000
0000
0100
0000
0010
0000
0001
1000
,  // measure 72
0001
0000
0000
0000
,  // measure 73
0000
0000
0000
0000
1000
0001
0010
0010
,  // measure 74
0001
0100
0010
1000
0100
0000
0012
0000
,  // measure 75
1000
0000
0103
0001
1000
0010
0200
0000
,  // measure 76
2300
0000
3200
0000
0301
0010
1000
0010
,  // measure 77
0100
0010
0001
1000
0001
0100
1000
0100
,  // measure 78
0001
0010
0100
1000
0020
0000
0230
0000
,  // measure 79
1000
0000
0301
0000
1000
0001
0010
0010
;

//---------------dance-single - ----------------
#NOTES:
     dance-single:
     :
     Beginner:
     2:
     0.104151,0.280203,0.070270,0.000000,0.000000,83.000000,75.000000,8.000000,0.000000,0.000000,0.000000,0.104151,0.280203,0.070270,0.000000,0.000000,83.000000,75.000000,8.000000,0.000000,0.000000,0.000000:
// measure 0
0000
0000
0000
0000
,  // measure 1
0000
0000
0000
0000
,  // measure 2
0000
0000
0000
0000
,  // measure 3
0000
0000
0000
0000
,  // measure 4
0000
0000
0000
0000
,  // measure 5
0000
0000
0000
0000
,  // measure 6
0000
0000
0000
0000
,  // measure 7
0000
0000
0000
0000
,  // measure 8
0001
0000
0000
0000
,  // measure 9
0001
0000
0000
0000
,  // measure 10
1000
0000
0000
0000
,  // measure 11
1000
0000
0000
0000
,  // measure 12
0001
0000
0000
0000
,  // measure 13
0001
0000
0000
0000
,  // measure 14
1000
0000
1000
0000
,  // measure 15
0001
0000
0001
0000
,  // measure 16
0100
0000
0000
0000
,  // measure 17
0100
0000
0000
0000
,  // measure 18
0010
0000
0000
0000
,  // measure 19
0010
0000
0000
0000
,  // measure 20
0100
0000
0000
0000
,  // measure 21
0100
0000
0000
0000
,  // measure 22
0010
0000
0010
0000
,  // measure 23
0100
0100
0000
0000
,  // measure 24
1001
0000
0000
0000
,  // measure 25
1000
0000
0000
0000
,  // measure 26
1001
0000
0000
0000
,  // measure 27
0001
0000
0000
0000
,  // measure 28
0110
0000
0000
0000
,  // measure 29
0010
0000
0000
0000
,  // measure 30
0100
0000
0000
0000
,  // measure 31
0000
0000
0000
0000
,  // measure 32
1000
0000
0001
0000
,  // measure 33
1000
0000
0000
0000
,  // measure 34
0001
0000
1000
0000
,  // measure 35
0001
0000
0000
0000
,  // measure 36
0100
0000
0010
0000
,  // measure 37
0100
0000
0000
0000
,  // measure 38
0010
0000
0100
0000
,  // measure 39
0010
0000
0000
0000
,  // measure 40
1001
0000
0000
0000
,  // measure 41
0000
0000
0000
0000
,  // measure 42
0110
0000
0000
0000
,  // measure 43
0000
0000
0000
0000
,  // measure 44
1001
0000
0000
0000
,  // measure 45
0000
0000
0000
0000
,  // measure 46
1000
0000
1000
0000
,  // measure 47
0001
0000
0001
0000
,  // measure 48
0000
0000
0000
0000
,  // measure 49
0000
0000
0000
0000
,  // measure 50
0000
0000
0000
0000
,  // measure 51
0000
0000
0000
0000
,  // measure 52
0000
0000
0000
0000
,  // measure 53
0000
0000
0000
0000
,  // measure 54
0000
0000
0000
0000
,  // measure 55
0000
0000
0000
0000
,  // measure 56
1000
0000
0000
0000
,  // measure 57
0000
0000
0000
0000
,  // measure 58
0001
0000
0000
0000
,  // measure 59
0000
0000
0000
0000
,  // measure 60
1000
0000
0000
0000
,  // measure 61
0000
0000
0000
0000
,  // measure 62
0001
0001
0000
0000
,  // measure 63
0000
0000
0000
0000
,  // measure 64
0001
0000
1000
0000
,  // measure 65
0001
0000
0000
0000
,  // measure 66
1000
0000
0001
0000
,  // measure 67
1000
0000
0000
0000
,  // measure 68
0010
0000
0100
0000
,  // measure 69
0010
0000
0000
0000
,  // measure 70
0100
0000
0010
0000
,  // measure 71
0100
0000
0000
0000
,  // measure 72
0000
0000
0000
0000
,  // measure 73
0000
0000
0100
0100
,  // measure 74
0100
0000
0110
0000
,  // measure 75
0001
0000
1001
0000
,  // measure 76
1000
0000
0000
0000
,  // measure 77
0000
0000
0000
0000
,  // measure 78
1000
0000
0001
0000
,  // measure 79
1000
0000
0010
0010
;

//---------------dance-single - ----------------
#NOTES:
     dance-single:
     :
     Easy:
     4:
     0.170657,0.280203,0.052703,0.140541,0.000000,136.000000,130.000000,6.000000,16.000000,0.000000,0.000000,0.170657,0.280203,0.052703,0.140541,0.000000,136.000000,130.000000,6.000000,16.000000,0.000000,0.000000:
// measure 0
0000
0000
0000
0000
,  // measure 1
0000
0000
0000
0000
,  // measure 2
0000
0000
0000
0000
,  // measure 3
0000
0000
0000
0000
,  // measure 4
0000
0000
0000
0000
,  // measure 5
0000
0000
0000
0000
,  // measure 6
0000
0000
0000
0000
,  // measure 7
0000
0000
0000
0000
,  // measure 8
1000
0000
0001
0000
,  // measure 9
0100
0100
0000
0000
,  // measure 10
0001
0000
1000
0000
,  // measure 11
0100
0100
0000
0000
,  // measure 12
1000
0000
0010
0000
,  // measure 13
1000
1000
0002
0003
,  // measure 14
0000
0000
2000
0000
,  // measure 15
3200
0000
0320
0000
,  // measure 16
0031
0000
1000
0000
,  // measure 17
0010
0010
0000
0000
,  // measure 18
1000
0000
0001
0000
,  // measure 19
0010
0010
0000
0000
,  // measure 20
0001
0000
0100
0000
,  // measure 21
0010
0010
0020
0030
,  // measure 22
0000
0000
1000
0001
,  // measure 23
1000
0001
1000
0000
,  // measure 24
1001
2000
0000
0000
,  // measure 25
3001
0001
0010
0000
,  // measure 26
0002
0000
2003
0000
,  // measure 27
3002
0000
0203
0000
,  // measure 28
0301
2002
0000
3003
,  // measure 29
1000
1000
0001
0001
,  // measure 30
0010
0000
0000
0000
,  // measure 31
0001
0000
1000
0000
,  // measure 32
0001
0001
0010
0000
,  // measure 33
1000
0000
0001
0000
,  // measure 34
1000
1000
0010
0000
,  // measure 35
0001
0000
0100
0000
,  // measure 36
0001
0000
1000
0000
,  // measure 37
0100
0100
1000
0000
,  // measure 38
1000
0000
0001
0000
,  // measure 39
0100
0100
0001
0000
,  // measure 40
0002
0000
0000
0000
,  // measure 41
0000
0000
0103
0000
,  // measure 42
2000
0000
0000
0000
,  // measure 43
0000
0000
3010
0000
,  // measure 44
1001
0000
0000
0000
,  // measure 45
0000
0000
0000
0000
,  // measure 46
0001
0000
1000
0000
,  // measure 47
0001
0000
1000
1000
,  // measure 48
0000
0000
0000
0000
,  // measure 49
0000
0000
0000
0000
,  // measure 50
0000
0000
0000
0000
,  // measure 51
0000
0000
0000
0000
,  // measure 52
0000
0000
0000
0000
,  // measure 53
0000
0000
0000
0000
,  // measure 54
0000
0000
0000
0000
,  // measure 55
0000
0000
0000
0000
,  // measure 56
1000
0000
0001
0000
,  // measure 57
1000
0000
1000
0000
,  // measure 58
0001
0000
1000
0000
,  // measure 59
0001
0000
0001
0000
,  // measure 60
0100
0000
0010
0000
,  // measure 61
0100
0000
0100
0000
,  // measure 62
0001
0002
0000
0000
,  // measure 63
0000
0000
0003
0000
,  // measure 64
1000
0000
0001
0000
,  // measure 65
1000
1000
0010
0000
,  // measure 66
0001
0000
1000
0000
,  // measure 67
0001
0001
0010
0000
,  // measure 68
1000
0000
0100
0000
,  // measure 69
1000
0000
0001
0000
,  // measure 70
0100
0100
0001
0000
,  // measure 71
0001
0000
1000
0000
,  // measure 72
0100
0100
0000
0000
,  // measure 73
0000
0000
0100
0100
,  // measure 74
1000
0000
0000
0002
,  // measure 75
0000
0000
0000
0000
,  // measure 76
0013
0000
1001
0000
,  // measure 77
0110
0000
1001
0000
,  // measure 78
1000
0000
0001
0000
,  // measure 79
0100
0000
0010
0010
;

//---------------dance-single - ----------------
#NOTES:
     dance-single:
     :
     Medium:
     8:
     0.338804,0.456044,0.298649,0.474325,0.000000,270.000000,236.000000,34.000000,54.000000,0.000000,0.000000,0.338804,0.456044,0.298649,0.474325,0.000000,270.000000,236.000000,34.000000,54.000000,0.000000,0.000000:
// measure 0
0000
0000
0000
0000
,  // measure 1
0000
0000
0000
0000
,  // measure 2
0000
0000
0000
0000
,  // measure 3
0000
0000
0000
0000
,  // measure 4
0000
0000
0000
0000
,  // measure 5
0000
0000
0000
0000
,  // measure 6
0000
0000
0000
0000
,  // measure 7
0000
0000
0000
0000
,  // measure 8
1000
0001
0100
0100
,  // measure 9
0001
1000
1001
0000
,  // measure 10
1000
0100
0100
1000
,  // measure 11
0010
0100
0110
0000
,  // measure 12
0100
0001
0020
0000
,  // measure 13
0130
1000
0020
0000
,  // measure 14
0130
0000
0001
0000
1000
0001
1000
0000
,  // measure 15
0001
1000
0001
0000
1000
0001
2000
0000
,  // measure 16
3100
1000
0010
0010
,  // measure 17
0100
0001
0101
0000
,  // measure 18
0001
0000
0010
0000
0010
0000
0100
1000
,  // measure 19
0100
0010
0001
0001
,  // measure 20
1000
0010
1010
0000
,  // measure 21
0001
1000
0002
0000
,  // measure 22
1003
0000
0100
0000
0010
0100
0010
0000
,  // measure 23
0100
0010
0100
0000
0010
0100
0020
0000
,  // measure 24
0031
2001
0000
0000
,  // measure 25
0010
0010
0100
0000
,  // measure 26
0001
0001
0010
0010
,  // measure 27
0100
0100
0002
3003
,  // measure 28
0001
0102
0000
0000
,  // measure 29
1000
1000
0010
0100
,  // measure 30
1003
0000
0000
0000
,  // measure 31
0000
0000
0000
0000
,  // measure 32
2000
3020
0032
0023
,  // measure 33
1030
0001
1000
0000
0001
0000
0202
0000
,  // measure 34
0303
0000
1001
0000
0000
1100
0000
0000
,  // measure 35
1000
0100
0020
0031
,  // measure 36
0002
0023
2030
3020
,  // measure 37
0031
1000
0001
0000
0100
0000
0220
0000
,  // measure 38
0330
0000
1010
0000
0000
1001
0000
0000
,  // measure 39
0001
0010
0100
0000
1000
0000
0001
0000
,  // measure 40
1000
1000
0010
0200
,  // measure 41
2300
3200
0301
0010
,  // measure 42
0001
0001
1000
0200
,  // measure 43
0302
0000
0203
0000
1300
0001
1000
0000
,  // measure 44
1001
0000
0110
0000
,  // measure 45
1001
0000
0110
0000
,  // measure 46
1000
0001
1000
0001
1000
0000
0020
0000
,  // measure 47
0000
0130
0001
1000
,  // measure 48
0100
0000
0000
0000
,  // measure 49
0000
1100
0000
0000
,  // measure 50
1100
0000
0000
0000
,  // measure 51
0000
0000
0001
0000
0000
0100
0000
0000
,  // measure 52
0001
0000
0000
0000
,  // measure 53
0000
1000
0000
0000
,  // measure 54
0001
1000
0001
1000
0001
0000
0010
0000
,  // measure 55
0000
0000
0000
0000
,  // measure 56
1000
0010
1010
0000
,  // measure 57
0001
0010
0011
0000
,  // measure 58
1000
0100
1100
0000
,  // measure 59
0001
0100
0001
0010
,  // measure 60
0001
0202
0000
0000
,  // measure 61
0303
0000
1000
0001
,  // measure 62
1000
2002
0000
0000
,  // measure 63
0000
0000
3003
0000
,  // measure 64
0002
0203
2300
3200
,  // measure 65
0301
1000
0001
0000
1000
0000
2020
0000
,  // measure 66
3030
0000
1100
0000
0000
0101
0000
0000
,  // measure 67
0001
0010
0200
1300
,  // measure 68
2000
3200
0302
0203
,  // measure 69
1300
0001
1000
0000
0010
0000
0220
0000
,  // measure 70
0330
0000
0101
0000
0000
1010
0000
0000
,  // measure 71
1000
0100
0010
0000
0001
0000
1000
0000
,  // measure 72
0002
0000
0000
0023
,  // measure 73
0000
0000
0130
1000
0100
2000
3000
0000
,  // measure 74
2001
3020
2030
3020
,  // measure 75
0032
0000
0103
0001
0100
0000
0010
0000
,  // measure 76
1001
0000
0110
0000
,  // measure 77
1001
0000
0110
0000
,  // measure 78
0001
1000
0001
1000
0001
0000
0200
0000
,  // measure 79
0000
0000
0310
0000
1000
0000
0100
0100
;
