#TITLE:Moskau;
#SUBTITLE:;
#ARTIST:Dschinghis Khan;
#TITLETRANSLIT:;
#SUBTITLETRANSLIT:;
#ARTISTTRANSLIT:;
#GENRE:;
#CREDIT:;
#BANNER:banner.png;
#BACKGROUND:Moskau-bg.png;
#LYRICSPATH:;
#CDTITLE:;
#MUSIC:Moskau.ogg;
#OFFSET:1.011000;
#SAMPLESTART:61.128887;
#SAMPLELENGTH:14.120015;
#SELECTABLE:YES;
#BPMS:0.000000=131.309006
;
#STOPS:
;
#BGCHANGES:2.000=Moskau.avi=1.000=0=0=1=====,
99999=-nosongbg-=1.000=0=0=0 // don't automatically add -songbackground-
;
#KEYSOUNDS:;
#ATTACKS:;

//---------------dance-single - ----------------
#NOTES:
     dance-single:
     :
     Beginner:
     3:
     0.117275,0.159804,0.046120,0.018448,0.000000,89.000000,84.000000,5.000000,2.000000,0.000000,0.000000,0.117275,0.159804,0.046120,0.018448,0.000000,89.000000,84.000000,5.000000,2.000000,0.000000,0.000000:
0000
0000
0000
0000
,
0000
0000
0000
0000
,
0000
0000
0000
0000
,
0000
0000
0000
0000
,
0000
0000
0000
0000
,
1000
0000
0000
0000
,
0001
0000
0000
0000
,
0100
0000
0000
0000
,
0010
0000
0000
0000
,
1000
0000
0000
0000
,
0000
0000
0100
0000
,
0100
0000
0000
0000
,
0000
0000
0010
0000
,
0010
0000
0000
0000
,
0000
0000
0001
0000
,
0001
0000
0100
0000
,
0001
0000
0100
0000
,
0010
0000
0000
0000
,
0000
0000
1000
0000
,
1000
0000
0000
0000
,
0000
0000
0100
0000
,
0100
0000
0000
0000
,
0000
0000
0010
0000
,
0010
0000
0000
0000
,
0001
0000
0000
0000
,
1000
0000
1000
0000
,
1000
0000
0000
0000
,
0001
0000
0001
0000
,
0001
0000
0000
0000
,
0100
0000
0100
0000
,
0100
0000
0000
0000
,
0010
0000
0010
0000
,
0020
0000
0000
0030
,
0010
0000
0010
0000
,
1000
0000
1000
0000
,
0001
0000
0001
0000
,
1000
0000
1000
0000
,
0010
0000
1001
0000
,
0001
0000
0001
0000
,
1000
0000
1000
0000
,
0001
0000
0001
0000
,
0010
0000
1001
0000
,
1000
0000
1000
0000
,
0100
0000
0100
0000
,
1000
0000
0100
0000
,
1000
0000
1001
0000
,
0001
0000
0001
0000
,
0100
0000
0100
0000
,
0001
0000
0100
0000
,
0001
0000
1001
0000
,
2000
0000
0000
3000
,
1000
0000
1000
0000
,
0001
0000
0001
0000
,
0100
0000
1001
0000
,
0001
0000
0001
0000
,
1000
0000
1000
0000
,
0100
0000
0100
0000
,
1000
0000
1000
1000
;

//---------------dance-single - ----------------
#NOTES:
     dance-single:
     :
     Easy:
     6:
     0.249045,0.346242,0.221374,0.166030,0.000000,189.000000,165.000000,24.000000,18.000000,0.000000,0.000000,0.249045,0.346242,0.221374,0.166030,0.000000,189.000000,165.000000,24.000000,18.000000,0.000000,0.000000:
0000
0000
0000
0000
,
0000
0000
0000
0000
,
0000
0000
0000
0000
,
0000
0000
0000
0000
,
0000
0000
0000
0000
,
1000
0000
1000
0000
,
0001
0000
0001
0000
,
0100
0000
0100
0000
,
0010
0000
0010
0000
,
2000
0000
0002
0000
,
0000
3003
0001
0100
,
0020
0000
0200
0000
,
0000
0330
0100
0001
,
2000
0000
0002
0000
,
0000
3003
0001
0010
,
0001
0001
0100
0100
,
0010
0010
1000
1000
,
0200
0000
0020
0000
,
0000
0330
0010
0100
,
2000
0000
0002
0000
,
0000
3003
0001
1000
,
0020
0000
2000
0000
,
0000
3030
1000
0100
,
0010
0000
0001
0000
,
0001
0000
1000
0000
,
0010
0010
1000
1000
,
1001
0000
0110
0000
,
0001
0001
0100
0100
,
0110
0000
1001
0000
,
0001
0001
0010
0010
,
0110
0000
1100
0000
,
2000
3020
0230
0302
,
2003
0000
0000
3000
,
0010
1001
0100
1001
,
0010
1100
0010
0101
,
0001
0100
0010
1000
,
0001
0100
0010
1000
,
0001
0001
0001
0110
,
0100
1010
0100
0011
,
1000
0100
0010
0001
,
1000
0100
0010
0001
,
1000
1000
1000
0110
,
0001
1010
1000
0101
,
1000
0001
0100
0010
,
1000
0001
0100
0010
,
1000
1000
1000
0110
,
0001
1100
1000
0101
,
1000
0010
0100
0001
,
1000
0010
0100
0001
,
1000
1000
1000
0110
,
0001
2000
0000
3000
,
0001
0010
0100
1000
,
0001
0010
0100
1000
,
0010
0010
0010
1001
,
0001
1010
1000
0101
,
1000
0010
0100
0001
,
1000
0010
0100
0001
,
1000
0100
0010
1001
;

//---------------dance-single - ----------------
#NOTES:
     dance-single:
     :
     Medium:
     9:
     0.363685,0.399510,0.295165,0.193702,0.000000,276.000000,244.000000,32.000000,21.000000,0.000000,0.000000,0.363685,0.399510,0.295165,0.193702,0.000000,276.000000,244.000000,32.000000,21.000000,0.000000,0.000000:
0000
0000
0000
0000
,
0000
0000
0000
0000
,
0000
0000
0000
0000
,
0000
0000
0000
0000
,
0000
0000
0000
0000
,
1000
0001
1000
0002
0000
0000
0003
0000
,
0100
0010
0100
0020
0000
0000
0030
0000
,
1000
0001
1000
0002
0000
0000
0003
0000
,
0010
0100
0010
0200
0000
0000
0300
0000
,
2000
0000
0000
0002
0000
0000
3003
0000
,
1001
0000
0001
0100
,
0020
0000
0000
0200
0000
0000
0330
0000
,
0110
0000
0001
0010
,
0200
0000
0000
2000
0000
0000
3300
0000
,
1100
0000
1000
0010
,
0100
0100
0001
0000
0100
0100
0001
0000
,
0010
0010
0100
0000
0010
0010
0100
0000
,
2000
0000
0000
0002
0000
0000
3003
0000
,
1001
0000
0001
0100
,
0020
0000
0000
2000
0000
0000
3030
0000
,
1010
0000
1000
0100
,
0020
0000
0000
0002
0000
0000
0033
0000
,
0011
0000
0001
1000
,
0010
0010
0100
0000
0100
0100
0001
0000
,
0001
0001
1000
0000
0100
1000
0010
0000
,
0110
0000
1001
0000
0001
0010
0100
1000
,
0001
0001
1000
1000
,
1010
0000
0101
0000
1000
0100
0010
0001
,
1000
1000
0001
0001
,
0110
0000
1001
0000
0001
0010
0100
1000
,
0001
0001
1000
1000
,
0020
0001
2030
0100
,
3002
0100
0010
0103
,
0110
1001
1010
0101
,
0100
1010
0100
0011
,
0010
0001
0100
0000
0010
1000
0100
0000
,
0010
0001
0100
0000
0010
1000
0100
0000
,
1000
0010
0100
0001
0010
0000
1001
0000
,
0100
0011
0100
1010
,
0010
1000
0100
0000
0010
0001
0100
0000
,
0010
1000
0100
0000
0010
0001
0100
0000
,
0001
0010
0100
1000
0010
0000
1001
0000
,
0010
1100
0010
0101
,
1000
0100
0001
0000
0001
0100
1000
0000
,
0001
0100
1000
0000
1000
0100
0001
0000
,
1000
0100
0010
0001
0100
0000
1001
0000
,
0010
1100
0010
0101
,
0001
0100
1000
0000
1000
0100
0001
0000
,
1000
0100
0001
0000
0001
0100
1000
0000
,
1000
0100
0010
0001
0100
0000
1001
0000
,
0020
0200
0000
0330
,
0001
0010
0100
1000
0010
0100
0001
0000
,
1000
0100
0010
0001
0100
0010
1000
0000
,
0001
1000
0100
0010
0001
0000
1001
0000
,
0100
1010
0100
0011
,
1000
0100
0010
0000
0010
0100
1000
0000
,
0001
0100
0010
0000
0010
0100
0001
0000
,
1000
0100
0001
0010
1000
0000
1001
0000
;

//---------------dance-single - ----------------
#NOTES:
     dance-single:
     :
     Hard:
     12:
     0.482278,0.559314,0.285941,0.036896,0.129135,366.000000,335.000000,31.000000,4.000000,0.000000,0.000000,0.482278,0.559314,0.285941,0.036896,0.129135,366.000000,335.000000,31.000000,4.000000,0.000000,0.000000:
0000
0000
0000
0000
,
0000
0000
0000
0000
,
0000
0000
0000
0000
,
0000
0000
0000
0000
,
0000
0000
0000
0000
,
1000
0100
1000
0100
0010
0001
0010
0001
,
1000
0000
0001
0000
1000
0000
0001
0000
0100
0000
0010
0000
0100
0000
0010
1000
,
0001
0000
0100
0000
0010
0000
1000
0000
0001
0000
0100
0000
0010
0000
1000
0100
,
0010
0000
0100
0000
1000
0000
0001
0000
0100
0010
0100
0010
1000
0000
0000
0000
,
1000
0100
1000
0000
0001
0100
0001
0000
,
1000
0000
0010
0000
1000
0000
0000
0000
0001
0000
0000
0001
0000
0000
0100
0000
,
0001
0010
0001
0000
1000
0100
1000
0000
,
0001
0000
0000
0100
0000
0000
0001
0000
0000
0000
0000
0000
1000
0000
0000
0000
1000
0000
0000
0000
0100
0000
0000
0000
,
1000
0010
1000
0000
0001
0010
0001
0000
,
1000
0000
0000
0100
0000
0000
1000
0000
0000
0000
0000
0000
0001
0000
0000
0000
0001
0000
0000
0000
0100
0000
0000
0000
,
0010
1000
0100
0001
0100
1000
0010
0100
,
1000
0100
0001
0010
0100
0001
0100
1000
,
0001
0100
0001
0000
1000
0010
1000
0000
,
0001
0000
0010
0000
0001
0000
0000
0000
1000
0000
0000
1000
0000
0000
0010
0000
,
1000
0100
1000
0000
0001
0010
0001
0000
,
1000
0000
0010
0000
1000
0000
0000
0000
0001
0000
0000
0001
0000
0000
0100
0000
,
0001
0010
0001
0000
1000
0010
1000
0000
,
0001
0000
0000
0100
0000
0000
0001
0000
0000
0000
0000
0000
0100
0000
0000
0000
0010
0000
0000
0000
0010
0000
0000
0000
,
0100
0001
0010
1000
0010
0001
0100
0010
,
1000
0100
0001
0100
1000
0010
0001
0010
,
1001
0000
1001
0000
1001
0001
0010
0100
,
1000
0000
0000
0000
1000
0000
0000
0001
1000
0000
1000
0000
0100
0000
0010
0000
,
0110
0000
0110
0000
0110
0100
1000
0010
,
0100
0000
0000
0000
0100
0000
0000
0010
0100
0000
0100
0000
0001
0000
0010
0000
,
0011
0000
1100
0000
0110
0001
0100
0010
,
1000
0000
0000
0000
1000
0000
0000
0001
1000
0000
1000
0000
0001
0000
0010
0000
,
1000
0001
0100
1000
0002
0000
0103
0010
,
2000
0010
0100
3001
,
0110
1010
0110
0101
,
0100
1010
0100
0011
,
1000
0000
0000
0100
0010
0000
0001
0000
0100
0000
0010
0000
1000
0000
0000
0000
,
0001
0000
0000
0100
0010
0000
1000
0000
0100
0000
0010
0000
0001
0000
0000
0000
,
1000
0010
0100
0001
0010
0000
1001
0000
,
0100
0011
0100
1010
,
0001
0000
0000
0100
0010
0000
1000
0000
0100
0000
0010
0000
0001
0000
0000
0000
,
1000
0000
0000
0100
0010
0000
0001
0000
0100
0000
0010
0000
1000
0000
0000
0000
,
0001
0010
0100
1000
0010
0000
1001
0000
,
0001
1010
1000
0011
,
1000
0000
0000
0100
0001
0000
0100
0000
0010
0000
0001
0000
1000
0000
0000
0000
,
0001
0000
0000
0100
1000
0000
0100
0000
0010
0000
1000
0000
0001
0000
0000
0000
,
1000
0100
0010
0001
0100
0000
1001
0000
,
1000
0011
0001
1010
,
0001
0000
0000
0100
1000
0000
0100
0000
0010
0000
1000
0000
0001
0000
0000
0000
,
1000
0000
0000
0100
0001
0000
0100
0000
0010
0000
0001
0000
1000
0000
0000
0000
,
0001
0100
0010
1000
0100
0000
1001
0000
,
0110
2002
0000
3003
,
1000
0000
0000
0010
0001
0000
0010
0000
0100
0000
0001
0000
1000
0000
0000
0000
,
0001
0000
0000
0010
1000
0000
0010
0000
0100
0000
1000
0000
0001
0000
0000
0000
,
1000
0010
0100
0001
0010
0000
1001
0000
,
0010
1100
0010
0101
,
1000
0000
0000
0010
0001
0000
0010
0000
0100
0000
0001
0000
1000
0000
0000
0000
,
0001
0000
0000
0010
1000
0000
0010
0000
0100
0000
1000
0000
0001
0000
0000
0000
,
1000
0100
0001
0010
1000
0000
1001
0000
;

//---------------dance-single - ----------------
#NOTES:
     dance-single:
     :
     Challenge:
     13:
     0.466466,0.559314,0.221374,0.332060,0.129135,354.000000,330.000000,24.000000,36.000000,20.000000,0.000000,0.466466,0.559314,0.221374,0.332060,0.129135,354.000000,330.000000,24.000000,36.000000,20.000000,0.000000:
0000
0000
0000
0000
,
0000
0000
0000
0000
,
0000
0000
0000
0000
,
0000
0000
0000
0000
,
0000
0000
0000
0000
,
1000
0100
1000
0100
0010
0001
0010
0001
,
1000
0000
0001
0000
1000
0000
0001
0000
0100
0000
0010
0000
0100
0000
0010
1000
,
0001
0000
0100
0000
0010
0000
1000
0000
0001
0000
0100
0000
0010
0000
1000
0100
,
0010
0000
0100
0000
1000
0000
0001
0000
0100
0010
0100
0010
1000
0000
0000
0000
,
1000
0100
1000
0000
0001
0100
0001
0000
,
1000
0000
0010
0000
1000
0000
0000
0000
0001
0000
0000
0001
0000
0000
0100
0000
,
0001
0010
0001
0000
1000
0100
1000
0000
,
0001
0000
0000
0100
0000
0000
0001
0000
0000
0000
0000
0000
1000
0000
0000
0000
1000
0000
0000
0000
0100
0000
0000
0000
,
1000
0010
1000
0000
0001
0010
0001
0000
,
1000
0000
0000
0100
0000
0000
1000
0000
0000
0000
0000
0000
0001
0000
0000
0000
0001
0000
0000
0000
0100
0000
0000
0000
,
0001
0000
0000
0000
1000
0000
0000
0000
0200
0300
0000
0000
0200
0300
0000
0000
0001
0000
0000
0000
1000
0000
0000
0000
0200
0300
0000
0000
0200
0300
0000
0000
,
0001
0000
0000
0000
1000
0000
0000
0000
0020
0030
0000
0000
0020
0030
0000
0000
0001
0000
0000
0000
1000
0000
0000
0000
0020
0030
0000
0000
0020
0030
0000
0000
,
0001
0100
0001
0000
1000
0010
1000
0000
,
0001
0000
0010
0000
0001
0000
0000
0000
1000
0000
0000
1000
0000
0000
0010
0000
,
1000
0100
1000
0000
0001
0010
0001
0000
,
1000
0000
0010
0000
1000
0000
0000
0000
0001
0000
0000
0001
0000
0000
0100
0000
,
0001
0010
0001
0000
1000
0010
1000
0000
,
0001
0000
0000
0100
0000
0000
0001
0000
0000
0000
0000
0000
0100
0000
0000
0000
0010
0000
0000
0000
0010
0000
0000
0000
,
1000
0000
0000
0000
0001
0000
0000
0000
0020
0030
0000
0000
0020
0030
0000
0000
1000
0000
0000
0000
0001
0000
0000
0000
0020
0030
0000
0000
0020
0030
0000
0000
,
1000
0000
0000
0000
0001
0000
0000
0000
0200
0300
0000
0000
0200
0300
0000
0000
1000
0000
0000
0000
0001
0000
0000
0000
0200
0300
0000
0000
0200
0300
0000
0000
,
1001
0000
1001
0000
1001
0001
0010
0100
,
1000
0000
0000
0000
1000
0000
0000
0001
1000
0000
1000
0000
0100
0000
0010
0000
,
0110
0000
0110
0000
0110
0100
1000
0010
,
0100
0000
0000
0000
0100
0000
0000
0010
0100
0000
0100
0000
0001
0000
0010
0000
,
0011
0000
1100
0000
0110
1000
0001
0100
,
0010
0000
0000
0000
0010
0000
0000
0100
0010
0000
0010
0000
1000
0000
0010
0000
,
0001
1000
0100
0001
2000
0000
3100
0010
,
0002
0010
0100
1003
,
0110
1010
0110
0101
,
0100
1010
0100
0011
,
1000
0000
0000
0100
0001
0000
0100
0000
0010
0000
0001
0000
1000
0000
0000
0000
,
0001
0000
0000
0100
1000
0000
0100
0000
0010
0000
1000
0000
0001
0000
0000
0000
,
1000
0100
0010
0001
0100
0000
MMMM
0000
,
0100
0011
0100
1010
,
0001
0000
0000
0100
1000
0000
0100
0000
0010
0000
1000
0000
0001
0000
0000
0000
,
1000
0000
0000
0100
0001
0000
0100
0000
0010
0000
0001
0000
1000
0000
0000
0000
,
0001
0100
0010
1000
0100
0000
MMMM
0000
,
0010
1100
0010
0101
,
1000
0000
0000
0000
0000
0000
0001
0000
0020
0030
0000
0000
0020
0030
0000
0000
1000
0000
0000
0000
0001
0000
0000
0000
0010
0000
0000
0000
0000
0000
0000
0000
,
0001
0000
0000
0000
0000
0000
1000
0000
0020
0030
0000
0000
0020
0030
0000
0000
0001
0000
0000
0000
1000
0000
0000
0000
0010
0000
0000
0000
0000
0000
0000
0000
,
1000
0100
0010
0001
0100
0000
MMMM
0000
,
0010
0101
0010
1100
,
0001
0000
0000
0000
0000
0000
1000
0000
0200
0300
0000
0000
0200
0300
0000
0000
0001
0000
0000
0000
1000
0000
0000
0000
0100
0000
0000
0000
0000
0000
0000
0000
,
1000
0000
0000
0000
0000
0000
0001
0000
0200
0300
0000
0000
0200
0300
0000
0000
1000
0000
0000
0000
0001
0000
0000
0000
0100
0000
0000
0000
0000
0000
0000
0000
,
0001
0100
0010
1000
0100
0000
MMMM
0000
,
2000
0002
0000
3003
,
1000
0000
0000
0000
0000
0000
0100
0000
0002
0003
0000
0000
0002
0003
0000
0000
0010
0000
0000
0000
0100
0000
0000
0000
1000
0000
0000
0000
0000
0000
0000
0000
,
0001
0000
0000
0000
0000
0000
0100
0000
2000
3000
0000
0000
2000
3000
0000
0000
0010
0000
0000
0000
0100
0000
0000
0000
0001
0000
0000
0000
0000
0000
0000
0000
,
1000
0100
0001
0010
1000
0000
MMMM
0000
,
0010
0101
0010
1100
,
0001
0000
0000
0000
0000
0000
0100
0000
2000
3000
0000
0000
2000
3000
0000
0000
0010
0000
0000
0000
0100
0000
0000
0000
0001
0000
0000
0000
0000
0000
0000
0000
,
1000
0000
0000
0000
0000
0000
0100
0000
0002
0003
0000
0000
0002
0003
0000
0000
0010
0000
0000
0000
0100
0000
0000
0000
1000
0000
0000
0000
0000
0000
0000
0000
,
0001
0100
1000
0010
0001
0000
1001
0000
;

//---------------dance-single - Choreo----------------
#NOTES:
     dance-single:
     :
     Edit:
     9:
     0.271446,0.372876,0.110687,0.276717,0.000000,206.000000,194.000000,12.000000,30.000000,98.000000,0.000000,0.271446,0.372876,0.110687,0.276717,0.000000,206.000000,194.000000,12.000000,30.000000,98.000000,0.000000:
// measure 0
0000
0000
0000
0000
,  // measure 1
0000
0000
0000
0000
,  // measure 2
0000
0000
0000
0000
,  // measure 3
0000
0000
0000
0000
,  // measure 4
0000
0000
0000
0000
,  // measure 5
1000
0001
1000
0002
0000
0000
0003
0000
,  // measure 6
0100
0010
0100
0020
0000
0000
0030
0000
,  // measure 7
1000
0001
1000
0002
0000
0000
0003
0000
,  // measure 8
0010
0100
0010
0200
0000
0000
0300
0000
,  // measure 9
2000
0000
0000
0002
0000
0000
3003
0000
,  // measure 10
1001
0000
0001
0100
,  // measure 11
0020
0000
0000
0200
0000
0000
0330
0000
,  // measure 12
0110
0000
0001
0010
,  // measure 13
0200
0000
0000
2000
0000
0000
3300
0000
,  // measure 14
1100
0000
1000
0010
,  // measure 15
0100
0100
0001
0000
0100
0100
0001
0000
,  // measure 16
0010
0010
0100
0000
0010
0010
0100
0000
,  // measure 17
2000
0000
0000
0002
0000
0000
3003
0000
,  // measure 18
1001
0000
0001
0100
,  // measure 19
0020
0000
0000
2000
0000
0000
3030
0000
,  // measure 20
1010
0000
1000
0100
,  // measure 21
0020
0000
0000
0002
0000
0000
0033
0000
,  // measure 22
0011
0000
0001
1000
,  // measure 23
0010
0010
0100
0000
0100
0100
0001
0000
,  // measure 24
0001
0001
1000
0000
0100
1000
0001
0000
,  // measure 25
1000
1000
1000
1000
,  // measure 26
1000
0000
0100
0000
0001
0010
1000
0000
,  // measure 27
0001
0001
0001
0001
,  // measure 28
0001
0000
0100
0000
1000
0010
0001
0000
,  // measure 29
1000
1000
1000
1000
,  // measure 30
1000
0000
0100
0000
0001
0010
1000
0000
,  // measure 31
0020
0030
00M0
0000
0020
0030
00M0
0000
,  // measure 32
1000
0100
0001
0010
1000
0100
0001
0010
,  // measure 33
1000
0100
0001
0010
1000
0000
MMMM
0000
,  // measure 34
0001
000M
0010
0000
1000
M000
0010
0000
,  // measure 35
0001
0001
000M
0010
0000
1000
M000
0010
,  // measure 36
0000
0001
000M
0010
0000
1000
M000
0010
,  // measure 37
2002
0000
3003
MMMM
,  // measure 38
1000
M000
0010
0000
0001
000M
0010
0000
,  // measure 39
0000
1000
MMMM
0001
MMMM
1000
MMMM
0001
,  // measure 40
0000
0001
MMMM
1000
MMMM
0001
1000
0000
,  // measure 41
2002
0000
3003
MMMM
,  // measure 42
0001
000M
0010
0000
1000
M000
0010
0000
,  // measure 43
0000
0001
MMMM
1000
MMMM
0001
MMMM
1000
,  // measure 44
0000
1000
MMMM
0001
MMMM
1000
0001
0000
,  // measure 45
2002
0000
3003
MMMM
,  // measure 46
1000
M000
0010
0000
0001
000M
0010
0000
,  // measure 47
0002
MMM3
2000
0MMM
,  // measure 48
0002
0000
0000
3003
,  // measure 49
2002
0000
3003
MMMM
,  // measure 50
1000
M000
0010
0000
0001
000M
0010
0000
,  // measure 51
MMMM
1000
0001
0000
MMMM
0001
1000
0000
,  // measure 52
MMMM
1000
0001
0000
MMMM
0001
1000
0000
,  // measure 53
0001
0100
1000
0010
0001
0000
1001
0000
,  // measure 54
0200
1000
0010
1000
,  // measure 55
0010
1000
0010
1000
,  // measure 56
0010
1000
0010
1000
,  // measure 57
0010
1000
0310
0110
;
