#TITLE:Miracle;
#SUBTITLE:(Wilkinson Remix);
#ARTIST:Calvin Harris and Ellie Goulding;
#TITLETRANSLIT:;
#SUBTITLETRANSLIT:;
#ARTISTTRANSLIT:;
#GENRE:Speed House x Neurofunk;
#CREDIT:Frondal x darkanine;
#MUSIC:Miracle (Wilkinson Remix).ogg;
#BANNER:Miracle (Wilkinson Remix).png;
#BACKGROUND:Miracle (Wilkinson Remix)-bg.png;
#CDTITLE:;
#SAMPLESTART:43.103;
#SAMPLELENGTH:11.034;
#SELECTABLE:YES;
#OFFSET:0.690;
#BPMS:0.000=174.000;
#STOPS:;
#BGCHANGES:;
#FGCHANGES:;

//--------------- dance-single - Frondal ----------------
#NOTES:
     dance-single:
     Frondal:
     Beginner:
     4:
     0,0,0,0,0:
0000
0000
0000
0000
,
0000
0000
0000
0000
,
0000
0000
0000
0000
,
0000
0000
0000
0000
,
0000
0000
0000
0000
,
0000
0000
0000
0000
,
0000
0000
0000
0000
,
0000
0000
0000
0000
,
0000
0000
0000
0000
,
0001
0000
0000
0000
,
0001
0000
0000
0000
,
1000
0000
0000
0000
,
1000
0000
0000
0000
,
0100
0000
0100
0000
,
0010
0000
0010
0000
,
0100
0000
0000
0000
,
1000
0000
0001
0000
,
0100
0000
0000
0000
,
0100
0000
0000
0000
,
0010
0000
0000
0000
,
0010
0000
0000
0000
,
1000
0000
1000
0000
,
0001
0000
0001
0000
,
1000
0000
0001
0000
,
0110
0000
0000
0000
,
0002
0000
0000
0000
,
0000
0000
0000
0000
,
2003
0000
0000
0000
,
0000
0000
0000
0000
,
3200
0000
0000
0000
,
0000
0000
0000
0000
,
0320
0000
0000
0000
,
0000
0000
0000
0030
,
0000
0001
0000
0001
,
0000
1000
0000
1000
,
0000
0010
0000
0010
,
0000
0100
0000
0100
,
0000
0001
0000
0001
,
0000
1000
0000
1000
,
0000
0010
0000
0010
,
0000
0100
0000
0000
,
0000
0001
0000
0001
,
0000
1000
0000
1000
,
0000
0100
0000
0100
,
0000
0010
0000
0010
,
0000
0001
0000
0001
,
0000
1000
0000
1000
,
0000
0010
0000
0010
,
0000
0100
0000
0000
,
0100
0010
0000
0000
,
0010
0100
0000
0000
,
0100
0001
0000
0000
,
0001
0000
1000
0000
,
0001
0010
0000
0000
,
0010
0100
0000
0000
,
0100
1000
0000
0000
,
1000
0000
0001
0000
,
1000
0010
0000
0000
,
0010
0100
0000
0000
,
0100
0001
0000
0000
,
0001
0000
1000
0000
,
0100
0000
0100
0000
,
1000
0000
1000
0000
,
0010
0000
0010
0000
,
0200
0000
0000
0300
,
0000
0001
0000
1000
,
0000
0001
0000
0010
,
0000
0001
0000
1000
,
0000
0001
0000
0100
,
0000
0001
0000
1000
,
0000
0100
0000
0001
,
0000
0100
0000
1000
,
0000
0010
0000
0001
,
0000
0010
0000
1000
,
0000
1000
0000
0100
,
0000
0100
0000
0010
,
0000
0010
0000
0001
,
0000
0001
0000
0100
,
0000
0100
0000
0010
,
0000
0010
0000
1000
,
0200
0000
0000
0000
,
0310
0001
0000
0000
,
0001
1000
0000
1000
,
0001
0000
0000
0000
,
0000
0000
0000
0000
,
0010
0100
0000
0000
,
0100
0010
0000
0010
,
0001
1000
0000
0000
,
0000
0000
0000
0000
,
0001
0001
0000
0000
,
1000
1000
0000
0010
,
0010
0100
0000
0000
,
0000
0000
0000
0000
,
0001
0001
0000
0000
,
1000
1000
0000
0100
,
0100
0010
0000
0000
,
0002
0000
0000
0000
,
0003
0000
0000
0000
;

//--------------- dance-single - darkanine ----------------
#NOTES:
     dance-single:
     darkanine:
     Easy:
     10:
     0,0,0,0,0:
0000
0000
0000
0000
,
0000
0000
0000
0000
,
0000
0000
0000
0000
,
0000
0000
0000
0000
,
0000
0000
0000
0000
,
0000
0000
0000
0000
,
0000
0000
0000
0000
,
0000
0000
0000
0000
,
0000
0000
0000
0000
,
1000
0010
0001
0010
,
1000
0100
0001
0100
,
0010
0010
0001
0100
,
0010
0010
1000
0100
,
0001
0100
1000
0010
,
0001
0010
0100
1000
,
0100
0001
1000
0001
,
1000
2000
0000
3001
,
0010
0100
0010
0001
,
0100
0010
0100
0001
,
1000
1000
0001
0001
,
0100
1000
0100
0001
,
0010
0010
0100
1000
,
0010
0010
0100
0001
,
0010
1000
0010
0001
,
1000
0000
0000
0000
,
1000
0100
0000
0000
0000
0000
0000
0000
,
0100
1000
0000
0000
1000
0001
0000
0000
,
1000
0100
0000
0000
0000
0000
0000
0000
,
0000
0000
0000
0000
,
0010
0100
0000
0000
0000
0000
0000
0000
,
0010
0001
0000
0000
1000
0010
0000
0000
,
0100
0002
0000
0000
0000
0000
0000
0000
,
1000
1000
1003
0000
,
1000
0010
0001
0010
,
0100
0001
0100
1000
,
0001
0010
1000
0010
,
0100
1000
0100
0001
,
1000
0100
0001
0100
,
0010
0001
0010
1000
,
0001
0100
1000
0100
,
0010
1000
0010
0001
,
1000
0000
0010
0000
0000
1000
0010
0000
,
1000
0000
0010
0000
0000
1000
0010
0000
,
0100
0000
0001
0000
0000
0100
0001
0000
,
0100
0000
0001
0000
0000
0100
0001
0000
,
1000
0000
0100
0000
0000
1000
0100
0000
,
1000
0000
0100
0000
0000
1000
0100
0000
,
0010
0000
0001
0000
0000
0010
0001
0000
,
1000
0000
0001
1000
0001
0000
1000
0000
,
0100
1000
0001
0000
0000
1000
0001
0000
,
0001
1000
0100
0000
0100
1000
0010
0000
,
0010
0100
0001
0000
0000
0100
0001
0000
,
1000
0000
0001
0000
0000
1000
0001
0000
,
0001
0010
0100
0000
0000
0010
0100
0000
,
0100
1000
0010
0000
0010
0100
0001
0000
,
0001
1000
0100
0000
0000
1000
0100
0000
,
0001
0000
0100
0010
0100
0000
1000
0001
,
0100
0001
1000
0000
0000
0001
1000
0000
,
1000
0001
0100
0000
0100
0001
0010
0000
,
0010
0100
1000
0000
0000
0100
1000
0000
,
0001
0000
1000
0000
0000
0001
1000
0000
,
1000
0010
0100
0000
0000
0010
0100
0000
,
0100
0001
0010
0000
0010
0100
1000
0000
,
1000
0001
0100
0000
0000
0001
0100
0000
,
1000
0000
0100
0010
0100
0000
0001
0000
,
1000
0000
1001
0000
0001
0010
1000
0000
,
0010
0000
0001
0000
1000
0010
0001
0010
,
1000
0000
1001
0000
0001
0100
1000
0000
,
0100
0000
0001
0000
1000
0100
0001
0100
,
1000
0000
0001
0000
1000
0010
0001
0000
,
0010
0000
1000
0000
0001
0010
1000
0010
,
0001
0000
1000
0000
1000
0100
0001
0000
,
0100
0000
1000
0000
0001
0100
1000
0100
,
0001
0000
1000
0000
0010
1000
0100
1000
,
0010
0000
0010
0000
0100
1000
0100
0001
,
0100
0000
0001
0000
0010
0001
0100
0001
,
0010
0000
0010
0000
0100
0001
0100
1000
,
0100
0000
1000
0000
0100
1000
0010
1000
,
0100
0000
0100
0000
0010
1000
0010
0001
,
0010
0000
0001
0000
0100
0001
0010
0001
,
1000
0000
0000
0000
,
1000
0100
0001
0000
0001
0000
0001
0100
,
0010
0001
1000
0000
1000
0001
0010
0000
,
0010
0100
1000
0000
0001
0000
1000
0100
,
1000
0000
0001
0100
0001
0000
1000
0000
,
0010
0100
1000
0000
0100
0010
1000
0000
,
1000
0100
0010
0000
0010
1000
0001
0000
,
0001
0100
1000
0000
0001
0000
0001
0000
,
1000
1000
1000
0000
,
0001
0100
1000
0000
1000
0000
1000
0100
,
0010
1000
0001
0000
0001
1000
0010
0000
,
0010
0100
0001
0000
1000
0000
0001
0100
,
0001
0000
1000
0100
1000
0000
0001
0000
,
0010
0100
0001
0000
0100
0010
0001
0000
,
0001
0100
0010
0000
0010
0001
1000
0000
,
1000
0100
0001
0000
1000
0000
0001
0000
,
1000
0000
0010
0001
0010
0000
2000
0001
,
0000
3000
0000
0000
0000
0000
0000
0000
;

//--------------- dance-single - Frondal x darkanine ----------------
#NOTES:
     dance-single:
     Frondal x darkanine:
     Medium:
     14:
     0,0,0,0,0:
0000
0000
0000
0000
,
0000
0000
0000
0000
,
0000
0000
0000
0000
,
0000
0000
0000
0000
,
0000
0000
0000
0000
,
0000
0000
0000
0000
,
0000
0000
0000
0000
,
0000
0000
0000
0000
,
0000
0000
0000
0000
,
0001
0000
0001
0000
0001
0000
1000
0100
,
0010
0000
0010
0000
0010
0000
0100
1000
,
0010
0000
0100
0001
1000
0000
0010
0100
,
0010
0000
1000
0000
0100
1000
0010
0001
,
0000
0010
1000
0100
0000
1000
0010
0001
,
0000
0010
0100
0001
0000
0010
1000
0010
,
0100
1000
0100
0010
0100
1000
0001
0000
,
1000
0001
0100
1000
0100
0010
1010
0000
,
1000
0000
0000
1000
0100
0000
0010
0000
0100
0000
0000
0100
1000
0000
0010
0000
,
0100
0000
0000
0100
0001
0000
0010
0000
0100
0000
0000
0100
0010
0000
0001
0000
,
0100
0000
0000
0100
1000
0000
0100
0000
0010
0000
0000
0010
1000
0000
0100
0000
,
0010
0000
0000
0010
1000
0000
0010
0000
0100
0000
0100
0000
0020
0000
0002
0000
,
0030
0103
0010
1000
0100
0100
0020
0002
,
0030
1003
0010
0100
0010
0010
1000
0100
,
1000
0001
1000
0000
0001
0010
0001
0000
1000
0010
1000
0000
0100
0010
0001
0000
,
2000
0000
3010
0100
0002
0000
1003
0100
,
0110
0010
0001
0000
0001
1000
0010
1000
,
0100
0100
1000
0000
0010
0010
0100
0001
,
0010
0010
0100
0000
0100
1000
0100
0010
,
0001
0001
1000
0000
1000
1000
0100
0010
,
0100
1000
0100
0001
0100
0001
0100
1000
,
0001
0100
0001
0100
0010
0001
0010
0001
,
0010
0010
1000
1000
0001
0001
0010
0100
,
2000
0000
3010
0100
0020
0000
0031
0010
,
1000
0001
0011
0000
0010
0100
1000
0100
,
0010
0000
0011
0000
0001
0010
0100
1000
,
0010
1000
1010
0000
0010
0100
0001
0010
,
0100
0010
0011
0000
0001
0010
1000
0010
,
0001
1000
1010
0000
0010
0100
1000
0100
,
0010
1000
1100
0000
0100
0010
0100
1000
,
0001
0100
0110
0000
0010
0001
0010
2000
,
0100
3001
1000
0002
0100
1003
1100
0100
,
0010
0000
0011
0000
0001
0100
1000
0100
,
0001
0000
0011
0000
0010
1000
0010
0001
,
0100
0000
0110
0000
0010
0001
0010
1000
,
0010
0000
1010
0000
1000
0100
0001
0100
,
1000
0000
1010
0000
0010
0001
1000
0100
,
0001
0000
0101
0000
0100
1000
0001
0010
,
1000
0000
0011
0000
0001
0010
1000
0001
,
0100
0000
1000
0100
1000
0000
0010
0000
0100
0000
0001
0010
0001
0000
0100
0000
,
0010
1000
0100
1000
0000
0010
0110
0000
,
0100
0001
0010
0001
1000
0100
0010
0000
,
0100
1000
0010
0100
0000
0001
1001
0000
,
1000
0010
0100
0010
0000
1000
1000
0001
,
0010
0100
0010
0001
0000
0100
1000
0100
,
0001
1000
0100
0010
0000
0100
0001
0100
,
0010
0001
1000
0010
0000
0100
0200
0010
,
0301
1000
0200
0010
1300
0001
0101
0000
,
1000
1000
0100
0010
0000
0100
1000
0000
,
0001
0001
0100
0010
1000
1000
0100
0010
,
0001
0001
0100
0010
0000
1000
1100
0000
,
0001
0000
0100
1000
0000
0100
0110
0000
,
0001
0002
0000
0000
0000
0000
0000
0000
,
1003
2000
0000
0000
3010
0020
0000
0000
,
0130
0200
0000
0000
0000
0000
0000
0000
,
0000
0000
0000
0000
,
0310
0000
1001
0000
0001
0100
1000
0100
,
0010
0000
0010
0000
0010
0100
1000
0100
,
0010
0000
1000
0000
1000
0100
0001
0100
,
0010
0000
0010
0000
0010
0100
0001
0100
,
1000
0000
0001
0000
0001
1000
0100
0010
,
1000
0000
1000
0000
1000
0010
0100
1000
,
0001
0000
1000
0000
1000
0001
0100
0010
,
0001
0000
0001
0000
0001
0010
0100
0010
,
1000
0000
0001
0000
0001
0100
0001
0010
,
1000
0000
0001
0000
0001
0100
1000
0010
,
0100
0000
0001
0000
0001
1000
0010
0100
,
1000
0000
0001
0000
0001
0010
1000
0001
,
0010
0000
0100
0000
0100
0001
0100
0010
,
0001
0000
1000
0000
1000
0010
0100
1000
,
0100
0001
1000
0001
0010
1000
0001
0200
,
0010
0000
0001
0000
1300
0000
1000
0010
,
0001
0010
0100
0001
1000
0000
0010
1000
,
0100
0001
0100
1000
0010
0100
0001
1000
,
0100
0100
1000
0010
0100
0000
0100
0001
,
0010
0000
0001
0000
0100
0010
0100
0000
0010
0000
1000
0000
0100
0010
0100
0000
,
0001
0100
0010
0001
1000
0000
0010
0100
,
1000
0100
0010
1000
0100
0001
0100
0010
,
0001
0000
1000
0001
1000
0000
0010
0000
0100
0000
0100
0000
0010
0100
0010
0000
,
1000
0001
1000
0000
0100
0010
0100
0000
0010
0000
0010
0000
0001
1000
0001
0000
,
0100
1000
0100
0010
1000
0001
0100
0010
,
1000
0100
0001
0100
0010
1000
0010
0100
,
0010
0010
0001
1000
0010
0100
0100
0001
,
1000
0010
1000
0000
0100
1000
0100
0000
0010
0000
0010
0000
0001
1000
0001
0000
,
0100
1000
0100
0010
1000
0001
0010
0100
,
0001
0100
0010
0001
1000
0010
0001
0010
,
0100
0100
0001
1000
0100
0100
1000
0010
,
0002
0000
1003
0100
0002
0000
0013
1000
;

//--------------- dance-single - Frondal x darkanine ----------------
#NOTES:
     dance-single:
     Frondal x darkanine:
     Hard:
     16:
     0,0,0,0,0:
0000
0000
0000
0000
,
0000
0000
0000
0000
,
0000
0000
0000
0000
,
0000
0000
0000
0000
,
0000
0000
0000
0000
,
0000
0000
0000
0000
,
0000
0000
0000
0000
,
0000
0000
0000
0000
,
0000
0000
0000
0000
,
0002
0000
1000
0000
1003
0000
0001
0010
,
0100
0000
0100
0000
1000
0000
1000
0010
,
0100
0000
0001
1000
0100
0000
1000
0010
,
0100
0000
0100
0000
0001
0010
0200
0001
,
0000
1300
0020
0001
0000
1030
0200
0010
,
0000
1300
0020
0100
0000
1030
0010
0100
,
0100
0001
0100
0010
,
1000
0200
0310
1002
,
1003
0000
0000
0010
0100
0010
0000
1000
0001
1000
0000
0100
0010
0100
0000
1000
,
0100
1000
0000
0001
0010
0001
0000
0100
0010
0100
0000
0010
1000
0010
0000
1000
,
0001
0010
0000
0001
1000
0010
0000
0100
0001
1000
0000
1000
0010
0100
0000
0100
,
0001
1000
0000
1000
0001
0010
0000
0010
0100
1000
0000
0001
1000
0100
0000
0100
,
0010
0001
0000
0001
1000
0100
0000
0100
1000
0001
0000
0001
0100
0010
0000
0010
,
1000
0010
1000
0000
0010
0000
0010
0000
0100
0001
0100
0000
0010
0000
1000
0000
,
0100
0010
0100
0010
0001
0100
0001
0100
0010
1000
0010
1000
0001
0010
0100
1000
,
0020
0000
0100
0230
0001
0000
0310
1000
,
0001
0200
0010
0000
0010
0000
0310
0000
,
1000
0200
0010
0000
0301
0100
2000
0000
,
3001
0200
0010
0000
1000
0000
0010
0000
,
0001
0001
1000
0301
,
2000
3200
0010
0301
0100
1000
0100
0001
,
0200
2300
0100
3010
2000
3020
0001
1030
,
0200
0302
0010
1003
0001
0100
1000
0100
,
0020
0000
0000
0030
,
1001
0000
0001
0000
0010
0000
0000
0000
10M0
0000
0010
0M00
0010
0000
0001
0000
,
1000
0000
0000
0000
1000
0000
0000
0000
0001
0000
0100
00M0
0100
0000
1000
0100
,
0010
0000
0001
0000
0010
0000
0000
0000
10M0
0000
0010
0M00
0010
0000
0001
0000
,
1000
0000
0000
0000
1000
0000
0000
0000
1000
0000
0100
00M0
0100
0000
0001
0000
,
1000
0000
0000
0000
0010
0000
0000
0000
00M1
0000
0010
0M00
0010
0000
1000
0000
,
0001
0000
0000
0000
0001
0000
0000
0000
1000
0000
0100
00M0
0100
0000
0001
0100
,
0010
0000
1000
0000
0010
0000
0000
0000
00M1
0000
0010
0M00
0010
0000
1000
0000
,
0001
0000
0000
0000
0001
0000
0000
0000
0001
0000
0100
00M0
0100
0000
1000
0000
,
0001
0000
0000
0000
0010
0000
0000
0000
0010
0000
1000
0M00
1000
0000
0001
0000
,
0100
0000
0000
0000
0100
0000
0000
0000
0100
0000
0001
0000
1000
0000
0010
1000
,
0100
0000
0000
0000
0010
0000
0000
0000
0010
0000
1000
0M00
1000
0000
0001
0000
,
0100
0000
0100
0000
0100
0001
1000
0010
,
0100
0000
0000
0000
0010
0000
0000
0000
0010
0000
0001
0M00
0001
0000
1000
0000
,
0100
0000
0000
0000
0100
0000
0000
0000
0100
0000
1000
0000
0001
0000
0010
0001
,
0100
0000
0000
0000
0010
0000
0000
0000
0010
0000
0001
0M00
0001
0000
1000
0000
,
0100
0020
1000
0130
1000
0020
0001
0000
,
1030
1000
0010
0100
0000
0001
0011
0000
,
0020
0000
0100
0000
0031
0000
1000
0000
0001
0000
0100
0000
1010
0000
1000
0001
,
1000
1000
0100
0010
0000
0100
1100
1000
,
0001
0100
0010
0100
0000
0001
0011
0020
,
0100
0031
1000
0010
0000
1000
1100
0200
,
0010
0000
1300
0000
0010
0000
0200
0000
0010
0000
0301
0000
0011
0000
0010
0001
,
1000
0001
0101
0010
0000
0010
1100
0100
,
0001
0000
1010
0010
0001
1000
0100
0010
,
1001
2000
0100
3001
0000
0001
0011
0010
,
0100
0000
2000
0000
0010
0000
3001
0000
0100
0000
0002
0000
0010
0000
1003
0100
,
0010
1000
0010
0100
0000
1000
1010
0000
,
0010
0001
0010
0100
0000
0001
0011
0000
,
0001
0100
0001
0000
0010
0000
0100
0000
1000
0000
0100
0000
0010
0000
0100
0000
,
1000
0010
1000
0000
0001
0000
0100
0000
0001
0010
0001
0000
0100
0000
0010
0000
,
1000
0100
0010
0100
1000
0001
0010
0001
0100
0010
1000
0010
0100
0001
0010
0100
,
1000
0010
1000
0010
1000
0001
1000
0001
0010
0001
0010
0001
0100
0000
0010
0000
,
0100
0000
1001
0000
0001
0010
0011
0001
,
1000
0000
0110
0000
0001
1000
1010
0010
,
0100
0000
1001
0000
0100
0010
0110
0100
,
0010
0000
1001
0000
0010
0100
0110
0010
,
0100
0000
0011
0000
0100
1000
1010
0010
,
0100
0000
0101
0000
0010
1000
1100
0100
,
0010
0000
0110
0000
1000
0010
0110
0100
,
0001
0000
0110
0000
1000
0100
0110
0010
,
0001
0000
0000
0000
0101
0000
0000
0000
1000
0000
0010
0M00
0011
0000
0001
0000
,
1000
0000
0100
00M0
0101
0000
0000
0000
1000
0000
0010
0M00
0011
0M00
0010
0000
,
1000
0000
0000
0000
1100
0000
0000
0000
0001
0000
0010
0M00
1010
0000
1000
0000
,
0001
0000
0100
00M0
1100
0000
0000
0000
0001
0000
0010
0M00
1010
0M00
0010
0000
,
0001
0000
1001
0001
0100
0010
0101
0010
,
1000
0100
0011
0100
1000
0001
1010
0001
,
1000
0000
1001
1000
0100
0010
1100
0020
,
0001
0000
0030
0000
,
0001
0000
0001
0100
0010
0000
0010
1000
0100
0000
0001
0000
0100
1000
0010
0000
,
0100
0001
0010
0000
0010
0100
1000
0000
0001
0000
1000
0000
0010
0100
0010
0100
,
0001
0000
1000
0100
1000
0000
0001
0010
0001
0000
0100
0000
0001
0010
0100
0000
,
1000
0100
1000
0000
0001
0100
0010
0000
0010
0000
1000
0000
0100
0010
0100
1000
,
0100
0000
0010
0100
0010
0000
0001
1000
0001
0000
0010
0000
0001
0100
0001
0000
,
1000
0010
1000
0000
0010
0100
0010
0000
0100
0000
1000
0000
0100
0001
0100
0001
,
0010
0000
1000
0010
0001
0000
1000
0010
0001
0000
0010
0000
1000
0001
0100
0000
,
1000
0100
0001
0000
1000
0100
0001
0000
1000
0000
0010
0000
0001
0100
0010
0100
,
0001
0000
1000
0010
1000
0000
1000
0100
0010
0000
1000
0000
0010
0100
1000
0000
,
0001
0100
0010
0000
0010
0100
0001
0000
0010
0000
0100
0000
0001
0100
0010
0000
,
0001
0000
1000
0010
1000
0000
0010
0001
0010
0000
1000
0000
0001
0010
1000
0000
,
0001
0100
1000
0000
0001
0100
1000
0000
0100
0000
0001
0000
1000
0100
0001
0100
,
0010
0001
0010
0100
0010
0000
0100
0001
0100
0000
1000
0100
1000
0000
0010
1000
,
0010
0100
0010
0000
0100
1000
0100
0000
0001
0000
0001
0000
0010
0001
0010
0000
,
0100
1000
1010
0001
0011
1000
1010
0010
,
0002
0000
1003
0100
0001
0010
2000
0001
,
3000
0000
0000
0000
;
