#TITLE:Mer av dig;
#SUBTITLE:;
#ARTIST:THEOZ;
#TITLETRANSLIT:;
#SUBTITLETRANSLIT:;
#ARTISTTRANSLIT:;
#GENRE:;
#CREDIT:;
#MUSIC:Mer av dig.ogg;
#BANNER:Mer av dig-bn.png;
#BACKGROUND:Mer av dig-bg.png;
#CDTITLE:;
#SAMPLESTART:32.000;
#SAMPLELENGTH:16.000;
#SELECTABLE:YES;
#OFFSET:2.000;
#BPMS:0.000=120.000;
#STOPS:;
#BGCHANGES:4.000=Mer av dig.mp4=1.000=0=0=1,
99999.000=-nosongbg-=1.000=0=0=0=StretchNoLoop====
;
#FGCHANGES:;

//--------------- dance-single - OrangeRight ----------------
#NOTES:
     dance-single:
     OrangeRight:
     Beginner:
     1:
     0,0,0,0,0:
0000
0000
0000
0000
,
0000
0000
0000
0000
,
0000
0000
0000
0000
,
0000
0000
0000
0000
,
0000
0000
0000
0000
,
1000
0000
0000
0000
,
0001
0000
0000
0000
,
0100
0000
0000
0000
,
0000
0000
0000
0000
,
0001
0000
0000
0000
,
1000
0000
0000
0000
,
0100
0000
0000
0000
,
0000
0000
0000
0000
,
1000
0000
0000
0000
,
1000
0000
0000
0000
,
1000
0000
0000
0000
,
0002
0000
0003
0000
,
1000
0000
0000
0000
,
0100
0000
0000
0000
,
0010
0000
0000
0000
,
0001
0000
0001
0000
,
0001
0000
0000
0000
,
0100
0000
0000
0000
,
0010
0000
0000
0000
,
1000
0000
1000
0000
,
1000
0000
0000
0000
,
0001
0000
0000
0000
,
0010
0000
0000
0000
,
0000
0000
0000
0000
,
0001
0000
0000
0000
,
1000
0000
0000
0000
,
0010
0000
0000
0000
,
0000
0000
0000
0000
,
1000
0000
0000
0000
,
1000
0000
0000
0000
,
1000
0000
0000
0000
,
0002
0000
0003
0000
,
0001
0000
0000
0000
,
0100
0000
0000
0000
,
0010
0000
0000
0000
,
1000
0000
0001
0000
,
1000
0000
0000
0000
,
0010
0000
0000
0000
,
0100
0000
0000
0000
,
0001
0000
1000
0000
,
0001
0000
0000
0000
,
0010
0000
0000
0000
,
0100
0000
0000
0000
,
1000
0000
0001
0000
,
1001
0000
0000
0000
;

//--------------- dance-single - OrangeRight ----------------
#NOTES:
     dance-single:
     OrangeRight:
     Easy:
     5:
     0,0,0,0,0:
0000
0000
0000
0000
,
0000
0000
0000
0000
,
0000
0000
0000
0000
,
0000
0000
0000
0000
,
0000
0000
0000
0000
,
2000
0000
3100
0000
,
0002
0000
0103
0000
,
0100
0000
0001
1000
,
0100
1000
0001
0000
,
0002
0000
0013
0000
,
2000
0000
3010
0000
,
0010
0000
1000
0001
,
0010
0001
1000
0000
,
2001
0000
3100
0000
,
1002
0000
0013
0000
,
0001
0100
0010
1000
,
0100
0100
1000
0000
,
1000
0100
1000
1000
,
0001
0100
0001
0000
,
0100
0010
1000
0000
,
0100
0100
0010
0000
,
0001
1000
0001
0001
,
1000
0010
1000
0000
,
0010
0100
0001
0000
,
0010
0010
0100
0000
,
2002
0000
3003
0000
,
0001
0100
0010
0100
,
0001
0000
1000
0100
,
1000
0001
0100
0010
,
2001
0000
3100
0000
,
1000
0010
0100
0010
,
1000
0000
0001
0010
,
0001
1000
0100
0010
,
0002
0000
0103
0010
,
0200
0000
0310
0000
,
1000
0100
0010
0001
,
2002
0000
3003
0000
,
1000
1000
1000
0001
,
0100
1000
0100
0000
,
0001
1000
0100
0000
,
1000
0001
1000
0000
,
1000
0001
1001
0000
,
1000
0010
0100
0100
,
0010
0100
0001
0001
,
1000
0001
1000
0110
,
0001
1000
1001
0000
,
0001
0010
0100
0100
,
0010
0100
1000
0010
,
0100
0001
1000
0100
,
1001
1001
1001
0000
;

//--------------- dance-single - OrangeRight ----------------
#NOTES:
     dance-single:
     OrangeRight:
     Medium:
     8:
     0,0,0,0,0:
0000
0000
0000
0000
,
0000
0000
0000
0000
,
0000
0000
0000
0000
,
0000
0000
0000
0000
,
0000
0000
0000
0000
,
2000
0010
0000
3010
,
0200
0001
0000
0301
,
0100
0001
0010
0001
,
0100
0010
0100
0000
0010
0000
1000
0000
,
0002
0010
0000
0013
,
0200
1000
0000
1300
,
0010
1000
0100
1000
,
0001
1000
0001
0000
0100
0000
0010
0000
,
2000
0100
0100
3100
,
0020
0001
0001
0031
,
1000
0000
0000
0100
0000
0000
1000
0000
0000
0010
0000
0000
0100
0000
0002
0000
,
2000
0000
3003
0110
,
1001
1001
1001
1000
,
0010
0100
0001
0100
0010
0000
1000
0000
,
0100
0010
0001
0010
0100
0000
1000
0000
,
0001
1000
0001
1000
0001
0000
1000
0000
,
1001
1001
1001
0001
,
1000
0010
0100
0010
1000
0000
0001
0000
,
1000
0100
0010
0100
1000
0000
0001
0000
,
1000
0001
1000
0001
1000
0000
0110
0000
,
2000
0000
3000
0001
,
1000
0100
1000
0000
0010
0100
0001
0000
,
1000
0001
0200
0320
,
1030
0001
1000
0000
0200
0000
0320
0000
,
0031
0000
0100
0000
0001
1000
0001
0000
,
1000
0010
1000
0000
0100
0010
0001
0000
,
0100
0010
2000
3002
,
0013
0100
0010
0000
0002
0000
2003
0000
,
3020
0100
0100
0130
,
2000
0001
0001
3001
,
1000
0000
0000
0010
0000
0000
0100
0000
0000
0001
0000
0000
1000
0000
0200
0000
,
0020
0000
0330
0001
,
2000
3002
0023
0130
,
0010
0001
0100
0000
0020
0000
2030
0000
,
3100
1000
0010
0000
0200
0000
0302
0000
,
0103
0010
0100
0010
0100
0000
0010
0000
,
1001
1100
1001
0001
,
0010
0001
0100
0001
0010
0000
0010
0000
,
0100
1000
0010
1000
0100
0000
0100
0000
,
1000
0001
0100
0010
1000
0001
1000
0000
,
1001
0101
1001
1000
,
0010
1000
0100
1000
0010
0000
0010
0000
,
0100
0001
0010
0001
0100
0000
0100
0000
,
0001
1000
0000
0001
1000
0000
0001
1000
0000
0000
0000
0000
0100
0000
0000
0000
,
1001
0110
1001
0000
;

//--------------- dance-single - OrangeRight ----------------
#NOTES:
     dance-single:
     OrangeRight:
     Hard:
     11:
     0,0,0,0,0:
0000
0000
0000
0000
,
0000
0000
0000
0000
,
0000
0000
0000
0000
,
0000
0000
0000
0000
,
0000
0000
0000
0000
,
2000
0010
0000
0100
,
3002
0010
0000
0100
,
1003
0000
0000
0000
0010
0000
0100
0000
0001
0000
0000
0000
1000
0000
0000
0100
,
0000
0100
0000
0100
1000
0000
0001
0000
0100
0000
0000
0000
0110
0000
0000
0000
,
2000
0001
0000
0100
,
3002
1000
0000
0010
,
1003
0000
0000
0000
0100
0000
0010
0000
0001
0000
0000
0000
0100
0000
0000
0010
,
0000
0010
0000
0010
1000
0000
0001
0000
1000
0000
0000
0000
0110
0000
0000
0000
,
1001
0000
0000
0000
0100
0000
1000
0000
0010
0000
0000
0000
0100
0000
0000
0001
,
0000
1000
0000
0000
0100
0000
0010
0000
0001
0000
0000
0000
1001
0000
0000
0000
,
1000
0100
0000
1000
0100
0000
0010
0001
0000
0010
0001
0000
1000
0000
0001
1000
,
0000
0002
0000
0000
1000
0000
0000
0000
0100
0000
0000
0000
0013
0000
0000
0000
,
1100
0000
0000
0000
1010
0000
0000
0000
0102
0000
0000
0000
0013
0000
0000
0001
,
0000
0001
0100
0000
0010
0000
1000
0000
0100
0000
0000
0000
1100
0000
0000
1000
,
0000
1000
0001
0000
0010
0000
0001
0000
1000
0000
0000
0000
1010
0000
0000
0000
,
1000
0100
0000
1000
0010
0000
1000
0001
0000
0000
0100
0000
0010
0000
1000
0000
,
1010
0000
0000
0000
0101
0000
0000
0000
0012
0000
0000
0000
0103
0000
0000
0001
,
0000
0001
0010
0000
0100
0000
1000
0000
0010
0000
0000
0000
1100
0000
0000
0100
,
0000
0100
1000
0000
0010
0000
0100
0000
0001
0000
0000
0000
1001
0000
0000
0000
,
0001
0010
0000
0001
0100
0000
0001
1000
0000
0000
0001
0000
0100
0000
0010
0000
,
2002
0000
0000
0000
0000
0000
0000
0000
3000
0000
0000
0000
0103
0000
0000
0010
,
0000
1000
0001
0000
0010
0000
0100
0000
1000
0000
0010
0000
0100
0000
0001
0000
,
1000
0000
0001
0000
0010
0000
0100
0000
2100
0000
0000
0000
3010
0000
0000
1000
,
0000
1000
0000
1000
0001
0000
0010
0000
0210
0000
0000
0000
1300
0000
0000
0000
,
1000
0000
0010
0000
0100
0000
0001
0000
0010
0000
0001
0000
0100
0000
0000
0001
,
0000
0100
0010
0000
1000
0000
0100
0000
0001
0000
0100
0000
1000
0000
0010
0000
,
0100
0000
0001
0000
1000
0000
0100
0000
0120
0000
0000
0000
0031
0000
0000
0100
,
0000
0100
0000
0100
0010
0000
1000
0000
2010
0000
0000
0000
3100
0000
0000
0000
,
0110
0000
0100
1000
0010
0000
0100
0000
,
0001
0010
0100
1000
0001
0000
0100
0000
,
0001
0100
0000
0001
0100
0000
0010
1000
0000
0010
1000
0000
0001
0000
1000
0001
,
0000
2000
0000
0000
0000
0000
0000
0000
3000
0000
0000
0000
0001
0000
1000
0000
,
1001
0000
0000
0000
0110
0000
0000
0000
1001
0000
0000
0000
1000
0000
0000
0001
,
0000
0001
1000
0000
0100
0000
0010
0000
0100
0000
0000
0000
1000
0000
0000
0010
,
0000
0010
0100
0000
0001
0000
0010
0000
0100
0000
0000
0000
1000
0000
0000
0000
,
0001
1000
0000
0010
0100
0000
0001
1000
0000
0000
0001
0000
1000
0000
0001
0000
,
0011
0000
0000
0000
0101
0000
0000
0000
2010
0000
0000
0000
3100
0000
0000
1000
,
0000
0001
0010
0000
0100
0000
1000
0000
0010
0000
0000
0000
1010
0000
0000
1000
,
0000
0001
1000
0000
0100
0000
1000
0000
0001
0000
0000
0000
0101
0000
0000
0000
,
0001
0100
0000
0010
1000
0000
0100
0010
0000
0000
0001
0000
0100
0000
0001
0000
,
0101
0000
0000
0000
1010
0000
0000
0000
2100
0000
0000
0000
3010
0000
0000
1000
,
0000
0001
0100
0000
0010
0000
1000
0000
0100
0000
0000
0000
1010
0000
0000
0010
,
0000
0100
0001
0000
0010
0000
1000
0000
0010
0000
0000
0000
0011
0000
0000
0000
,
0001
1000
0000
0010
0100
0000
0001
1000
0000
0000
0001
0100
0001
0000
1000
0000
,
1001
0110
1001
0000
;

//--------------- dance-single - OrangeRight ----------------
#NOTES:
     dance-single:
     OrangeRight:
     Challenge:
     13:
     0,0,0,0,0:
0000
0000
0000
0000
,
0000
0000
0000
0000
,
0000
0000
0000
0000
,
0000
0000
0000
0000
,
0000
0000
0000
0000
,
1000
0000
0100
1000
0000
0010
0000
0100
0000
0001
0000
1000
0000
0000
0000
1000
,
0000
0001
0000
0010
0000
0100
0000
1000
0000
0010
0000
0001
0000
0010
0000
2000
,
0000
0000
3001
0000
0000
0000
1000
0000
0010
0000
0000
0000
0100
0000
0000
0001
,
0000
0001
0000
0001
0010
0000
0100
0000
1000
0000
0000
0000
1001
0000
0000
0000
,
0001
0000
0100
0010
0000
1000
0000
0100
0000
0010
0000
0001
0000
0000
0100
0010
,
0000
1000
0000
0100
0000
0001
0000
0100
0000
1000
0000
0010
0000
0100
0000
0002
,
0000
0000
1003
0000
0000
0000
0001
0000
0100
0000
0000
0000
0010
0000
0000
1000
,
0000
1000
0000
1000
0001
0000
0010
0000
0100
0000
0000
0000
1001
0000
0000
0000
,
1100
0000
1000
0000
0010
0000
0100
0000
0001
0000
0000
0000
1001
0000
0000
0101
,
0000
0100
0010
0000
1000
0000
0100
0000
1100
0000
0000
0000
1001
0000
0000
0000
,
1000
0010
0M00
0010
0001
0000
0001
0100
00M0
0100
1000
0000
0010
0100
0001
1000
,
0000
1200
0000
0000
0010
0000
0000
0000
1300
0000
0000
0010
0100
0001
1000
0000
,
1100
0000
0001
0000
0101
0000
1000
0000
1001
0000
0001
0000
1000
0000
0010
0100
,
0001
0100
0010
0000
1000
0000
0100
0000
1100
0000
0010
0000
0101
0000
0001
0100
,
0010
0100
0001
0000
1000
0000
0010
0000
1010
0000
0100
0000
0011
0000
0000
0000
,
0001
0010
0M00
0010
1000
0000
1000
0100
0010
0000
0001
0100
0000
0010
1000
0000
,
1010
0000
0001
0000
0011
0000
1000
0000
1001
0000
0001
0000
1000
0000
0100
0010
,
0001
0010
0100
0000
1000
0000
0010
0000
1010
0000
0100
0000
0011
0000
0001
0100
,
0010
0100
0001
0000
1000
0000
0100
0000
1100
0000
0010
0000
0101
0000
0000
0000
,
0001
0100
00M0
0100
1000
0000
1000
0010
0100
0001
0010
0001
0100
0000
0010
0000
,
1001
0000
0001
0100
0000
0010
0000
1000
0000
0100
0000
0010
0001
0000
1000
0010
,
0000
0010
0100
0000
0001
0000
0010
0000
1000
0000
0010
0001
0000
0100
0000
0020
,
0000
0000
1030
0000
0100
0000
1000
0000
0002
0000
0000
0000
1003
0000
0000
0010
,
0000
1000
0000
0100
0010
0000
0001
0000
1001
0000
0000
0001
0100
0000
0010
0000
,
1000
0000
0100
1000
0000
0010
0000
0100
0000
0001
0000
1000
0001
0000
1000
0100
,
0000
0010
0000
0001
0000
0100
0000
1000
0000
0100
0000
0001
0000
1000
0000
0100
,
1000
0000
0010
0000
0100
0000
0001
0000
0012
0000
0000
0000
0103
0000
0000
0001
,
0000
0000
0000
0100
0000
0000
0000
0000
0000
0010
0000
0000
1000
0000
0000
0000
0000
0000
0100
0000
0000
0000
0000
0000
1000
0000
0001
0000
1000
0000
0001
0000
0000
0000
0000
0000
0100
0000
0000
0010
0000
0000
0000
0000
0000
0010
0000
0000
,
1000
0000
0100
0000
0010
0000
0100
0000
2000
0000
0000
0000
3001
0000
0000
0001
,
0000
0100
0010
0100
0002
0000
1003
0000
,
1000
0100
00M0
0100
0001
0000
0001
0010
0M00
0010
1000
0000
0001
1000
0100
0020
,
0000
0002
0000
0000
0000
0000
0033
0000
MMMM
0000
0001
1000
0010
0100
0001
0000
,
1000
0000
0100
0000
0001
0000
0100
0000
1000
0000
0010
0000
0100
0000
0001
0010
,
0000
0010
0100
0000
1000
0000
0010
0000
0001
0000
0010
0000
1000
0000
0001
0100
,
0000
0100
0010
0000
1000
0000
0100
0000
0010
0000
0100
0000
0001
0000
0100
0000
,
1000
0010
0M00
0010
0001
0000
0001
0100
0010
0000
1000
0001
0010
0001
1000
0010
,
1000
0100
0010
0000
0001
0100
0010
0000
1000
0001
0100
0000
0010
0000
1000
0100
,
00M0
0100
0001
0000
1000
0000
0100
0000
1100
0000
0010
0000
1001
0000
0001
0010
,
0M00
0010
1000
0000
0001
0000
0010
0000
0011
0000
0100
0000
1001
0000
1000
0000
,
0001
0010
0M00
0010
1000
0000
1000
0100
0010
0000
0001
0100
0000
0010
1000
0000
,
0001
0100
0010
0000
1000
0100
0010
0000
0001
1000
0010
0000
0100
0000
0001
0010
,
0M00
0010
1000
0000
1100
0000
0001
0000
0101
0000
0010
0000
1001
0000
0001
0100
,
00M0
0100
1000
0000
1010
0000
0001
0000
0011
0000
0100
0000
1001
0000
0001
0000
,
1000
0100
00M0
0100
0001
0000
0001
0010
0M00
0010
1000
0100
0010
0001
1000
0000
,
1001
MMMM
0110
MMMM
1001
0000
0000
0000
;

//--------------- dance-double - OrangeRight ----------------
#NOTES:
     dance-double:
     OrangeRight:
     Easy:
     4:
     0,0,0,0,0:
00000000
00000000
00000000
00000000
,
00000000
00000000
00000000
00000000
,
00000000
00000000
00000000
00000000
,
00000000
00000000
00000000
00000000
,
00000000
00000000
00000000
00000000
,
20000000
00000000
31000000
10000000
,
00020000
00000000
00130000
00010000
,
02000000
00000000
03010000
00010000
,
01000000
00001000
00010000
00000100
,
00002000
00000000
00003010
00001000
,
00000002
00000000
00000013
00000001
,
00000200
00000000
00000301
00000001
,
00001000
00000100
00010000
00001000
,
00020000
00000100
00000000
00030100
,
00002000
01000000
00000000
01003000
,
00010000
00001000
00100000
00010000
,
02000000
00000000
00200000
03300000
,
10000000
00010000
10000000
00000000
,
00100000
01000000
00010000
00000000
,
00100000
00001000
00010000
00000000
,
00001000
00010000
00000100
00001000
,
00000001
00001000
00000001
00000000
,
00000010
00000100
00001000
00000000
,
00000010
00010000
00001000
00000000
,
00010000
00001000
00100000
00010000
,
02000000
00000000
00000000
03100000
,
10000000
01000000
00100000
00010000
,
02000000
00000000
03010000
00010000
,
00100000
00001000
00010000
00000010
,
00000100
00000001
00000010
00000100
,
00001000
00000010
00000100
00000010
,
00002000
00000000
00003100
00000100
,
00010000
00001000
00100000
00100000
,
00020000
01000000
00000000
01030000
,
00200000
10000000
00000000
10300000
,
10000000
01000000
00100000
00010000
,
02000000
00000000
00000000
03000000
,
00010000
00100000
00010000
00000000
,
01000000
00001000
00010000
00000000
,
00001000
00010000
00000100
00000000
,
00001000
00000001
00001000
00000000
,
00000001
00001000
00001001
00000000
,
00000001
00000100
00001000
00000000
,
00010000
00100000
10000000
00000000
,
01000000
00100000
01000000
01100000
,
10000000
00010000
10010000
00000000
,
10000000
01000000
00010000
00000000
,
00001000
00000010
00000001
00000100
,
00000010
00001000
00000001
00000000
,
00001001
00001001
00001001
00000000
;

//--------------- dance-double - OrangeRight ----------------
#NOTES:
     dance-double:
     OrangeRight:
     Medium:
     9:
     0,0,0,0,0:
00000000
00000000
00000000
00000000
,
00000000
00000000
00000000
00000000
,
00000000
00000000
00000000
00000000
,
00000000
00000000
00000000
00000000
,
00000000
00000000
00000000
00000000
,
20000000
01000000
00000000
00100000
,
32000000
00100000
00000000
13000000
,
01000000
00000000
10000000
00010000
01000000
00000000
00001000
00000000
,
00010000
00000100
00001000
00000000
00000020
00000000
00001030
00000000
,
00000002
00000010
00000000
00001000
,
00000023
00000100
00000000
00000031
,
00000010
00000000
00000001
00000100
00000010
00000000
00001000
00000000
,
00000100
00010000
00001000
00000000
00200000
00000000
00310000
00000000
,
00010000
00100000
00010000
00100000
00001000
00000000
00010000
00000000
,
00000100
00001000
00000100
00001000
00000010
00000000
00000100
00000000
,
00000001
00000000
00000000
00000100
00000000
00000000
00000010
00000000
00000000
00001000
00000000
00000000
00000100
00000000
00000010
00000000
,
00000002
00002000
00000000
00000000
00003003
00000000
00000110
00000000
,
00001001
00000000
00001100
00000000
00001001
00000000
00001000
00000100
,
00010000
00001000
00100000
00001000
00010000
00000000
00011000
00000000
,
00001000
00010000
00000100
00001000
00000100
00000000
00001100
00000000
,
00000100
00000000
00000000
00010000
00000000
00000000
00001000
00000000
00100000
00000000
00010000
00000000
10000000
00000000
00000000
00000000
,
10010000
00000000
01010000
00000000
10010000
00000000
00010000
00100000
,
00001000
00010000
00000100
00010000
00001000
00000000
00011000
00000000
,
00010000
00001000
01000000
00010000
01000000
00000000
01010000
00000000
,
01000000
00000000
00000000
00001000
00000000
00000000
00010000
00000000
00000010
00000000
00001000
00000000
00000100
00000000
00000000
00000000
,
00002000
00000000
00003000
00000100
,
00001000
00000010
00000100
00000000
00000001
00000010
00000100
00000000
,
00001000
00000000
00000100
00010000
00002000
00000000
00103000
00000000
,
00010000
01000000
00100000
10000000
00010000
00000000
10010000
00000000
,
10000000
00000000
00010000
01000000
00010000
00100000
00010000
00000000
,
10000000
00100000
01000000
00000000
00010000
00100000
01000000
00000000
,
00100000
00000000
00010000
01000000
00002000
00000000
00013000
00000000
,
00000100
00001000
00000010
00000100
00000001
00000000
00001001
00000000
,
00001000
00000100
00001000
00000100
00010000
00000000
00001000
00000000
,
00100000
00010000
00100000
00010000
01000000
00000000
00001000
00000000
,
00010000
00000000
00000000
00000100
00000000
00000000
00001000
00000000
00000000
00000010
00000000
00000000
00000100
00000000
00000001
00000000
,
00002000
00000002
00000000
00000000
00003003
00000000
00000001
00000000
,
00001001
00000000
00001010
00000000
00001100
00000000
00000100
00010000
,
00001000
00100000
00010000
01000000
00010000
00000000
01010000
00000000
,
01000000
00001000
00010000
00001000
00100000
00000000
00110000
00000000
,
00010000
10000000
00000000
00010000
10000000
00000000
00010000
10000000
00000000
00000000
00000000
00000000
01100000
00000000
00000000
00000000
,
10010000
00000000
10100000
00000000
01100000
00000000
00100000
01000000
,
00010000
10000000
01000000
00100000
00010000
00000000
00110000
00000000
,
00100000
00001000
00010000
00000100
00001000
00000000
00001010
00000000
,
00001000
00000000
00000000
00000010
00000000
00000000
00000100
00000000
00000001
00000000
00000000
00000000
00000110
00000000
00000000
00000000
,
00001001
00000000
00000101
00000000
00000110
00000000
00000100
00000010
,
00001000
00000001
00000010
00000100
00001000
00000000
00001100
00000000
,
00000100
00010000
00001000
01000000
00010000
00000000
10010000
00000000
,
10000000
00010000
00000000
10000000
00010000
00000000
10000000
00010000
00000000
00000000
00010000
00000000
01000000
00000000
00001000
00000000
,
00011000
00011000
00011000
00000000
;

//--------------- dance-double - OrangeRight ----------------
#NOTES:
     dance-double:
     OrangeRight:
     Hard:
     11:
     0,0,0,0,0:
00000000
00000000
00000000
00000000
,
00000000
00000000
00000000
00000000
,
00000000
00000000
00000000
00000000
,
00000000
00000000
00000000
00000000
,
00000000
00000000
00000000
00000000
,
20000000
00100000
00000000
31000000
,
00020000
00100000
00000000
01030000
,
00010000
00000000
00000000
00000000
01000000
00000000
00001000
00000000
00010000
00000000
00000000
00000000
00000100
00000000
00000000
00001000
,
00000000
00001000
00000000
00001000
00000001
00000000
00000100
00000000
00000001
00000000
00000000
00000000
00001001
00000000
00000000
00000000
,
00000002
00000010
00000000
00001003
,
00000200
00000010
00000000
00001300
,
00001000
00000000
00000000
00000000
00000100
00000000
00010000
00000000
00001000
00000000
00000000
00000000
00100000
00000000
00000000
00010000
,
00000000
00010000
00000000
00010000
01000000
00000000
00100000
00000000
10000000
00000000
00000000
00000000
10010000
00000000
00000000
00000000
,
10000000
01000000
00010000
01000000
00100000
00000000
00010000
00100000
,
00001000
00010000
00100000
00010000
00001000
00000000
00010000
00000000
,
00001000
00010000
00000000
00000100
00010000
00000000
00000100
00001000
00000000
00000010
00001000
00000000
00000010
00000000
00000100
00000001
,
00000000
00002000
00000000
00000000
00000100
00000000
00000000
00000000
00000010
00000000
00000000
00000000
00003001
00000000
00000000
00000000
,
00000011
00000000
00000000
00000000
00001010
00000000
00000000
00000000
00001200
00000000
00000000
00000000
00000310
00000000
00000000
00000100
,
00000000
00000100
00001000
00000000
00000010
00000000
00010000
00000000
00002000
00000000
00000000
00000000
00013000
00000000
00000000
00010000
,
00000000
00010000
00001000
00000000
00100000
00000000
00010000
00000000
02000000
00000000
00000000
00000000
03100000
00000000
00000000
00000000
,
10000000
00100000
00000000
10000000
00010000
00000000
10000000
01000000
00000000
00000000
10000000
00000000
00100000
00000000
10000000
00000000
,
10100000
00000000
00000000
00000000
00110000
00000000
00000000
00000000
02010000
00000000
00000000
00000000
03100000
00000000
00000000
01000000
,
00000000
01000000
00010000
00000000
00100000
00000000
00001000
00000000
00020000
00000000
00000000
00000000
00030100
00000000
00000000
00000100
,
00000000
00000100
00001000
00000000
00000010
00000000
00000001
00000000
00000020
00000000
00000000
00000000
00001030
00000000
00000000
00000000
,
00001000
00000100
00000000
00001000
00000001
00000000
00001000
00000010
00000000
00000000
00001000
00000000
00000010
00000000
00000100
00000000
,
00000202
00000000
00000000
00000000
00000000
00000000
00000000
00000000
00000303
00000000
00000000
00000000
00001001
00000000
00000000
00001000
,
00000000
00001000
00000100
00000000
00010000
00000000
00001000
00000000
00100000
00000000
00010000
00000000
01000000
00000000
00010000
00000000
,
00100000
00000000
01000000
00000000
10000000
00000000
00010000
00000000
02000000
00000000
00000000
00000000
03100000
00000000
00000000
10000000
,
00000000
10000000
00000000
10000000
00010000
00000000
00100000
00000000
02000000
00000000
00000000
00000000
13000000
00000000
00000000
00000000
,
10100000
00000000
10000000
00100000
01000000
00010000
00100000
00000000
,
00010000
00100000
10000000
00100000
00010000
01000000
00001000
00010000
,
00000100
00000000
00001000
00000000
00000010
00000000
00000100
00000000
00000002
00000000
00000000
00000000
00001003
00000000
00000000
00000010
,
00000000
00000010
00000000
00000010
00000100
00000000
00000001
00000000
00000020
00000000
00000000
00000000
00000130
00000000
00000000
00000000
,
00001000
00000100
00010000
00001000
00200000
00000000
00310000
00000000
,
00010000
01000000
00001000
00010000
00000020
00000000
00001030
00000000
,
00001000
00000100
00000000
00001000
00000010
00000000
00000100
00000001
00000000
00000010
00000001
00000000
00000100
00000000
00000010
00002000
,
00000000
00000002
00000000
00000000
00000000
00000000
00000000
00000000
00003003
00000000
00000000
00000000
00001000
00000000
00000001
00000000
,
00001001
00000000
00000000
00000000
00001100
00000000
00000000
00000000
00001001
00000000
00000000
00000000
00001000
00000000
00000000
00000010
,
00000000
00000010
00001000
00000000
00000100
00000000
00010000
00000000
00002000
00000000
00000000
00000000
01003000
00000000
00000000
01000000
,
00000000
01000000
00010000
00000000
00100000
00000000
01000000
00000000
20000000
00000000
00000000
00000000
30010000
00000000
00000000
00000000
,
01000000
00100000
00000000
10000000
00010000
00000000
00100000
01000000
00000000
00000000
10000000
00000000
00100000
00000000
10000000
00000000
,
10100000
00000000
00000000
00000000
01010000
00000000
00000000
00000000
00102000
00000000
00000000
00000000
00013000
00000000
00000000
00010000
,
00000000
00000100
00001000
00000000
00000010
00000000
00000001
00000000
00000010
00000000
00001000
00000000
00000100
00000000
00000000
00001000
,
00000000
00000010
00000100
00000000
00000001
00000000
00000010
00000000
00001000
00000000
00000010
00000000
00000001
00000000
00000000
00000000
,
00001000
00000010
00000000
00000100
00000001
00000000
00001000
00000100
00000000
00000000
00000010
00000000
00000001
00000000
00000100
00000000
,
00000101
00000000
00000000
00000000
00001010
00000000
00000000
00000000
00020100
00000000
00000000
00000000
00031000
00000000
00000000
00001000
,
00000000
00100000
00010000
00000000
01000000
00000000
10000000
00000000
01000000
00000000
00010000
00000000
10000000
00000000
00000000
00100000
,
00000000
10000000
01000000
00000000
00100000
00000000
00010000
00000000
01000000
00000000
00001000
00000000
00010000
00000000
00000000
00000000
,
00001000
00010000
00000000
00010000
00000100
00000000
00000100
00001000
00000000
00000000
00001000
00000000
00000100
00000000
00000010
00000000
,
00000011
00001100
00001001
00000000
;

//--------------- dance-double - OrangeRight ----------------
#NOTES:
     dance-double:
     OrangeRight:
     Challenge:
     13:
     0,0,0,0,0:
00000000
00000000
00000000
00000000
,
00000000
00000000
00000000
00000000
,
00000000
00000000
00000000
00000000
,
00000000
00000000
00000000
00000000
,
00000000
00000000
00000000
00000000
,
10000000
00000000
00010000
01000000
00000000
10000000
00000000
01000000
00000000
00010000
00000000
00100000
00000000
00000000
00000000
00001000
,
00000000
00010000
00000000
00000100
00000000
00001000
00000000
00000010
00000000
00000001
00000000
00000010
00000000
00001000
00000000
00000001
,
00001000
00000000
00000100
00000000
00000010
00000000
00000001
00000000
00000200
00000000
00000000
00000000
00000310
00000000
00000000
00000010
,
00000000
00000010
00000000
00000010
00001000
00000000
00000001
00000000
00001001
00000000
0000MMMM
00000000
00000110
00000000
00000000
00000000
,
00000001
00000000
00000100
00001000
00000000
00000100
00000000
00000001
00000000
00000010
00000000
00000100
00000000
00000000
00001000
00000100
,
00000000
00010000
00000000
00001000
00000000
00000100
00000000
00001000
00000000
00010000
00000000
00100000
00000000
10000000
00000000
00010000
,
10000000
00000000
00100000
00000000
01000000
00000000
00010000
00000000
20000000
00000000
00000000
00000000
30010000
00000000
00000000
00010000
,
00000000
00010000
00000000
00010000
01000000
00000000
00100000
00000000
01100000
00000000
MMMM0000
00000000
10010000
00000000
00000000
00000000
,
10010000
00000000
10000000
00000000
01000000
00000000
00100000
00000000
00010000
00000000
00000000
00000000
01000000
00000000
00000000
00001000
,
00000000
00010000
00000100
00000000
00001000
00000000
00000010
00000000
00000100
00000000
00000000
00000000
00000001
00000000
00000000
00000000
,
00001000
00000010
00000M00
00000010
00000001
00000000
00000001
00000100
000000M0
00000100
00001000
00000000
00000100
00010000
00001000
01000000
,
00000000
01000000
00020000
00000000
10000000
00000000
00000000
00000000
00100000
00000000
00000000
00000000
01030000
00010000
01000000
00000000
,
01010000
00000000
MMMM0000
00000000
11000000
00000000
MMMM0000
00000000
10010000
00000000
10000000
00000000
00010000
00000000
00100000
00001000
,
00000000
00001000
00010000
00000000
00000100
00000000
00001000
00000000
00001010
00000000
00000001
00000000
00000011
00000000
00000001
00000100
,
00000000
00000010
00001000
00000000
00000100
00000000
00001000
00000000
00000010
00000000
00000001
00000000
00000010
00000000
00000000
00000000
,
00001000
00000010
00000M00
00000010
00000001
00000000
00000100
00000010
00001000
00000000
00000010
00000100
00000000
00000100
00000010
00000000
,
00001010
00000000
0000MMMM
00000000
00000011
00000000
0000MMMM
00000000
00001001
00000000
00000001
00000000
00001000
00000000
00000100
00010000
,
00000000
00010000
00001000
00000000
00100000
00000000
00010000
00000000
01010000
00000000
10000000
00000000
11000000
00000000
10000000
00100000
,
00000000
01000000
00010000
00000000
00100000
00000000
00010000
00000000
01000000
00000000
10000000
00000000
01000000
00000000
00000000
00000000
,
00010000
01000000
00M00000
01000000
10000000
00000000
00100000
01000000
00010000
00000000
00100000
00001000
00010000
00000100
00001000
00000000
,
00001010
00000000
00000010
00000100
00000000
00000001
00000000
00000010
00000000
00001000
00000000
00000010
00000000
00000000
00000001
00000100
,
00000000
00000010
00001000
00000000
00000100
00000000
00010000
00000000
00001000
00000000
00000100
00001000
00000000
00010000
00000000
02000000
,
00000000
00000000
13000000
00000000
00100000
00000000
01000000
00000000
01020000
00000000
00000000
00000000
00130000
00000000
00000000
00100000
,
00000000
01000000
00000000
10000000
00100000
00000000
01000000
00000000
01010000
00000000
00000000
00010000
10000000
00000000
01000000
00000000
,
11000000
00000000
10000000
00100000
00000000
01000000
00000000
00010000
00000000
00100000
00010000
00000000
01000000
00000000
00100000
01000000
,
00000000
00010000
00000000
00100000
00000000
00001000
00000000
00010000
00000000
00100000
00000000
00010000
00000000
00001000
00000000
00020000
,
00000000
00000000
00030100
00000000
00001000
00000000
00000010
00000000
00000210
00000000
00000000
00000000
00000301
00000000
00000000
00000001
,
00000000
00000010
00000000
00000100
00001000
00000000
00000001
00000000
00002001
00000000
00000000
00000000
00003100
00001000
00000000
00001000
,
00000010
00010000
00001000
00100000
00120000
00000000
01030000
00000000
,
01000000
00001000
00010000
00000100
00002100
00000000
00003010
00000000
,
00001000
00000010
00000M00
00000010
00000001
00000000
00000001
00000100
000000M0
00000100
00001000
00000000
00000010
00010000
00001000
00100000
,
00000000
00220000
00000000
00000000
00000000
00000000
00330000
00000000
MMMM0000
00000000
00010000
10000000
00010000
10000000
00010000
00000000
,
10000000
00000000
01000000
00000000
00010000
00000000
01000000
00000000
00100000
00000000
00010000
00000000
01000000
00000000
00001000
00010000
,
00000000
00010000
00000100
00000000
00001000
00000000
00010000
00000000
00001000
00000000
00000100
00000000
00010000
00000000
00001000
01000000
,
00000000
01000000
00010000
00000000
00100000
00000000
00001000
00000000
00010000
00000000
00000100
00000000
00001000
00000000
00000010
00000000
,
00001000
00000100
000000M0
00000100
00000001
00000000
00000001
00000010
00000100
00001000
00000010
00000100
00000001
00001000
00000001
00000000
,
00001000
00000010
00001000
00000000
00000001
00000100
00000001
00000000
00001001
00000000
00000100
00000000
00000110
00000000
00000010
00001000
,
00000M00
00001000
00010000
00000000
00001000
00100000
00010000
00000000
00110000
00000000
01000000
00000000
10010000
00000000
10000000
00100000
,
0M000000
00100000
00010000
00000000
01000000
00100000
01000000
00000000
01010000
00000000
00100000
00000000
11000000
00000000
00000000
00000000
,
10000000
01000000
00M00000
01000000
00010000
00000000
00100000
01000000
10000000
00000000
00100000
01000000
00010000
01000000
00100000
00000000
,
10000000
00100000
01000000
00000000
00010000
00100000
01000000
00000000
10000000
00010000
01000000
00000000
00100000
00000000
01000000
00010000
,
00M00000
00010000
00001000
00000000
00010000
00000100
00001000
00000000
00001100
00000000
00000001
00000000
00000101
00000000
00000001
00000010
,
00000M00
00000010
00001000
00000000
00000100
00001000
00000010
00000000
00001010
00000000
00010000
00000000
00011000
00000000
00100000
00000000
,
00010000
01000000
00M00000
01000000
10000000
00000000
10000000
00100000
0M000000
00100000
00010000
01000000
00100000
10000000
01000000
00000000
,
11000000
MMMM0000
00110000
MMMM0000
10010000
00000000
00000000
00000000
;
