#TITLE:Melody...;
#SUBTITLE:;
#ARTIST:Mikuru396 feat. Hatsune Miku ;
#TITLETRANSLIT:;
#SUBTITLETRANSLIT:;
#ARTISTTRANSLIT:;
#GENRE:;
#CREDIT:Braeden;
#MUSIC:Melody....ogg;
#BANNER:SC2023-bn.png;
#JACKET:SC2023-jacket.png;
#BACKGROUND:SC2023-bg.png;
#CDTITLE:;
#SAMPLESTART:0.000;
#SAMPLELENGTH:0.000;
#SELECTABLE:YES;
#OFFSET:-0.052;
#BPMS:0.000=142.000
,129.000=71.000
,161.000=142.000
;
#STOPS:164.750=4.648
,169.750=3.380
,202.000=0.845
;
#BGCHANGES:;
#FGCHANGES:;

//--------------- dance-single - ----------------
#NOTES:
     dance-single:
     :
     Beginner:
     5:
     0,0,0,0,0:
0000
0000
0000
0000
,
0000
0000
0000
0000
,
0000
1000
0000
0000
,
0000
0001
0000
0000
,
0000
0000
0100
0000
,
0000
0000
0010
0000
,
0000
0000
1000
0000
,
0000
0000
0001
0000
,
0000
1001
0001
0000
,
0100
0000
0010
0000
,
0100
0000
0001
0000
,
1000
0000
0010
0000
,
0100
0000
0001
0000
,
1000
0000
0100
0000
,
0010
0000
0001
0000
,
1000
0000
0001
0000
,
1000
1001
0002
0000
,
0000
0003
0000
0100
,
0000
0010
0000
1000
,
0001
1000
0000
0010
,
0000
0100
0000
0002
,
0000
0000
0003
1000
,
0000
0020
0000
0000
,
0130
0000
0001
0000
,
1000
2001
0000
3002
,
0000
0003
0000
0100
,
0000
0200
0000
1300
,
1000
1000
0000
0001
,
0000
0100
0020
0000
,
0000
0030
0000
1000
,
0000
0001
1000
0010
,
0100
0001
0010
0001
,
1000
0000
0002
0000
0103
0100
0000
0000
,
0010
0000
2000
0000
0000
3001
0000
0000
,
0000
0000
0000
0000
0100
0001
0000
0000
,
1000
0002
0000
0023
,
0030
0000
0000
0000
0100
1000
0000
0001
,
0100
0000
0010
0000
0000
0100
0000
0000
,
0000
0000
0001
0000
,
1000
0010
0000
0200
,
0300
1001
0001
1000
,
0010
0000
1001
0001
,
0100
0001
0000
0001
,
0100
0000
1001
0001
,
1000
0010
0000
1000
,
0100
1000
1001
0001
,
0100
0010
1010
1000
,
0001
1000
1001
0000
,
0110
0000
1001
0000
,
0110
0000
1000
0001
,
1000
0010
0000
0001
,
1001
0200
0000
0000
,
0300
0000
0010
0000
,
1000
0000
0001
0100
,
0020
0000
0030
1000
,
0001
0200
0000
0000
,
0300
0000
0010
0000
,
2000
0000
3000
0001
,
0100
0000
0000
0001
,
1002
0000
2003
0000
,
0000
3000
0010
0000
,
0100
0000
0001
1000
,
0020
0000
0030
1000
,
0001
0020
0000
0000
,
0030
0000
0001
1000
,
0010
0100
0001
0010
,
0100
1000
0001
0100
,
2002
0000
0000
0000
,
3003
0000
0000
0000
;

//--------------- dance-single - ----------------
#NOTES:
     dance-single:
     :
     Easy:
     8:
     0,0,0,0,0:
0000
0000
0000
0000
,
0000
0000
0000
0000
,
0000
0002
0100
0100
,
1003
0010
0100
0001
,
0100
0010
0200
0301
,
1000
0020
0000
0130
0010
0100
0000
0010
,
1000
0020
0000
0000
0130
0000
0001
0000
,
1000
0100
1000
0001
,
0010
0110
0200
2300
,
3010
0200
0000
0301
0010
0100
0000
1000
,
0001
2000
0000
0000
3010
0000
0100
0000
,
0001
0010
0001
0010
,
0100
1000
0001
0100
,
0001
0020
0100
0000
0100
0000
0130
0010
,
0001
0000
1000
0000
0010
0000
0000
0000
1000
0000
0000
0000
0001
0000
0000
0100
,
0000
0001
1000
0000
0010
0000
2000
0000
,
3010
0000
1001
0000
0001
0100
0020
0000
,
0100
0000
0000
0000
0100
0000
0000
0000
0000
0000
0130
0000
0001
0000
0000
0010
,
0000
0001
2000
0000
3010
0000
0100
0001
,
0100
0002
0000
0000
0000
0000
0013
0000
,
0100
0000
1000
0000
0001
1000
0002
0000
,
0100
0000
0000
0000
1000
0000
0000
0000
0013
0000
0100
0000
0001
0000
0000
1000
,
0000
0001
0200
0000
0310
0000
1000
0001
,
0010
0001
1000
0000
0100
0000
0010
0000
,
0001
0000
2001
0000
0000
3001
0020
0000
,
0100
0000
0000
0000
0100
0000
0000
0000
0130
0000
0010
0000
0001
0000
0000
1000
,
0000
0010
0200
0000
0001
0000
0310
1000
,
0010
0200
0000
0000
0000
0000
0300
0000
,
0001
0000
1000
0000
0001
2000
0010
0000
,
0001
0000
0000
0000
0100
0000
0000
0000
3001
0000
0010
0000
0001
0000
0000
0100
,
0000
0010
1000
0000
0001
0000
0010
0100
,
1000
0001
2000
0000
3001
0000
0100
0010
,
0100
0001
20M0
0000
3001
0100
0000
0010
,
1000
0000
0100
0000
0020
0000
0000
0000
0000
0000
0031
2000
0000
0000
0000
0000
,
3000
0000
0000
0000
0010
1000
0000
0010
,
1000
0001
0020
0000
0000
0000
0032
0000
,
0003
0000
0000
0000
0000
0000
0000
0000
1000
0000
0001
0200
0000
0000
0310
0000
,
1000
0001
0020
0000
0031
1000
0000
0000
,
0001
0000
0000
0000
0100
0000
0000
0000
0010
0000
0000
1000
0000
0000
0001
0000
,
0010
0000
0001
0000
0200
0000
0000
0000
0000
0000
0000
0310
0200
0000
0000
0000
,
0000
0300
1001
0000
1000
0000
0001
0000
,
1000
0000
0000
0M10
0000
0000
0000
0000
1010
0000
0000
0000
1000
0000
0000
0000
,
0100
0000
0000
0000
0010
0000
0000
010M
0000
0000
0000
0000
0100
0000
0000
0000
,
0010
0001
1001
1000
,
0001
0000
0100
0000
0001
0000
0000
0100
0000
0000
0000
0000
0010
0000
0000
0000
,
1000
0100
1000
0000
1001
0000
0001
0000
,
0100
0010
0100
0000
0101
0000
0001
0000
,
0010
0100
1000
0000
1100
0000
1000
0000
,
1001
0001
0101
0100
,
0110
0010
1010
0110
,
0101
0001
0M00
0001
,
1001
0000
1000
0010
0200
0000
0001
0000
,
0001
0000
0000
0000
0310
0000
0100
0000
0010
0000
0000
1000
0000
0000
0100
0000
,
0020
0000
0000
0000
0031
1000
0100
0020
,
0000
0000
0030
0001
,
1000
0000
0001
2000
0001
0000
0001
0000
,
0001
0000
0000
0000
3001
0000
0100
0000
0010
0000
0000
1000
0000
0000
0100
0000
,
0020
0000
0000
0000
0030
0001
0100
0002
,
0000
0000
0000
0000
1003
0000
0001
1000
,
1002
0000
0000
0103
0020
0000
0100
0000
,
1000
0000
0000
0000
0130
0000
0010
0000
0100
0000
0000
0001
0000
0000
1000
0000
,
0002
0000
0000
0000
1003
0100
0010
0200
,
0000
0000
0300
0010
,
0001
0000
1000
0020
0100
0000
0000
0000
,
0030
0000
0000
0000
0000
0000
0100
0000
0001
0000
0000
0010
0000
0000
0100
0000
,
1000
0000
0001
0000
0100
0010
1000
0001
,
2000
0000
0000
3000
,
1001
0000
0000
0000
;

//--------------- dance-single - XMOD ----------------
#NOTES:
     dance-single:
     XMOD:
     Medium:
     11:
     0,0,0,0,0:
0000
0000
0000
0000
,
0000
0000
0000
0000
,
0000
0000
0000
0000
0001
0000
0000
1000
0000
0000
0010
0000
0000
1000
0000
0000
,
0001
0000
1000
0100
0010
0001
1000
0001
,
0010
0001
1000
0000
0200
0000
0320
0000
,
0031
0002
0000
1000
1000
1003
0000
0010
,
0100
0000
0001
0000
1000
0000
0000
0100
0000
0000
0010
0000
0000
0001
0000
0000
,
0100
0000
0000
0010
0000
0000
0100
0000
1000
0000
0100
0000
0001
0000
0100
0000
,
0010
1000
1001
0000
1000
1000
0001
0100
,
1000
1000
0100
0001
0100
0020
0000
1030
,
0100
0000
0010
0000
0001
0000
1000
0000
0010
0000
0100
0000
0000
0001
0000
0000
,
1000
0000
0000
0010
0000
0000
0100
0000
0001
0000
1000
0000
0001
0000
0010
0000
,
0001
0010
0100
0000
2000
0000
3002
0000
,
1003
2000
0000
3010
0100
0001
0100
0001
,
0100
0000
0010
0000
1000
0001
0000
0000
1000
0000
0100
0000
0001
0000
0000
0100
,
0000
0000
1000
0000
0000
0001
0000
0000
1000
0000
0100
0000
0040
0000
0000
0000
,
0031
0000
0000
0000
2001
0000
0000
0000
3001
0000
0010
0000
1000
0000
0000
0010
,
0000
0000
0100
0000
0000
1000
0000
0000
0010
0000
0100
0000
0001
0000
0000
1000
,
0000
0001
0200
0000
0310
0000
1000
0100
,
1000
0000
0001
0000
1000
0010
0000
0000
1000
0000
0010
0000
0001
0000
0000
0010
,
0000
0000
1000
0000
0020
0000
0000
0000
1030
0000
0001
0000
1000
0000
0000
0010
,
0000
0000
1000
0000
0000
0010
0000
0000
1000
0000
0100
0000
0001
0000
0000
0100
,
1000
0000
0010
0000
0100
0002
0000
0000
1003
0000
0010
0000
1000
0000
0001
0000
,
0010
0000
0100
0000
1000
0010
0000
0000
1000
0000
0100
0000
0010
0000
0001
0010
,
0000
0001
0100
0000
0120
0000
0000
0000
0130
0000
0001
0000
0100
0000
0010
1000
,
0000
0000
0010
0000
1000
0010
0000
0000
1000
0000
0100
0000
0100
0000
0000
0001
,
0000
0100
2000
0000
3010
1000
0100
1000
,
0001
0000
0100
0000
0010
1000
0000
0000
0001
0000
0100
0000
0010
0000
1000
0010
,
0000
0100
0010
0000
2000
0000
0000
0000
3001
0000
0100
0000
0001
0000
1000
0001
,
0000
0000
0100
0000
0001
0010
0000
0000
0100
0000
1000
0000
0010
0000
1000
0100
,
0000
0010
0002
0000
2003
0000
3010
1000
,
0001
1000
0020
0000
0230
0000
0310
1000
,
0001
0000
1000
0000
10M1
0000
0000
0000
0001
0000
1000
0002
0000
0000
0103
0000
,
0001
0000
0010
0000
0200
0000
0000
0000
1300
0000
0010
0100
0000
0001
0000
0000
,
2000
0000
0000
0000
3001
0000
0000
0000
0100
0000
0010
0200
0000
0000
0301
0000
,
1000
0000
0100
0000
0020
0000
0000
0000
0032
0000
0000
0000
1003
0020
0000
0000
,
0000
0000
0000
0000
2030
0000
0000
0000
3001
0000
1000
0200
0000
0000
0310
0000
,
0001
0000
0010
0000
0200
0000
0000
0000
1300
0100
0010
0001
1000
0100
0000
0010
,
0001
0000
1000
0000
0010
0000
0000
0000
0100
0000
0001
2000
0000
0000
3010
0000
,
1000
0000
0001
0000
2000
0000
0000
0000
3000
0000
0000
0001
2000
0000
0000
0000
,
3000
0000
0000
0000
10M0
0100
0000
0000
0001
0000
0100
0000
0010
0000
0100
0000
,
1000
0000
0001
M010
0000
0000
0000
0000
0001
1000
0000
0000
0001
0000
0100
0000
,
0010
0000
1000
0000
0010
0000
0100
M001
0000
1000
0000
0000
0100
0000
0010
0000
,
0001
0000
0100
0000
0010
0000
1000
0100
1000
0100
0000
0000
0010
0000
0001
0000
,
0100
0000
0010
0000
1000
0000
0010
1000
0000
0100
0000
0000
0010
0000
0001
0000
,
0100
0000
0010
0000
1000
0000
0001
1000
0001
0010
0000
0000
0100
0000
1000
0000
,
0010
0000
1000
0000
0100
0000
0010
0001
0010
0001
0000
0000
1000
0000
0100
0000
,
1000
0000
0010
0000
1000
0000
0001
0100
0010
1000
0000
0000
0001
0000
1000
0000
,
1001
0000
0001
0000
0010
0000
0001
0000
0001
0010
0000
0000
0001
0000
1000
0000
,
0001
0010
0000
0000
0100
0000
1000
0000
0010
1000
0000
0000
0100
0010
0000
0000
,
0001
0100
0000
0000
0001
0000
0000
0000
10M0
0000
0000
0000
1000
0000
0000
0000
,
1002
0000
0010
0023
0001
0000
0100
0000
,
0001
0000
0000
0000
0130
0000
0010
0000
0010
0000
0000
0001
0000
0000
1000
0000
,
0002
0000
0013
0000
1000
0010
0001
1000
,
0002
0000
1003
0010
0100
0001
1000
0001
,
0020
0000
0100
0230
0010
0000
1000
0000
,
0010
0000
0000
0000
1300
0000
0001
0000
0001
0000
0000
0100
0000
0000
0010
1000
,
0010
0100
0002
0000
0103
0010
1000
0001
,
1000
0010
0000
0000
1000
0000
0100
0000
0010
0000
0001
0000
1000
0000
0010
0000
,
0210
0000
0301
1000
0010
0100
0001
1000
,
0000
0100
0000
0000
0010
0000
0100
0000
0100
0000
0000
0010
0000
0000
0001
0000
,
1000
0010
1000
0100
1000
0001
0100
0010
,
0200
0000
0310
0001
1000
0001
0010
0001
,
2000
0000
3010
0100
0001
0010
0001
1000
,
0000
0010
0000
0000
1000
0000
0001
0000
0100
0000
0000
0010
0000
0000
1000
0000
,
0002
0000
0203
0000
0310
1000
0100
1000
,
0002
0000
0003
0000
,
2002
0000
0000
3003
;

//--------------- dance-single - XMOD FS XO ----------------
#NOTES:
     dance-single:
     XMOD FS XO:
     Hard:
     15:
     0,0,0,0,0:
0000
0000
0000
0000
,
0000
0000
0000
0000
,
0000
0000
0000
0000
1000
0000
0001
0100
00M0
0100
1000
0000
0001
0010
0M00
0010
,
1000
0000
0100
1000
0000
0100
1000
0000
0001
0000
0100
0010
0100
0001
1000
0001
,
0010
0100
1000
0100
0010
0000
0000
0000
0002
0000
0000
0000
1003
0010
1000
0010
,
0100
0000
0001
0000
1000
0000
0001
0000
0001
0000
0001
0000
1000
0010
1000
0010
,
0100
0000
0001
1000
0001
0000
1000
0100
00M0
0100
0001
0000
1000
0010
0M00
0010
,
0001
0000
1000
0010
0000
0100
0001
0000
1000
0010
1000
0100
0010
0001
0100
0001
,
1000
0000
0001
0000
0101
0000
0100
0000
0002
0000
1000
0000
0103
0010
0100
0000
,
0002
0000
0010
0000
1003
0000
0100
0000
1000
0000
0001
0000
0010
0001
0010
0000
,
0100
0000
1000
0000
0010
0000
1000
0001
0000
1000
0001
0010
0001
0010
0000
0100
,
1000
0000
0010
0100
0000
0001
0100
0000
0010
1000
0100
0010
0001
1000
0001
1000
,
0000
0100
0010
0000
0100
0001
0000
0100
1000
0000
0100
0000
0100
1000
0001
0000
,
2000
0000
0100
0000
3001
0000
0001
0000
0100
0000
0010
0000
0100
0001
0100
0000
,
0101
0000
0001
0000
1000
0100
1000
0000
0100
0000
0001
0000
0100
0000
1000
0010
,
0100
0001
1000
0000
0100
0020
0000
0000
0031
0000
1000
0000
0001
0100
0010
1000
,
0001
0010
0001
0000
0021
0000
0000
0000
0100
0000
0100
0000
0130
0000
1000
0001
,
1000
0000
0100
0000
1000
0002
0000
0000
0013
0000
0100
0000
1000
0000
0010
0100
,
0010
0001
0020
1000
1030
0100
0010
0010
,
0001
0000
0001
0000
1000
0010
0M00
0010
0001
0000
1000
0000
0001
0000
0010
0000
,
0200
0000
1000
0000
1300
0010
000M
0010
0100
0000
1000
0000
0002
0000
1000
0000
,
0103
0000
0001
0000
0001
0010
0M00
0010
1000
0000
0001
0000
0100
0000
0001
1000
,
0001
0000
0100
0000
0010
1000
0002
0000
0010
0000
1003
0000
0001
0000
1000
0000
,
0100
0000
0001
0000
0100
2000
0000
0000
3100
0000
0010
0000
0001
0000
1000
0010
,
1000
0010
0100
0000
1001
0000
1000
0000
0100
0000
0010
0000
1000
0000
0010
0000
,
0001
0000
0100
0000
0001
0010
0M00
0010
0100
0000
0001
0000
0001
0000
0100
0000
,
0001
0010
0100
1000
0001
0010
0001
0000
0100
0000
0100
0000
0001
0000
0100
0000
,
1000
0000
0100
0000
0001
0010
0M00
0010
1000
0000
0010
0000
1000
0000
1000
0100
,
0010
0100
0010
0001
1000
0100
1000
0000
1001
0000
0001
0000
0100
0000
0010
0100
,
0001
0000
0010
0000
0100
1000
0100
0010
0001
0000
0010
0000
0010
0000
0001
0100
,
00M0
0100
0000
1000
0002
0000
0100
0000
2003
0000
0010
0000
3001
0000
1000
0000
,
0001
0000
0010
0000
0001
1000
0000
0000
0002
0000
0000
0000
0013
0100
0010
0100
,
1000
0001
1000
0100
20M0
0000
0000
0000
3001
0000
0010
0200
0000
0000
1300
0000
,
0010
0000
0100
0000
0002
0000
0000
0000
1003
0000
0001
0010
0200
0000
0000
0000
,
2300
0000
0000
0000
3020
0000
0000
0000
2030
0000
3001
0020
0000
0000
0130
0000
,
1000
0000
0001
0000
0200
0000
0000
0000
0310
0000
0000
0000
2000
0002
0000
0000
,
0000
0000
0000
0000
3003
0000
0000
0000
0001
0000
1000
0200
0000
0000
0310
0000
,
0001
0000
0000
0000
0100
0000
0000
0000
0020
0000
0000
0000
0000
0000
0000
0000
1030
0000
0001
0000
1000
0000
0020
0000
0000
0000
1030
0000
0000
0001
0000
0000
,
0100
0000
0000
0010
0000
0000
1000
0000
0001
0000
0000
0000
0000
0000
0000
0000
0020
0000
0000
0000
0031
0000
0200
0000
0000
0000
0000
0000
0301
0000
0000
0000
,
1000
0000
0001
0000
0200
0000
0000
0000
0000
0000
0300
0010
2000
0000
0000
0000
,
3000
0000
0000
0000
1M00
0001
0000
0000
1000
0000
0100
0000
0010
0000
0001
0000
,
1000
0000
0100
100M
0000
0000
0000
0000
0001
1000
0000
0000
0001
0000
0010
0000
,
0100
0000
1000
0000
0100
0000
1000
00M1
0000
1000
0000
0000
0100
0000
0010
0000
,
0001
0000
1000
0000
0100
0000
1000
0100
1000
0001
0000
0000
1000
0000
0100
0000
,
0001
0000
0100
0000
1000
0000
0001
0010
0M00
0010
0000
0000
1000
0000
0100
0000
,
0001
0000
0100
0000
1000
0000
0001
0100
0001
0010
0100
0000
1000
0000
0001
0000
,
1000
0000
0100
0000
0001
0000
0100
1000
0100
0010
0000
0001
0100
0000
0010
0000
,
1000
0000
0100
0000
0010
0000
0001
1000
0001
0010
0000
0000
0100
0000
1000
0000
,
1100
0000
0100
0000
0010
0000
0001
1000
0100
0010
0000
0001
1000
0010
0100
0001
,
1000
0100
0010
0001
0100
0010
1000
0001
1000
0100
1000
0010
0100
0001
0010
0001
,
1000
0100
0010
0001
1000
0010
1000
0001
1M00
0000
0000
0000
1001
0000
0000
0000
,
1001
0000
1000
0000
0100
0000
0020
0000
0001
0000
0001
0000
0100
0000
0130
1000
,
0001
0100
00M0
0100
1000
0001
1000
0000
0001
0000
0100
0010
0100
0001
0010
0100
,
1000
0010
0200
0000
0001
0000
0310
0000
1000
0000
0100
0000
1000
0001
1000
0100
,
00M0
0100
0000
0001
1000
0001
1000
0000
0100
0000
0001
0000
0200
0000
0010
0000
,
1300
0001
0100
0000
0010
0000
2000
0000
0010
0000
3001
0000
1000
0001
1000
0010
,
0M00
0010
0000
0001
1000
0100
1000
0000
0001
0000
0010
0100
1000
0010
0100
0001
,
0100
0010
2000
0000
0001
0000
3010
0000
1000
0000
0100
0000
0100
0000
1000
0010
,
0M00
0010
0000
0001
1000
0010
1000
0000
0001
0000
1000
0000
0001
0010
0100
1000
,
0001
0100
00M0
0100
1000
0000
0100
0000
0001
0000
0100
0000
1000
0000
0001
0010
,
0M00
0010
0000
1000
0001
0000
1000
0000
1000
0000
0100
0010
0100
0010
0001
0100
,
0001
0010
0M00
0010
1000
0000
0001
0000
1000
0000
0010
0000
0100
0001
1000
0010
,
0M00
0010
0000
0100
1000
0000
0001
0000
0100
0000
0100
0000
1000
0000
0100
0001
,
1000
0100
00M0
0100
0001
0000
1000
0000
0001
0000
0001
0000
1000
0100
1000
0010
,
0M00
0010
0000
0001
1000
0000
0001
0000
0100
0000
1000
0000
0100
0010
1000
0001
,
1000
0100
0010
0001
0100
0000
0010
1000
0001
0000
1000
0000
0001
0010
0100
1000
,
0000
0001
0000
0000
0202
0000
0000
0000
0000
0000
0000
0000
0303
0000
0000
0000
,
2002
0000
0000
0000
,
3003
0000
0000
0000
;

//--------------- dance-double - ----------------
#NOTES:
     dance-double:
     :
     Hard:
     13:
     0,0,0,0,0:
00000000
00000000
00000000
00000000
,
00000000
00000000
00000000
00000000
,
00000000
00000000
00000000
00000000
00100000
00000000
00000000
00001000
00000000
00000000
00010000
00000000
00000000
00000010
00000000
00000000
,
00000100
00000000
00000000
00000001
00000000
00000000
00000100
00000000
00000001
00000000
00001000
00000000
00000010
00000000
00000100
00000000
,
00000001
00001000
00000100
00000000
00000010
00000000
00000100
00000000
,
00010000
00002000
00000000
01003000
00100000
01000000
00000000
00100000
,
10000000
00000000
00100000
00000000
10000000
00000000
00000000
01000000
00000000
00000000
00100000
00000000
00000000
00010000
00000000
00000000
,
00100000
00000000
00000000
01000000
00000000
00000000
10000000
00000000
00000000
00010000
00000000
00000000
01000000
00000000
00001000
00000000
,
00010000
00001000
00011000
00000000
00010000
00000100
00001000
00000100
,
00000010
00001000
00000010
00000001
00001000
00000100
00000000
00010000
,
00001000
00000000
00010000
00000000
00001000
00000000
00000000
01000000
00000000
00000000
00100000
00000000
00000000
01000000
00000000
00000000
,
00010000
00000000
00000000
10000000
00000000
00000000
01000000
00000000
00000000
00100000
00000000
00000000
00010000
00000000
10000000
00000000
,
00100000
01000000
00010000
00000000
00100000
00000000
00001000
00000000
,
00010000
00002000
00010000
00000000
00013000
00000000
00000100
00001000
,
00000010
00000000
00001000
00000000
00000100
00000000
00000010
00000000
00000001
00000000
00001000
00000000
00000010
00000000
00000000
00001000
,
00000000
00000000
00000001
00000000
00000100
00000010
00000000
00000000
00001000
00000000
00000001
00000000
00001000
00000010
00001000
00000010
,
00001000
00000000
00001001
00000001
00000100
00001000
00010000
00100000
,
10000000
00000000
00100000
00000000
01000000
00000000
00010000
00000000
10000000
00000000
01000000
00000000
10000000
00000000
00000000
00010000
,
00000000
01000000
00100000
10000000
01000000
10000000
00010000
01000000
,
00100000
00000000
10000000
00000000
00010000
01000000
00000000
00000000
00010000
00000000
01000000
00000000
00010000
00000000
00100000
00000000
,
00002000
00000000
00013000
00000100
00001000
00000010
00000100
00000001
,
00000010
00000000
00001000
00000000
00010000
00000000
00001000
00000000
00100000
00000000
00001000
00000000
01000000
00000000
00000000
00100000
,
00000000
10000000
00020000
00000000
01000000
00000000
10030000
00100000
,
01000000
00000000
00010000
00000000
10000000
00100000
00000000
00000000
10000000
00000000
01000000
00000000
00100000
00000000
00000000
00001000
,
00000000
00010000
00011000
00001000
00010000
00000010
00000100
00000010
,
00001000
00000000
00000001
00000000
00001000
00000010
00000000
00000000
00001000
00000000
00000100
00000000
00001000
00000000
00000000
00000100
,
00000000
00000010
00000100
00000000
00000001
00000100
00001000
00000100
,
00010000
00000000
00001000
00000000
00100000
00010000
00000000
00000000
01000000
00000000
00100000
00000000
10000000
00000000
00000000
01000000
,
00000000
00000000
00010000
00000000
01000000
00000000
00000000
00000000
00100000
00000000
00010000
00000000
01000000
00000000
00000000
00001000
,
00000000
00000000
00010000
00000000
00000100
00001000
00000000
00000000
00000010
00000000
00001000
00000000
00000001
00000000
00000000
00000100
,
00000000
00000010
00002000
00000000
00003001
00000000
00010000
00001000
,
00010000
00000000
00001000
00000000
01000000
00000000
00000000
00000000
00001000
00000000
00000000
00000000
01000000
00100000
01000000
00100000
,
10000000
00010000
00100000
00010000
1000M000
00000000
00000000
00000000
00010000
00000000
01000000
00200000
00000000
00000000
10300000
00000000
,
00010000
00000000
00100000
00000000
00002000
00000000
00000000
00000000
00013000
00000000
00000100
00001000
00000000
00000001
00000000
00000000
,
00001000
00000000
00000000
00000000
00000002
00000000
00000000
00000000
00001003
00000000
00000010
00000200
00000000
00000000
00000301
00000000
,
00000010
00000100
00002000
00000000
00003000
00000000
00020000
00000000
,
00130000
00000000
00000000
00000000
01000000
00000000
00000000
00000000
00100000
00000000
00010000
02000000
00000000
00000000
03010000
00000000
,
10000000
00000000
00100000
00000000
20000000
00000000
00000000
30000000
00000000
00010000
01000000
00100000
00000000
00000000
00000000
00000000
,
01000000
00000000
00000000
00000000
00001000
00000000
00000000
00000000
00010000
00000000
00000010
00000200
00000000
00000000
00000310
00000000
,
00001000
00000000
00000001
00000000
00000020
00000000
00000000
00000000
00000000
00000000
00000000
00000031
00000200
00000000
00000000
00000000
,
00000000
00000300
0000M110
00000000
00000010
00010000
00001000
01000000
,
00010000
00000000
10000000
01M00000
00000000
00000000
00000000
00000000
10010000
00000000
00000000
00000000
10000000
00000000
00100000
00000000
,
00010000
00000000
00001000
00000000
00010000
00000000
00000010
0000M100
00000000
00000000
00000000
00000000
00000000
00000000
00000000
00000000
,
00000001
00000000
00001000
00000000
00000010
00000000
00010000
00001000
00010000
00001000
00000000
00000000
10000000
00000000
01000000
00000000
,
00100000
00000000
00010000
00000000
10000000
00100000
10000000
00100000
00000000
01000000
00000000
00000000
00001000
00000000
00010000
00000000
,
00000010
00000000
00001000
00000000
00000001
00000010
00000100
00000010
00000001
00000010
00000000
00000000
00000100
00000000
00010000
00000000
,
00001000
00000000
01000000
00000000
00100000
10000000
00100000
10000000
00100000
01000000
00000000
00000000
00010000
00000000
00100000
00000000
,
01000000
00000000
10000000
00000000
00010000
00000000
00100000
00001000
00100000
00001000
00000000
00000000
00010000
00000000
00000010
00000000
,
00001010
00001000
00000001
00000100
00000110
00000010
00001000
00000100
,
00001100
00001000
00000100
00010000
00011000
00001000
01000000
00100000
,
10000000
00010000
10000000
00010000
01000000
00100000
01000000
00010000
0100M000
00000000
00000000
00000000
00010000
00000000
00000000
00000000
,
10010000
00000000
00000000
00000000
10000000
00000000
01000000
00000000
00010000
00000000
00001000
00000000
00010000
00000000
00000100
00001000
,
00000000
00000100
00000000
00000000
00001000
00000000
00000001
00000000
00001000
00000000
00000000
00000010
00000000
00000000
00000100
00000000
,
00000002
00000000
00000000
00000000
00001000
00000000
00000000
00000000
00000103
00000000
00000010
00000000
00010000
00000000
00001000
00010000
,
00000000
00000100
00000000
00000000
01000000
00000000
00010000
00000000
10000000
00000000
01000000
00000000
00100000
00000000
00010000
00000000
,
20000000
00000000
00000000
00000000
30010000
00000000
00100000
00000000
01000000
00000000
00100000
00000000
00010000
00000000
00100000
00001000
,
00000000
00100000
00000000
00000000
00001000
00000000
00010000
00000000
00000010
00000000
00000100
00000000
00000010
00000000
00001000
00000000
,
00000020
00000000
00000100
00000000
00001030
00000100
00001000
00000100
,
00001000
00000010
00000000
00000000
00000100
00000000
00000001
00000000
00000100
00000000
00001000
00000000
00010000
00000000
00100000
00000000
,
10000000
00000000
00010000
00000000
01000000
00000000
00100000
00000000
10000000
00000000
01000000
00000000
00010000
00000000
01000000
00100000
,
00000000
00001000
00000000
00000000
00010000
00000000
00000010
00000000
00000100
00000000
00000010
00000000
00010000
00000000
00000100
00010000
,
00000200
00000000
00000000
00000000
00010300
00000000
00001000
00000000
00100000
00000000
00010000
00000000
01000000
00000000
00100000
10000000
,
00000000
00010000
00000000
00000000
10000000
00000000
01000000
00000000
00100000
00000000
00010000
00000000
00001000
00000000
00000100
00000000
,
00000020
00000000
00000000
00000000
00001030
00000000
00000001
00000000
00000100
00000000
00001000
00000000
00000100
00000000
00010000
00001000
,
00000000
00010000
00000000
00000000
00000100
00000000
01000000
00000000
00010000
00000000
10000000
00000000
01000000
00000000
00100000
00000000
,
00020000
00000000
20030000
00000000
30001000
00010000
00001000
00010000
,
00000100
00001000
00000002
00000003
,
00022000
00000000
00000000
00033000
;
