#VERSION:0.83;
#TITLE:Mein Land;
#SUBTITLE:(Karl mit K Neue Deutsche Scheißpost Mashup Remix);
#ARTIST:Rammstein;
#TITLETRANSLIT:;
#SUBTITLETRANSLIT:;
#ARTISTTRANSLIT:;
#GENRE:;
#ORIGIN:;
#CREDIT:;
#BANNER:Mein Land (Karl mit K Neue Deutsche Scheißpost Mashup Remix) banner.png;
#BACKGROUND:Mein Land (Karl mit K Neue Deutsche Scheißpost Mashup Remix) bg.png;
#PREVIEWVID:;
#JACKET:Mein Land (Karl mit K Neue Deutsche Scheißpost Mashup Remix) jk.png;
#CDIMAGE:;
#DISCIMAGE:;
#LYRICSPATH:;
#CDTITLE:;
#MUSIC:Mein Land (Karl mit K Neue Deutsche Scheißpost Mashup Remix).ogg;
#OFFSET:-0.025000;
#SAMPLESTART:106.075005;
#SAMPLELENGTH:15.000000;
#SELECTABLE:YES;
#BPMS:0.000=200.000,
104.000=100.000,
112.000=200.000,
234.500=100.000,
235.000=200.000;
#STOPS:;
#DELAYS:;
#WARPS:;
#TIMESIGNATURES:0.000=4=4;
#TICKCOUNTS:0.000=4;
#COMBOS:0.000=1;
#SPEEDS:0.000=1.000=0.000=0;
#SCROLLS:0.000=1.000,
234.500=2.000,
235.000=1.000,
236.000=0.250,
267.000=1.000,
268.500=0.250,
283.000=1.000,
284.500=0.250,
298.000=1.000;
#FAKES:;
#LABELS:0.000=Song Start;
#BGCHANGES:;
#KEYSOUNDS:;
#ATTACKS:
;

//---------------dance-single - XO FS- JA- XMOD RH- JU Mines-----------------
#NOTEDATA:;
#CHARTNAME:;
#STEPSTYPE:dance-single;
#DESCRIPTION:XO FS- JA- XMOD RH- JU Mines-;
#CHARTSTYLE:;
#DIFFICULTY:Challenge;
#METER:17;
#RADARVALUES:0.768676,1.322793,0.346678,0.144449,0.509183,745.000000,697.000000,48.000000,20.000000,14.000000,0.000000,0.000000,0.000000,0.000000,0.768676,1.322793,0.346678,0.144449,0.509183,745.000000,697.000000,48.000000,20.000000,14.000000,0.000000,0.000000,0.000000,0.000000;
#CREDIT:Karl mit K;
#NOTES:
0000
0000
0000
0000
,
0000
0000
0000
0000
,
0000
0000
0000
0000
,
0000
0000
0000
0000
,
0000
0000
0000
0000
,
0000
0000
0000
0000
,
0000
0000
0000
0000
,
0000
0000
0000
0000
,
0000
0000
0000
0000
,
0000
0000
0000
0000
,
1000
0000
0000
0000
1000
0000
0000
0000
0010
0000
0000
0100
0000
0000
0100
0000
,
0001
0000
0000
0000
0001
0000
0000
0000
0010
0000
0000
0100
0000
0000
0100
0000
,
1000
0000
0000
0000
0010
0000
0000
0000
0100
0000
0000
0010
0000
0000
0010
0000
,
1000
0000
0100
0000
0010
0001
0001
1000
,
0001
1000
0100
1000
0100
1000
0100
1000
,
0010
0100
0001
0100
0001
0100
0001
0100
,
0001
1000
0001
0000
1000
0001
1000
0000
0010
1000
0010
0000
1000
0001
0010
0000
,
0002
0000
0000
0000
0203
0000
0000
0000
0320
0000
0000
2030
0000
0000
3001
0000
,
1001
0000
0000
0000
1000
0000
0000
0000
1100
0000
0000
0100
0010
0000
0001
0000
,
1001
0000
0000
0000
1000
0000
0000
0000
1010
0000
0000
0010
0100
0000
0001
0000
,
0011
0000
0000
0000
0001
0000
0000
0000
0011
0000
0000
0001
0100
0000
0010
0000
,
1010
0000
0000
0000
1000
0000
0000
0000
1010
0000
0000
1000
0100
0000
0010
0000
,
0110
0000
0000
0000
0011
0000
0000
0000
1010
0000
0000
0010
0100
0000
0010
0000
,
0110
0000
0000
0000
1010
0000
0000
0000
0011
0000
0000
0010
0100
0000
0010
0000
,
1001
0000
0000
0000
0110
0000
0000
0000
1001
0000
0000
1000
0010
0000
0100
0000
,
0010
0000
0010
0000
1000
0000
1000
0000
0100
1000
0100
0010
0001
1000
0100
0010
,
0002
0000
0000
0000
,
2003
0000
0000
0000
3020
0000
0200
0330
,
1001
0110
1010
0101
,
0001
1000
0100
1000
0001
0000
0010
0000
0100
0000
0010
0000
0100
0000
1000
0000
,
0010
0100
0001
0100
0010
0100
0001
0010
,
0100
0000
0000
0000
1000
0000
0000
0000
0010
0000
0000
0000
0100
0000
0000
0000
0001
0000
0000
0000
0100
0000
0000
0000
0010
0000
0000
0000
0000
0000
0100
0000
0000
0010
0000
0000
0100
0000
0000
0010
0000
0000
1000
0000
0000
0001
0000
0000
,
1000
0001
1000
0000
0000
0000
1001
0000
0000
0000
0101
0000
0100
0000
0001
0000
,
0010
0100
0010
0001
0010
0100
0010
0001
,
0100
0000
0010
0000
0100
0000
0001
0100
0001
0100
0010
0000
1000
0000
0100
1000
,
0100
1000
0100
0000
0010
0000
0001
0100
0001
0000
1000
0100
0010
0000
0100
0000
,
0010
0001
0000
0010
0000
0001
0000
0100
,
0010
0000
0100
0001
1000
0001
1000
0010
,
0100
0001
0000
0010
0000
1000
0000
0010
,
0001
0001
1000
0010
1000
0010
0100
0100
,
0010
0000
1000
0000
0000
0000
0100
0000
0000
0000
1000
0001
1000
0001
1000
0000
,
0000
0001
0100
0000
0100
2000
0000
3200
,
0000
0000
0301
0000
1000
0000
0100
0000
0010
0000
1000
0010
1000
0000
0010
0000
,
0001
0100
0010
0100
0001
0010
0011
0001
,
1000
0010
1010
0000
1000
0100
1100
1000
,
0001
0000
0100
0001
0100
0000
0001
0000
0010
0000
0000
0000
0110
0000
0100
0000
,
1000
0000
1010
0010
0100
0000
0101
0001
,
0010
0001
0010
0100
1000
0001
0100
0000
0010
0000
1010
0000
1000
0000
0001
0000
,
0010
0011
0000
0001
0100
0101
0001
1000
,
0100
1000
0100
0000
1000
0010
0100
0000
0000
0100
0010
0000
0100
0001
0010
0100
,
0000
0010
0001
0000
0010
0000
0100
0010
0100
0010
0100
0000
1000
0000
0010
1000
,
0010
0000
0000
0100
0000
0000
0001
0000
0000
1000
0000
0000
0001
0000
0000
0000
0010
0000
0000
0000
0100
0000
0000
0000
1000
0000
0000
0000
0000
0000
0010
0000
0000
0000
0000
0000
1000
0000
0000
0000
0100
0000
0000
0000
0010
0000
0000
0000
,
0001
0100
010M
1000
0010
M010
0001
0000
,
MMMM
0000
0000
0000
0000
0000
1000
0000
0010
0000
0100
0000
0001
0000
0000
0010
0000
0000
0001
0000
0100
0000
0010
0000
,
1000
0100
M100
0001
0010
001M
1000
0100
,
0010
0011
0000
0001
0100
1000
0100
0001
,
1000
1001
0000
1000
0100
0001
0100
1000
,
0001
0000
1000
0010
0100
0010
1000
0001
1000
0001
0010
0100
0010
0001
1000
0010
,
0100
0001
1000
0000
1010
0000
0000
0000
M010
0000
0011
0000
0001
0000
0100
0000
,
0002
0000
0000
0000
,
0000
0000
0000
0000
,
0023
0000
0000
0000
,
0000
0000
0000
0000
,
0230
0000
0000
0000
,
0000
0000
0000
0000
,
2300
0000
0000
0000
,
0000
0000
0000
0000
0000
0000
0000
0000
0000
0000
0000
0000
3M01
0010
0000
0010
,
0001
2000
0000
0000
0000
0000
0000
0000
,
0000
0000
0000
3020
,
0000
0000
0000
0000
,
0000
0000
0000
0000
0000
0000
0000
0000
0030
0000
0000
0000
001M
1000
0000
1000
,
0010
0200
0000
0000
0000
0000
0000
0000
,
0000
0000
0000
0302
,
0000
0000
0000
0000
,
0000
0000
0000
0000
0000
0000
0000
0000
1M03
0010
0000
0010
1000
0000
0100
0000
,
0010
0001
0100
0000
0001
0000
0001
0000
,
1000
1000
0001
0001
,
0100
0100
0010
0010
,
1000
0000
0000
0000
1000
0000
0000
0000
0001
0010
0000
0010
0001
0000
0100
0000
,
0010
1000
0100
0000
1000
0000
1000
0000
,
0001
0001
1000
1000
,
0100
0100
0010
0010
,
0001
1000
0001
0000
0001
0000
0010
0100
,
1000
0100
1000
0000
1000
0000
0010
0100
,
0001
0100
0001
0000
0011
0000
0010
0010
,
0100
0000
0000
0000
0010
0100
0010
0001
1000
0010
0100
0010
1000
0001
0010
0100
,
1000
0010
0100
0001
1000
0000
0010
0000
0100
0000
0001
0010
0000
0001
0010
0000
,
0100
0000
1000
0000
0010
0000
0100
0000
0010
0000
1000
0100
0010
0001
1000
0000
,
0100
0000
1000
0000
0001
0000
0010
0000
0100
0000
1000
0010
0000
1000
0010
0000
,
0100
0000
0001
0000
0010
0000
1000
0000
0010
0000
0001
1000
0000
0010
0100
0000
,
1000
0000
0100
0000
0001
0000
0010
0000
0100
0000
1000
0010
0000
1000
0010
0000
,
0100
0000
0001
0000
0010
0000
0100
0000
0010
0000
0001
0100
0010
1000
0001
0000
,
0100
0000
0001
0000
1000
0000
0010
0000
0100
0000
0010
1000
0000
0001
0010
0000
,
0001
0000
1000
0000
0010
0000
0001
0000
0010
0000
1000
0001
0000
1000
0100
0000
,
0110
0000
0000
0000
0001
0000
0100
0000
0010
0000
1000
0100
0000
1000
0100
0000
,
0010
0000
0001
0000
0100
0000
0010
0000
0100
0000
0001
0010
0100
1000
0001
0000
,
0010
0000
0001
0000
1000
0000
0100
0000
0010
0000
0001
0100
0000
0001
0100
0000
,
0010
0000
1000
0000
0100
0000
0001
0000
0100
0000
1000
0001
0000
0100
0010
0000
,
0001
0000
0010
0000
1000
0000
0100
0000
0010
0000
0001
0100
0000
0001
0100
0000
,
0010
0000
1000
0000
0100
0000
0010
0000
0100
0000
1000
0010
0100
0001
1000
0000
,
0010
0000
1000
0000
0001
0000
0100
0000
0010
0000
0100
1000
0000
0100
0010
0000
,
1000
0000
0001
0000
0010
0000
1000
0000
0010
0000
0001
1000
0000
0001
0010
0000
,
0110
0000
0011
0001
0100
0010
1010
1000
,
0100
0010
0110
0100
0010
0010
1001
1000
,
0010
1000
1100
1000
0010
0100
0101
0001
,
0100
0010
0110
0100
0010
0010
1001
0001
,
0100
0000
0001
0000
1000
0010
1000
0010
1000
0010
1000
0001
0010
0001
0010
0001
,
0010
0001
0010
0100
1000
0000
0010
0000
M010
0000
0001
0000
0001
0000
0010
0000
,
001M
0000
1000
0000
0001
0100
0001
0100
0001
0100
0001
1000
0100
1000
0100
1000
,
0100
1000
0100
0010
0001
0100
0010
1000
0001
0010
0100
1000
0001
1000
0010
0100
,
0001
0010
0100
1000
0010
0000
0000
0000
0220
0000
0000
0000
0000
0000
0000
0000
,
0330
0000
0000
0000
;

//---------------dance-single - XO DS- JA- XMOD JU----------------
#NOTEDATA:;
#CHARTNAME:;
#STEPSTYPE:dance-single;
#DESCRIPTION:XO DS- JA- XMOD JU;
#CHARTSTYLE:;
#DIFFICULTY:Hard;
#METER:14;
#RADARVALUES:0.503509,0.721524,0.288898,0.151672,0.075836,488.000000,448.000000,40.000000,21.000000,3.000000,0.000000,0.000000,0.000000,0.000000,0.503509,0.721524,0.288898,0.151672,0.075836,488.000000,448.000000,40.000000,21.000000,3.000000,0.000000,0.000000,0.000000,0.000000;
#CREDIT:Karl mit K und Hommagen an Z-I-v Step Team and BEMANI Step Team;
#NOTES:
0000
0000
0000
0000
,
0000
0000
0000
0000
,
0000
0000
0000
0000
,
0000
0000
0000
0000
,
0000
0000
0000
0000
,
0000
0000
0000
0000
,
0000
0000
0000
0000
,
0000
0000
0000
0000
,
0000
0000
0000
0000
,
0000
0000
0000
0000
,
1000
0010
1000
0000
,
0001
0010
0001
0000
,
1000
0100
1000
0000
,
0001
0100
0001
0000
,
0010
0000
0000
0000
0001
0000
0000
0000
0100
0000
0000
0100
0000
0000
0000
0000
,
0010
0000
0000
0000
1000
0000
0000
0000
0100
0000
0000
0010
0000
0000
0000
0000
,
0100
0000
0000
0000
1000
0000
0000
0000
0010
0000
0000
0010
0000
0000
0000
0000
,
0100
0000
0000
0000
0001
0000
0000
0000
0010
0000
0000
0100
0000
0000
0000
0000
,
1000
0000
0000
0000
1000
0000
0000
0000
1000
0000
0000
0100
0000
0000
0010
0000
,
0001
0000
0000
0000
0001
0000
0000
0000
0001
0000
0000
0100
0000
0000
0010
0000
,
1000
0000
0000
0000
1000
0000
0000
0000
1000
0000
0000
0010
0000
0000
0100
0000
,
0001
0000
0000
0000
0001
0000
0000
0000
0001
0000
0000
0010
0000
0000
0100
0000
,
1000
0000
0000
0000
1000
0000
0000
0000
0010
0000
0000
1000
0010
0000
0000
0000
,
0100
0000
0000
0000
0100
0000
0000
0000
0001
0000
0000
0100
0001
0000
0000
0000
,
0010
0000
0000
0000
0010
0000
0000
0000
0100
0000
0000
0010
0100
0000
0000
0000
,
1000
0100
1000
0000
0001
0010
0001
1000
,
2002
0000
0000
0000
,
0000
0000
0000
3003
,
1001
0101
0110
1001
,
1000
0100
0001
0000
0110
0000
0100
1000
,
0001
1000
0010
0000
0110
0000
0100
1000
,
0100
0000
0010
0000
1000
0000
0001
0000
1000
0000
0100
0000
0010
0000
0000
0001
0000
0000
0100
0000
0000
0001
0000
0000
,
0010
0100
0000
1010
0000
0001
0100
1000
,
0100
0010
0000
1010
0000
1000
0100
0001
,
0100
0010
0000
0101
0100
0001
0010
1000
,
0010
0010
0100
1000
1000
0001
0001
0000
,
0100
0010
0000
0001
0000
0010
0000
1000
,
0100
0000
0000
0010
0001
0000
0010
0000
,
0010
0001
0000
1000
0000
0010
0000
0001
,
0010
0000
0000
0100
0001
1000
0100
0010
,
0100
0000
0000
0010
0000
0100
1000
0100
,
0000
0000
0011
0000
0000
1002
0000
0000
,
0000
0003
0100
0010
1000
0001
0001
0100
,
0010
1000
1000
0100
1000
0001
0100
0001
,
1000
1000
0010
0010
0100
0100
0001
0010
,
0001
0010
0001
0000
0020
0000
0130
1000
,
0020
0000
0130
0001
0010
0000
1100
0000
,
0110
0000
0100
0010
0001
1000
0100
1000
,
0010
1000
0100
0010
0000
0001
0100
0010
,
0000
0000
0010
0000
0100
0000
1000
0000
0000
1000
0000
0000
0100
0000
0001
0000
,
0000
0001
0000
0000
0100
0000
0001
0000
0010
0000
1000
0000
0010
0000
0001
0000
,
1000
0001
1000
0001
0010
0001
0010
0010
,
0001
0000
0100
0010
0000
0001
0010
0000
,
1000
0000
0001
1000
0100
1000
0100
0100
,
1000
0000
0010
0100
0000
1000
0100
0000
,
0001
1000
0000
0110
0000
1001
0000
0001
,
0000
0100
1000
0000
0100
0001
0000
0010
,
0000
0010
0001
0010
0001
1000
0010
1000
,
0000
0001
0010
0000
0010
0001
0100
0001
,
2000
0000
0000
0000
,
0000
0000
0000
0000
,
3020
0000
0000
0000
,
0000
0000
0000
0000
,
0230
0000
0000
0000
,
0000
0000
0000
0000
,
0302
0000
0000
0000
,
0000
0000
0000
0000
0000
0000
0000
0000
0000
0000
0000
0000
10M3
0000
0000
1000
,
0001
0200
0000
0000
0000
0000
0000
0000
,
0000
0000
0000
0010
,
0000
0000
0000
0000
,
0000
0000
0000
0000
0000
0000
0000
0000
0000
0000
0000
0000
M301
0000
0000
0001
,
1000
0200
0000
0000
0000
0000
0000
0000
,
0000
0000
0000
0010
,
0000
0000
0000
0000
,
0000
0000
0000
0000
0000
0000
0000
0000
130M
0000
0000
0001
0000
0000
0010
0000
,
0100
2000
0000
0000
0100
0000
0000
0000
,
0100
0000
0100
0000
,
0100
0000
0100
0000
,
0100
0000
0000
0000
0000
0000
0000
0000
3001
0000
0000
1000
0000
0000
0010
0000
,
0100
0002
0000
0000
0100
0000
0000
0000
,
0100
0000
0100
0000
,
0100
0000
0100
0000
,
0103
0010
1000
0000
0100
0000
0010
0000
,
0001
1000
0010
0100
,
0001
0000
1000
0100
0010
0000
0001
1000
,
0001
0200
0320
0032
,
0023
0000
1030
0000
1001
0000
1000
0100
,
0010
0000
0001
0000
1001
0000
0001
0100
,
0010
0000
1000
0000
1001
0000
1000
0010
,
0100
0000
0001
0010
0010
0000
0001
0010
,
0100
0000
1000
0000
0110
0000
1000
0100
,
0001
0000
0001
0100
1000
0000
0001
0100
,
0001
0000
0001
0100
1000
0100
0001
0000
,
1000
0000
1000
0100
0001
0000
0001
0100
,
1000
0000
0001
0000
1001
0000
0001
0010
,
0100
0000
1000
0000
1001
0000
1000
0010
,
0100
0000
0001
0000
1001
0000
0001
0100
,
0010
0000
1000
0100
0100
0000
1000
0100
,
0010
0000
0001
0000
0110
0000
0001
0010
,
1000
0000
1000
0010
0001
0000
1000
0010
,
1000
0000
1000
0010
0001
0010
1000
0000
,
0001
0000
0001
0010
1000
0000
1000
0010
,
0001
0100
0001
0000
0011
0000
0110
0000
,
1100
2010
3001
1100
,
1100
1000
1010
0110
,
0101
0012
1003
0101
,
0101
0000
1000
1000
1000
0100
0010
0010
,
0010
0001
1000
0010
0100
0000
0110
0000
,
1001
0000
0001
0001
0001
0100
0010
0010
,
0010
1000
0100
0010
0001
0100
0010
1000
,
0001
0110
0220
0000
,
0330
0000
0000
0000
;

//---------------dance-single - VZVAEVZV----------------
#NOTEDATA:;
#CHARTNAME:REIWA SPECIAL;
#STEPSTYPE:dance-single;
#DESCRIPTION:VZVAEVZV;
#CHARTSTYLE:;
#DIFFICULTY:Edit;
#METER:9999;
#RADARVALUES:0.935824,3.567534,0.274453,0.122782,1.097814,907.000000,869.000000,38.000000,17.000000,12.000000,0.000000,0.000000,0.000000,0.000000,0.935824,3.567534,0.274453,0.122782,1.097814,907.000000,869.000000,38.000000,17.000000,12.000000,0.000000,0.000000,0.000000,0.000000;
#CREDIT:;
#NOTES:
// measure 0
0000
0000
0000
0000
,  // measure 1
0000
0000
0000
0000
,  // measure 2
0000
0000
0000
0000
,  // measure 3
0000
0000
0000
0000
,  // measure 4
0000
0000
0000
0000
,  // measure 5
0000
0000
0000
0000
,  // measure 6
0000
0000
0000
0000
,  // measure 7
0000
0000
0000
0000
,  // measure 8
0000
0000
0000
0000
,  // measure 9
0000
0000
0000
0000
,  // measure 10
0001
0000
0000
0000
0001
0000
0000
0000
0100
0000
0000
0010
0000
0000
0010
0000
,  // measure 11
1000
0000
0000
0000
1000
0000
0000
0000
0100
0000
0000
0010
0000
0000
0010
0000
,  // measure 12
0001
0000
0000
0000
0100
0000
0000
0000
0010
0000
0000
0100
0000
0000
0100
0000
,  // measure 13
0001
0000
0010
0000
0100
1000
1000
0001
,  // measure 14
1000
0001
0010
0001
0010
0001
0010
0001
,  // measure 15
0100
0010
1000
0010
1000
0010
1000
0010
,  // measure 16
1000
0001
1000
0000
0001
1000
0001
0000
0100
0001
0100
0000
0001
1000
0100
0000
,  // measure 17
2000
0000
0000
0000
3020
0000
0000
0000
0230
0000
0000
0302
0000
0000
1003
0000
,  // measure 18
1001
0000
0000
0000
0001
0000
0000
0000
0011
0000
0000
0010
0100
0000
1000
0000
,  // measure 19
1001
0000
0000
0000
0001
0000
0000
0000
0101
0000
0000
0100
0010
0000
1000
0000
,  // measure 20
1100
0000
0000
0000
1000
0000
0000
0000
1100
0000
0000
1000
0010
0000
0100
0000
,  // measure 21
0101
0000
0000
0000
0001
0000
0000
0000
0101
0000
0000
0001
0010
0000
0100
0000
,  // measure 22
0110
0000
0000
0000
1100
0000
0000
0000
0101
0000
0000
0100
0010
0000
0100
0000
,  // measure 23
0110
0000
0000
0000
0101
0000
0000
0000
1100
0000
0000
0100
0010
0000
0100
0000
,  // measure 24
1001
0000
0000
0000
0110
0000
0000
0000
1001
0000
0000
0001
0100
0000
0010
0000
,  // measure 25
0100
0000
0100
0000
0001
0000
0001
0000
0010
0001
0010
0100
1000
0001
0010
0100
,  // measure 26
2000
0000
0000
0000
,  // measure 27
3001
0100
0010
1000
0010
0100
0001
0010
0100
1000
0100
0010
0200
0000
0000
0000
0000
0000
0020
0000
0000
0330
0000
0000
,  // measure 28
0001
0100
0010
1000
0100
0010
0001
0000
0000
0000
0000
0000
0101
0000
0000
0000
0000
0000
1010
0000
0000
0000
0000
0000
,  // measure 29
1000
0001
0010
0001
1000
0000
0100
0000
0010
0000
0100
0000
0010
0000
0001
0000
,  // measure 30
0100
0001
1000
0010
0100
0001
1000
0000
0000
0010
0000
0000
0100
0000
0000
0010
0000
0000
1000
0000
0000
0100
0000
0000
,  // measure 31
0010
0000
0000
0000
0001
0000
0000
0000
0100
0000
0000
0000
0010
0000
0000
0000
1000
0000
0000
0000
0010
0000
0000
0000
0100
0000
0000
0000
0000
0000
0010
0000
0000
0100
0000
0000
0010
0000
0000
0100
0000
0000
0001
0000
0000
1000
0000
0000
,  // measure 32
0001
1000
0001
0000
0000
0000
1001
0000
0000
0000
1010
0000
0010
0000
1000
0000
,  // measure 33
0100
0010
0100
1000
0100
0010
0100
1000
,  // measure 34
0010
0000
0100
0000
0010
0000
1000
0010
1000
0010
0100
0000
0001
0000
0010
0001
,  // measure 35
0010
0000
0000
0001
0000
0000
0010
0000
0000
0000
0000
0000
0100
0000
0000
0000
0000
0000
1000
0000
0000
0010
0000
0000
1000
0000
0000
0000
0000
0000
0001
0000
0000
0010
0000
0000
0100
0000
1000
0000
0001
0000
0010
0000
0001
0000
1000
0000
,  // measure 36
0100
1000
0000
0100
0000
1000
0000
0010
,  // measure 37
0100
0000
0000
0000
0000
0000
0010
0000
0000
1000
0000
0000
0001
0000
0000
1000
0000
0000
0001
0100
0010
0100
0001
1000
,  // measure 38
0010
1000
0000
0100
0000
0001
0000
0100
,  // measure 39
1000
1000
0001
0100
0001
0100
0010
0010
,  // measure 40
0100
0000
0001
0000
0000
0000
0010
0000
0000
0000
0001
1000
0001
1000
0001
0000
,  // measure 41
0000
1000
0010
0000
0010
0002
0000
0023
,  // measure 42
0000
0000
1030
0000
0001
0000
0010
0000
0100
0000
0001
0100
0001
0000
0100
0000
,  // measure 43
1000
0000
0000
0010
0000
0000
0100
0000
0000
0010
0000
0000
1000
0100
0010
0100
0010
0001
1000
0000
0000
1000
0000
0000
,  // measure 44
0001
0100
0101
0000
0001
0010
0011
0001
,  // measure 45
1000
0000
0010
1000
0010
0000
1000
0000
0100
0000
0000
0000
0110
0000
0010
0000
,  // measure 46
0001
0000
0101
0100
0010
0000
1010
1000
,  // measure 47
0100
1000
0100
0010
0001
1000
0010
0000
0100
0000
0101
0000
0001
0000
1000
0000
,  // measure 48
0100
1100
0000
1000
0010
1010
1000
0001
,  // measure 49
0010
0001
0010
0000
0001
0100
0010
0000
0000
0010
0100
0000
0010
1000
0100
0010
,  // measure 50
0000
0100
1000
0000
0100
0000
0010
0100
0010
0100
0010
0000
0001
0000
0100
0001
,  // measure 51
0100
0000
0000
0010
0000
0000
1000
0000
0000
0001
0000
0000
1000
0000
0001
0000
0100
0000
0001
0000
0010
0000
0000
0000
0001
0000
0000
0000
0000
0000
0100
0000
0000
0000
0000
0000
0001
0000
0000
0000
0010
0000
0000
0000
0100
0000
0000
0000
,  // measure 52
1000
0010
M010
0001
0100
010M
1000
0000
,  // measure 53
MMMM
0000
0000
0000
0000
0000
0001
0000
0100
0000
0010
0000
1000
0000
0000
0100
0000
0000
1000
0000
0010
0000
0100
0000
,  // measure 54
0001
0010
001M
1000
0100
M100
0001
0010
,  // measure 55
0100
1100
0000
1000
0010
0001
0010
1000
,  // measure 56
0001
1001
0000
0001
0010
1000
0010
0001
,  // measure 57
1000
0000
0001
0100
0010
0100
0001
1000
0001
1000
0100
0010
0100
1000
0001
0100
,  // measure 58
0010
1000
0001
0000
0101
0000
0000
0000
010M
0000
1100
0000
1000
0000
0010
0000
,  // measure 59
2000
0000
0000
0000
,  // measure 60
0000
0000
0000
0000
,  // measure 61
3200
0000
0000
0000
,  // measure 62
0000
0000
0000
0000
,  // measure 63
0320
0000
0000
0000
,  // measure 64
0000
0000
0000
0000
,  // measure 65
0032
0000
0000
0000
,  // measure 66
0000
0000
0000
0000
0000
0000
0000
0000
0000
0000
0000
0000
10M3
0100
0000
0100
,  // measure 67
1000
0002
0000
0000
0000
0000
0000
0000
,  // measure 68
0000
0000
0000
0203
,  // measure 69
0000
0000
0000
0000
,  // measure 70
0000
0000
0000
0000
0000
0000
0000
0000
0300
0000
0000
0000
M100
0001
0000
0001
,  // measure 71
0100
0020
0000
0000
0000
0000
0000
0000
,  // measure 72
0000
0000
0000
2030
,  // measure 73
0000
0000
0000
0000
,  // measure 74
0000
0000
0000
0000
0000
0000
0000
0000
30M1
0100
0000
0100
0001
0000
0010
0000
,  // measure 75
0100
1000
0010
0000
1000
0000
1000
0000
,  // measure 76
0001
0001
1000
1000
,  // measure 77
0010
0010
0100
0100
,  // measure 78
0001
0000
0000
0000
0001
0000
0000
0000
1000
0100
0000
0100
1000
0000
0010
0000
,  // measure 79
0100
0001
0010
0000
0001
0000
0001
0000
,  // measure 80
1000
1000
0001
0001
,  // measure 81
0010
0010
0100
0100
,  // measure 82
1000
0001
1000
0000
1000
0000
0100
0010
,  // measure 83
0001
0010
0001
0000
0001
0000
0100
0010
,  // measure 84
1000
0010
1000
0000
1100
0000
0100
0100
,  // measure 85
0010
0000
0000
0000
0100
0010
0100
1000
0001
0100
0010
0100
0001
1000
0100
0010
,  // measure 86
0001
0000
0000
0100
0000
0000
0010
0000
0000
1000
0000
0000
0001
0000
0010
0000
0001
0000
0100
0000
1000
0000
0100
0000
0010
0000
0000
0000
0000
0000
1000
0000
0000
0100
0000
0000
0000
0000
0000
1000
0000
0000
0100
0000
0000
0000
0000
0000
,  // measure 87
0010
0000
0001
0000
0100
0000
0010
0000
0100
0000
0001
0010
0100
1000
0001
0000
,  // measure 88
0010
0000
0000
0000
0000
0000
0001
0000
0000
0000
0000
0000
1000
0000
0010
0000
1000
0000
0100
0000
0001
0000
0100
0000
0010
0000
0000
0000
0000
0000
0001
0000
0000
0100
0000
0000
0000
0000
0000
0001
0000
0000
0100
0000
0000
0000
0000
0000
,  // measure 89
0010
0000
1000
0000
0100
0000
0001
0000
0100
0000
1000
0001
0000
0100
0010
0000
,  // measure 90
0001
0000
0010
0000
1000
0000
0100
0000
0010
0000
0001
0100
0000
0001
0100
0000
,  // measure 91
0010
0000
0000
0000
0000
0000
1000
0000
0000
0000
0000
0000
0100
0000
0010
0000
0001
0000
0010
0000
1000
0000
0001
0000
0100
0000
0000
0000
0000
0000
1000
0000
0000
0010
0000
0000
0100
0000
0000
0001
0000
0000
1000
0000
0000
0000
0000
0000
,  // measure 92
0010
0000
1000
0000
0001
0000
0100
0000
0010
0000
0100
0001
0000
1000
0100
0000
,  // measure 93
1000
0000
0001
0000
0100
0000
1000
0000
0100
0000
0001
1000
0000
0001
0010
0000
,  // measure 94
0110
0000
0000
0000
0000
0000
0000
0000
0000
0000
0000
0000
1000
0000
0100
0000
1000
0000
0010
0000
0001
0000
0010
0000
0100
0000
0000
0000
0000
0000
0001
0000
0000
0010
0000
0000
0000
0000
0000
0001
0000
0000
0010
0000
0000
0000
0000
0000
,  // measure 95
0100
0000
1000
0000
0010
0000
0100
0000
0010
0000
1000
0100
0010
0001
1000
0000
,  // measure 96
0100
0000
0000
0000
0000
0000
1000
0000
0000
0000
0000
0000
0001
0000
0100
0000
0001
0000
0010
0000
1000
0000
0010
0000
0100
0000
0000
0000
0000
0000
1000
0000
0000
0010
0000
0000
0000
0000
0000
1000
0000
0000
0010
0000
0000
0000
0000
0000
,  // measure 97
0100
0000
0001
0000
0010
0000
1000
0000
0010
0000
0001
1000
0000
0010
0100
0000
,  // measure 98
1000
0000
0100
0000
0001
0000
0010
0000
0100
0000
1000
0010
0000
1000
0010
0000
,  // measure 99
0100
0000
0000
0000
0000
0000
0001
0000
0000
0000
0000
0000
0010
0000
0100
0000
0001
0000
0100
0000
0010
0000
1000
0000
0010
0000
0000
0000
0000
0000
0001
0000
0000
0100
0000
0000
0010
0000
0000
1000
0000
0000
0001
0000
0000
0000
0000
0000
,  // measure 100
0100
0000
0001
0000
1000
0000
0010
0000
0100
0000
0010
0001
0000
0010
0100
0000
,  // measure 101
0001
0000
1000
0000
0100
0000
0001
0000
0100
0000
1000
0001
0000
1000
0100
0000
,  // measure 102
0110
0000
0000
0000
0000
0000
0100
1000
0010
0001
1000
0100
0001
0000
0000
0100
0000
0000
0101
0000
0000
0001
0000
0000
,  // measure 103
0010
0000
0000
0000
0100
0000
0000
0000
0010
1000
0100
0010
0001
0100
0010
1000
0100
0010
0001
0010
0100
1000
0001
0100
0001
0000
0000
0000
0001
0000
0000
0000
,  // measure 104
0100
0000
0000
0001
0000
0000
0010
0001
0100
1000
0001
0010
1000
0000
0000
0010
0000
0000
1010
0000
0000
1000
0000
0000
,  // measure 105
0010
0000
0000
0000
0100
0000
0000
0000
0010
1000
0100
1000
0010
0100
0001
0010
0100
1000
0001
1000
0100
0010
0001
0100
0001
0000
0000
0000
1000
0000
0000
0000
,  // measure 106
0010
0000
0000
0000
1000
0000
0000
0000
0001
0100
0001
0100
0001
0100
0001
0100
0001
0000
0100
0000
0001
0000
1000
0000
0100
0000
1000
0000
0100
0000
1000
0000
,  // measure 107
0100
0000
1000
0000
0100
0000
0010
0000
0001
0100
0100
1000
0100
0100
0001
0010
0010
1000
0010
0010
0001
1000
0100
1000
0100
0000
0000
0000
1000
0000
0000
0000
,  // measure 108
0001
0000
0000
0000
1000
0010
1000
0010
1000
0010
1000
0001
0010
0001
0010
0001
,  // measure 109
0010
0000
0000
0001
0000
0000
0010
0000
0000
0100
0000
0000
1000
0010
0100
0010
1000
0001
0100
0010
1000
0001
1000
0100
1000
0010
1000
0100
0010
0001
0010
0001
0100
0001
0100
0010
1000
0100
0010
0001
0100
1000
0100
0001
0010
1000
0010
0001
,  // measure 110
1000
0010
0001
1000
0100
0001
0010
1000
0001
0100
1000
0010
0001
1000
0001
1000
0001
1000
0001
1000
0001
1000
0001
1000
0100
0100
0100
0100
0100
0100
0100
0100
0100
0100
0100
0100
0100
0100
0100
0100
0100
0100
0100
0100
0100
0100
0100
0100
,  // measure 111
0100
0000
0000
0000
;

//---------------dance-single - NEIN WARUM----------------
#NOTEDATA:;
#CHARTNAME:;
#STEPSTYPE:dance-single;
#DESCRIPTION:NEIN WARUM;
#CHARTSTYLE:;
#DIFFICULTY:Medium;
#METER:9;
#RADARVALUES:0.325011,0.558657,0.130004,0.043335,0.000000,315.000000,297.000000,18.000000,6.000000,0.000000,0.000000,0.000000,0.000000,0.000000,0.325011,0.558657,0.130004,0.043335,0.000000,315.000000,297.000000,18.000000,6.000000,0.000000,0.000000,0.000000,0.000000,0.000000;
#CREDIT:Karl ohne C;
#NOTES:
0000
0000
0000
0000
,
0000
0000
0000
0000
,
0000
0000
0000
0000
,
0000
0000
0000
0000
,
0000
0000
0000
0000
,
0000
0000
0000
0000
,
0000
0000
0000
0000
,
0000
0000
0000
0000
,
0000
0000
0000
0000
,
0000
0000
0000
0000
,
1000
0000
0100
0000
,
1000
0000
0010
0000
,
1000
0000
0001
0000
,
0100
0000
0001
0000
,
0010
0001
0010
0001
,
1000
0010
1000
0010
,
0100
0001
0010
0100
,
1000
0001
1001
0000
,
1001
1000
0100
0010
,
0001
0100
0010
1000
,
1001
0001
0100
0010
,
1000
0100
0010
0001
,
1000
1000
0001
0001
,
1000
1000
0001
0001
,
1001
1001
1001
1001
,
0010
0010
0100
0010
,
0220
0000
0000
0000
,
0000
0000
0000
0330
,
1000
0100
0010
0100
,
1000
0010
0100
0010
,
1000
0001
0100
0010
,
0100
0000
0001
0000
0010
0000
0100
0010
,
0000
0001
0000
0010
0000
0001
0000
1000
,
0000
0010
0000
1000
0000
0010
0000
0100
,
0000
0001
0000
0010
0000
0100
0000
1000
,
0000
1000
0000
0001
0000
0001
1000
0000
,
0000
0010
0000
1000
,
0000
0000
1000
0001
,
0000
0010
0000
0001
,
0000
0000
0000
0000
0001
1000
0000
0000
,
0000
0100
0000
0000
0000
1000
0000
1000
,
0000
0000
1000
0000
0000
0001
0000
0000
,
0000
0100
0000
0000
0000
0010
0000
1000
,
0000
0010
0000
0000
1000
0000
0100
0000
,
1000
0100
0010
0001
,
0100
0001
0010
0010
,
0001
0100
0010
0010
,
0010
0000
0000
0001
0000
0100
0000
0001
,
0000
0100
0000
0010
0000
1000
0000
0100
,
0000
1000
0000
0010
0000
0010
0000
1000
,
0000
0100
0000
0010
0000
0010
0000
0010
,
0000
0001
0000
0001
,
0000
0000
0010
0000
0000
0100
0000
0000
,
0100
1000
0000
1000
,
0010
0000
0000
0100
0000
0000
0100
0000
,
0001
1000
0001
0000
,
0010
0100
0010
0100
,
1000
0010
0100
0100
,
0001
0000
0000
1001
0000
0000
0000
0000
,
2000
0000
0000
0000
,
0000
0000
0000
0000
,
0000
0000
0000
0000
,
0000
0000
0000
0000
,
3200
0000
0000
0000
,
0000
0000
0000
0000
,
0000
0000
0000
0000
,
0000
0000
0000
1300
,
0000
0002
0000
0000
0000
0000
0000
0000
,
0000
0000
0000
0000
,
0000
0000
0000
0000
,
0000
0000
0000
0103
,
0000
0200
0000
0000
0000
0000
0000
0000
,
0000
0000
0000
0000
,
0000
0000
0000
0000
,
0000
0000
0000
0000
0301
0000
0000
0010
,
0000
0100
0000
0000
1000
0000
0000
0000
,
0001
0000
1000
0000
,
0001
0000
1000
0000
,
0001
0000
0000
0000
1000
0000
0000
0010
,
0000
0100
0000
0000
0001
0000
0000
0000
,
1000
0000
0001
0000
,
1000
0000
0001
0000
,
1000
1000
0100
0010
,
0000
0010
0001
1000
,
0000
0010
0010
0010
,
0010
0100
0100
0100
,
0100
0001
1001
1000
,
0100
0010
0001
0100
,
0010
1000
1001
0001
,
0010
0100
1000
0010
,
0100
0001
0001
1000
,
1000
0010
0010
1000
,
1000
0001
0010
0001
,
0010
0001
0010
0001
,
0000
0001
1001
1000
,
0010
0100
0001
0010
,
0100
1000
1001
0001
,
0100
0010
1000
0100
,
0010
0001
0001
1000
,
1000
0100
0100
1000
,
1000
0001
0100
0001
,
0100
0001
0100
0001
,
0000
1001
1001
1000
,
1000
0010
0001
0010
,
1000
1001
1001
0001
,
0001
0010
1000
0010
,
0001
0000
1000
0010
1000
0000
0010
0000
,
1000
0001
0001
1000
,
1000
0000
0001
0010
0001
0000
0010
0000
,
0001
0000
0010
0100
0010
0000
0001
1000
,
0001
0100
0110
0000
;

//---------------dance-single - ----------------
#NOTEDATA:;
#CHARTNAME:;
#STEPSTYPE:dance-single;
#DESCRIPTION:;
#CHARTSTYLE:;
#DIFFICULTY:Easy;
#METER:4;
#RADARVALUES:0.167148,0.319233,0.021667,0.014445,0.000000,162.000000,159.000000,3.000000,2.000000,0.000000,0.000000,0.000000,0.000000,0.000000,0.167148,0.319233,0.021667,0.014445,0.000000,162.000000,159.000000,3.000000,2.000000,0.000000,0.000000,0.000000,0.000000,0.000000;
#CREDIT:Karl mit K;
#NOTES:
0000
0000
0000
0000
,
0000
0000
0000
0000
,
0000
0000
0000
0000
,
0000
0000
0000
0000
,
0000
0000
0000
0000
,
0000
0000
0000
0000
,
0000
0000
0000
0000
,
0000
0000
0000
0000
,
0000
0000
0000
0000
,
0000
0000
0000
0000
,
1000
0000
0000
0000
,
0000
0000
0000
0000
,
0010
0000
0000
0000
,
0000
0000
0000
0000
,
0100
0000
0000
0000
,
0000
0000
0000
0000
,
0001
0000
0000
0000
,
0000
0000
0000
0000
,
1000
0000
0000
0000
,
1000
0000
0000
0000
,
0001
0000
0000
0000
,
0001
0000
0000
0000
,
1000
0000
1000
0000
,
1000
0000
1000
0000
,
0001
0001
0001
0000
,
0001
0001
0001
0000
,
0220
0000
0000
0000
,
0000
0000
0000
0330
,
1001
0000
1000
0000
,
0100
0000
0010
0000
,
0001
0000
0100
0000
,
0010
0000
0000
0000
1000
0000
0000
1001
,
0000
0000
0000
0001
0000
0000
0000
0010
,
0000
0000
0000
0100
0000
0000
0000
1000
,
0000
0000
0000
0010
0000
0000
0000
0100
,
0000
0000
0000
0001
0000
0000
1000
0000
,
0000
0000
0000
0100
,
0000
0000
1000
0001
,
0000
0000
0000
0100
,
0000
0000
0000
0000
0000
0001
0000
0000
,
0000
0000
0000
0100
0000
0000
0000
0100
,
0000
0000
0000
0000
0000
0001
0000
0000
,
0000
0000
0000
0000
0000
0010
0000
0000
,
0000
0010
0000
0000
0001
0000
0000
0000
,
0100
0000
0001
0000
,
0100
0000
0010
0000
,
1000
0000
0100
0000
,
1000
0000
0000
1000
0000
0000
0000
0100
,
0000
0000
0000
1000
0000
0000
0000
0100
,
0000
0000
0000
0010
0000
0000
0000
0010
,
0000
0000
0000
0010
0000
0000
0000
0010
,
0000
0001
0000
0000
,
0000
1000
0000
0000
,
0000
0001
0000
0000
,
0000
1000
0000
0000
,
0000
0100
0000
0000
0000
0000
0000
0000
,
0000
0010
0000
0000
0000
0000
0000
0000
,
0000
0100
0000
0000
0000
0000
0000
0000
,
0000
0010
0000
0000
0000
0000
0000
0000
,
0001
0000
0000
0000
,
0000
0000
0000
0000
,
0000
0000
0000
0000
,
0000
0000
0000
0000
,
0000
0000
0000
0000
,
0000
0000
0000
0000
,
0000
0000
0000
0000
,
0000
0000
0000
1000
,
0000
1000
0000
0000
0000
0000
0000
0000
,
0000
0000
0000
0000
,
0000
0000
0000
0000
,
0000
0000
0000
0001
,
0000
0001
0000
0000
0000
0000
0000
0000
,
0000
0000
0000
0000
,
0000
0000
0000
0000
,
0000
0000
1000
0000
,
1000
0000
0100
0000
,
0010
0000
0001
0000
,
0100
0000
0010
0000
,
1000
0000
0001
0000
,
0001
0000
0010
0000
,
0100
0000
1000
0000
,
0010
0000
0100
0000
,
0001
0001
0000
0001
,
0000
0001
0000
0001
,
0000
1000
1000
1000
,
0000
1000
1000
1000
,
0000
0001
0000
0010
,
0000
0100
0000
1000
,
0000
1000
0000
0010
,
0000
0100
0000
0010
,
0000
1000
0000
1000
,
0000
1000
0000
1000
,
0000
0001
0000
0001
,
0000
0001
0000
0001
,
0000
1000
0000
0100
,
0000
0010
0000
0001
,
0000
0001
0000
0100
,
0000
0010
0000
0100
,
0000
0001
0000
0001
,
0000
0001
0000
0001
,
0000
1000
0000
1000
,
0000
1000
0000
1000
,
0000
0001
0001
0001
,
0000
1000
1000
1000
,
0000
0001
0001
0001
,
0000
1000
1000
1000
,
0000
0100
0100
0100
,
0000
0010
0010
0010
,
0000
0001
0001
0001
,
0000
0100
0010
0100
,
0000
0010
0010
0000
;

//---------------dance-single - ----------------
#NOTEDATA:;
#CHARTNAME:;
#STEPSTYPE:dance-single;
#DESCRIPTION:;
#CHARTSTYLE:;
#DIFFICULTY:Beginner;
#METER:1;
#RADARVALUES:0.075320,0.199069,0.050557,0.000000,0.000000,73.000000,66.000000,7.000000,0.000000,0.000000,0.000000,0.000000,0.000000,0.000000,0.075320,0.199069,0.050557,0.000000,0.000000,73.000000,66.000000,7.000000,0.000000,0.000000,0.000000,0.000000,0.000000,0.000000;
#CREDIT:Karl mit K;
#NOTES:
0000
0000
0000
0000
,
0000
0000
0000
0000
,
0000
0000
0000
0000
,
0000
0000
0000
0000
,
0000
0000
0000
0000
,
0000
0000
0000
0000
,
0000
0000
0000
0000
,
0000
0000
0000
0000
,
0000
0000
0000
0000
,
0000
0000
0000
0000
,
1000
0000
0000
0000
,
0000
0000
0000
0000
,
0000
0000
0000
0000
,
0000
0000
0000
0000
,
0001
0000
0000
0000
,
0000
0000
0000
0000
,
0000
0000
0000
0000
,
0000
0000
0000
0000
,
1000
0000
0000
0000
,
0000
0000
0000
0000
,
0001
0000
0000
0000
,
0000
0000
0000
0000
,
1000
0000
0000
0000
,
0000
0000
0000
0000
,
0001
0000
0000
0000
,
0001
0000
0000
0000
,
1001
0000
0000
0000
,
0000
0000
0000
0000
,
1001
0000
0000
0000
,
0000
0000
0000
0000
,
0000
0000
0000
0000
,
0000
0000
0000
0000
0000
0000
0000
1001
,
0000
0000
0000
0000
,
0000
0000
0000
0000
,
0000
0000
0000
0000
,
0000
0000
0000
1000
,
0000
0000
0000
0000
,
0000
0000
0000
0001
,
0000
0000
0000
0000
,
0000
0000
0000
0000
0000
0010
0000
0000
,
0000
0000
0000
0000
,
0000
0000
0000
0000
0000
0100
0000
0000
,
0000
0000
0000
0000
,
0000
0000
1000
0000
,
0000
0000
0001
0000
,
0000
0000
0100
0000
,
0000
0000
0010
0000
,
0000
0000
0000
1000
0000
0000
0000
0000
,
0000
0000
0000
0001
0000
0000
0000
0000
,
0000
0000
0000
0010
0000
0000
0000
0000
,
0000
0000
0000
0010
0000
0000
0000
0000
,
0000
0001
0000
0000
,
0000
0000
0000
0000
,
0000
0001
0000
0000
,
0000
0000
0000
0000
,
0000
1000
0000
0000
0000
0000
0000
0000
,
0000
0000
0000
0000
,
0000
1000
0000
0000
0000
0000
0000
0000
,
0000
0000
0000
0000
,
0001
0000
0000
0000
,
0000
0000
0000
0000
,
0000
0000
0000
0000
,
0000
0000
0000
0000
,
0000
0000
0000
0000
,
0000
0000
0000
0000
,
0000
0000
0000
0000
,
0000
0000
0000
1000
,
0000
0000
0000
0000
,
0000
0000
0000
0000
,
0000
0000
0000
0000
,
0000
0000
0000
0001
,
0000
0000
0000
0000
,
0000
0000
0000
0000
,
0000
0000
0000
0000
,
0000
0000
1000
0000
,
0000
0000
0100
0000
,
0000
0000
0010
0000
,
0000
0000
0001
0000
,
0000
0000
0001
0000
,
0000
0000
0100
0000
,
0000
0000
0010
0000
,
0000
0000
1000
0000
,
0000
0001
0000
0000
,
0000
0000
0000
0000
,
0000
1000
0000
0000
,
0000
1000
0000
0000
,
0000
1001
0000
0000
,
0000
0000
0000
0000
,
0000
1001
0000
0000
,
0000
0000
0000
0000
,
0000
1000
0000
0000
,
0000
1000
0000
0000
,
0000
0001
0000
0000
,
0000
0001
0000
0000
,
0000
1001
0000
0000
,
0000
0000
0000
0000
,
0000
1001
0000
0000
,
0000
0000
0000
0000
,
0000
0001
0000
0000
,
0000
0001
0000
0000
,
0000
1000
0000
0000
,
0000
1000
0000
0000
,
0000
0001
0000
0001
,
0000
0001
0000
0000
,
0000
0001
0000
0001
,
0000
0001
0000
0000
,
0000
1000
0000
1000
,
0000
1000
0000
0000
,
0000
1000
0000
1000
,
0000
1000
0000
1000
,
0000
1000
0000
0000
;
