#VERSION:0.83;
#TITLE:Masquerade;
#SUBTITLE:;
#ARTIST:M2U;
#TITLETRANSLIT:;
#SUBTITLETRANSLIT:;
#ARTISTTRANSLIT:;
#GENRE:BALLROOM;
#ORIGIN:;
#CREDIT:;
#BANNER:Masquerade.png;
#BACKGROUND:Masquerade-bg.png;
#PREVIEWVID:;
#JACKET:Masquerade-jacket.png;
#CDIMAGE:;
#DISCIMAGE:;
#LYRICSPATH:;
#CDTITLE:;
#MUSIC:Masquerade.ogg;
#OFFSET:-0.881710;
#SAMPLESTART:49.603016;
#SAMPLELENGTH:12.000000;
#SELECTABLE:YES;
#BPMS:0.000=128.000;
#STOPS:;
#DELAYS:;
#WARPS:;
#TIMESIGNATURES:0.000=4=4;
#TICKCOUNTS:0.000=4;
#COMBOS:0.000=1;
#SPEEDS:0.000=1.000=0.000=0;
#SCROLLS:0.000=1.000;
#FAKES:;
#LABELS:0.000=Song Start;
#BGCHANGES:;
#KEYSOUNDS:;
#ATTACKS:
;

//---------------dance-single - ----------------
#NOTEDATA:;
#CHARTNAME:;
#STEPSTYPE:dance-single;
#DESCRIPTION:;
#CHARTSTYLE:;
#DIFFICULTY:Hard;
#METER:16;
#RADARVALUES:0.729802,0.861017,0.042454,0.827850,0.665110,722.000000,716.000000,6.000000,117.000000,0.000000,0.000000,0.000000,0.000000,0.000000,0.729802,0.861017,0.042454,0.827850,0.665110,722.000000,716.000000,6.000000,117.000000,0.000000,0.000000,0.000000,0.000000,0.000000;
#CREDIT:BlindedVanguard573;
#NOTES:
0000
0000
0000
0000
,
0000
0000
0000
0000
,
0000
0000
0000
0000
,
0000
0000
0000
0000
,
2000
0000
0010
0000
3001
0000
1000
0010
0200
0000
0001
0000
0310
0000
0200
0000
,
0302
0000
0010
0000
1003
0000
0001
0010
0200
0000
1000
0000
0310
0000
0200
0000
,
2300
0000
0100
0000
3001
0000
1000
0010
0200
0000
0001
0000
0310
0000
0200
0000
,
0302
0000
0010
0000
2003
0000
3010
1000
0001
0010
0100
1000
0002
0000
1003
0000
,
0002
0000
0100
0000
0103
0000
0001
1000
0200
0000
1000
0000
1300
0000
0001
0000
,
1000
0010
0001
0010
1000
0000
0002
0000
,
2003
0000
0100
0000
3100
0000
1000
0100
0010
0000
0001
0000
0010
0000
0100
0000
,
2000
0000
0010
0000
3010
0000
1000
0010
0100
0000
0001
0000
0100
0000
1000
0000
,
0200
0000
0001
0000
0301
0000
1000
0010
0100
0000
0001
0010
0100
1000
0100
0010
,
0002
0000
0010
0000
2003
0000
3001
0000
0100
0000
0010
1000
0002
0000
2003
0000
,
3002
0000
0100
0000
1003
0000
0001
0000
2000
0000
0100
0000
3001
0000
1000
0100
,
0010
0001
1000
0001
0200
0301
1000
0001
,
0020
0000
0130
0000
2000
0000
3002
0000
0203
0000
0310
1000
0001
0000
1000
0000
,
0001
0000
0010
0000
1000
0000
0010
0000
0001
0000
1000
0000
1001
0000
0001
0100
,
0020
0000
1000
0000
1030
0000
1000
0100
0020
0000
0001
0000
0031
0000
1000
0001
,
0200
0000
0010
0000
0310
0000
0100
0001
0010
0000
0010
0001
0100
0000
0001
1000
,
0200
0000
1000
0000
1300
0000
0100
1000
0010
0000
0010
1000
0010
0100
0001
1000
,
0002
0000
0010
0000
0013
0000
0001
1000
0010
0000
0010
1000
0100
0010
0001
0100
,
0002
0010
0103
0001
2000
0010
3100
1000
,
0002
0000
0000
0013
0100
1000
0100
0010
0002
0000
1000
0000
1003
0000
0001
0100
,
0020
0000
0000
0130
0001
1000
0100
1000
0002
0000
1003
0010
0100
0001
1000
0010
,
1000
0000
0100
0000
0001
0000
0100
0000
1000
0000
0000
1000
0002
0000
0003
0000
,
2000
0000
0010
0000
3010
0000
1000
0100
0010
0000
0001
0010
0200
0000
1300
0000
,
0002
0000
1000
0000
1003
0000
0001
0100
0010
0000
1000
0010
0200
0000
0301
0000
,
1000
0000
0001
0010
0001
0010
0100
0010
0100
0000
1000
0001
0100
0000
0001
1000
,
0200
0000
1000
0000
0001
0300
0100
1000
,
0002
0000
0100
0000
0103
0000
0001
0010
0100
0000
1000
0100
0020
0000
0031
0000
,
2000
0000
0100
0000
3001
0000
1000
0010
0100
0000
0001
0100
0010
0000
1000
0001
,
1000
0000
0001
0100
0010
1000
0001
1000
0200
0000
0010
0000
0310
0000
0001
1000
,
0002
0000
0000
0000
0003
0000
0100
0010
0100
0000
0000
0000
0001
0000
1000
0000
0001
0000
0000
0000
0010
0000
0000
0000
2000
0000
0000
0000
3010
0000
0001
0000
,
2000
0000
0010
0000
3001
0000
1000
0010
0100
0000
1000
0100
2000
0000
3100
0000
,
0002
0000
0010
0000
0013
0000
0001
0010
0100
0000
0001
0100
0002
0000
0103
0000
,
2000
0000
3001
0100
0010
1000
0001
0010
0100
0000
0010
0001
1000
0000
0010
1000
,
0200
0000
0001
0000
1000
0000
0310
0001
,
2000
0000
0100
0000
3100
0000
1000
0100
0010
0000
1000
0010
2000
0000
3010
0000
,
0002
0000
0100
0000
1003
0000
0001
0100
0010
0000
0001
0010
0001
0000
0010
1000
,
0002
0000
1003
0100
0010
0001
0100
0010
2000
0000
0001
0000
3001
0000
1000
0100
,
0010
0001
0100
1000
0100
0000
1001
0000
,
2000
0000
3010
0100
0010
0000
1000
0000
0002
0000
0013
0100
0010
0000
0001
0000
,
2000
0000
3001
0100
0001
0000
1000
0000
0002
0000
1003
0010
1000
0000
0001
0000
,
2000
0000
3001
0010
0100
0000
1000
0000
0002
0000
1003
0010
0100
0000
0001
0000
,
2000
0000
0000
0000
0000
0000
3100
0000
0000
0000
0000
0000
0002
0000
0000
0000
0000
0000
0103
0000
0000
1000
0000
0000
0002
0000
0000
0000
0000
0000
0100
0000
0000
0000
0000
0000
0013
0000
0000
0000
0000
0000
0001
0000
0100
0000
0010
0000
,
2000
0000
0000
0100
0000
0000
3010
0000
1002
0000
0000
0100
0000
0000
0013
0000
,
0011
0000
0000
0000
0000
0000
0000
0000
0000
1100
0000
0000
0000
0000
0000
0000
0000
0000
1000
0000
0010
0000
0100
0000
0001
0000
0000
0100
0000
0000
0010
0000
0000
1000
0000
0000
0002
0000
0000
0000
0000
0000
1003
0000
0000
0000
0000
0000
,
0002
0000
0013
0100
1000
0000
0001
0000
2000
0000
3010
0100
0001
0000
1000
0000
,
0002
0000
0000
0000
0000
0000
0013
0000
0000
0000
0000
0000
2000
0000
0000
0000
0000
0000
3010
0000
0000
0001
0000
0000
1000
0000
0001
0000
1000
0000
0001
0000
1000
0000
0001
0000
1000
0000
0000
0010
0000
0000
0100
0000
0000
0001
0000
0000
,
2000
0000
0000
0000
0100
0000
0000
0000
3001
0000
0000
0000
1000
0000
0001
0100
0002
0000
0000
0000
1003
0000
0001
0000
0100
0000
0001
0000
1000
0000
0100
0000
,
0020
0000
0000
0000
0031
0000
0100
0000
0010
0000
1000
0000
0001
0000
1000
0100
2000
0000
0000
0000
3001
0000
0000
0000
1000
0000
0010
0000
0100
0000
0010
0000
,
2000
0000
3001
0010
0100
1000
0010
0100
0001
1000
0001
0100
0010
1000
0010
0100
,
0002
0000
0000
1003
0000
0000
0100
0000
0000
1000
0000
0000
0002
0000
0000
1003
0000
0000
0010
0000
0000
1000
0000
0000
0001
0000
0010
0000
0001
0000
1000
0000
0000
0001
0000
0000
2000
0000
0000
0000
0000
0000
3001
0000
0000
0000
0000
0000
,
2000
0000
3010
0100
1000
0000
0100
0000
0002
0000
0013
0100
0001
0000
0100
0000
,
1000
0010
0100
0010
0001
0010
0100
0010
2000
0000
0100
0000
3002
0000
0103
0001
,
2000
0000
0000
0000
3000
0000
0001
0100
0001
0000
0010
0000
0100
0000
1000
0000
0001
0000
0100
0000
0010
0000
0100
0000
1000
0000
0100
0000
0001
0000
1000
0000
,
0001
0010
1000
0010
0001
0000
1001
0000
,
2000
0000
0010
0000
3010
0000
1000
0010
0100
0000
1000
0100
0002
0000
1003
0000
,
0002
0000
0010
0000
0013
0000
0001
0010
0100
0000
0001
0100
2000
0000
3001
0000
,
1000
0000
0001
0100
0010
1000
0001
1000
0100
0000
0010
0001
0100
0000
0010
1000
,
0200
0000
0001
0000
1000
0000
0310
0001
,
2000
0000
0100
0000
3100
0000
1000
0100
0010
0000
1000
0010
0002
0000
1003
0000
,
0002
0000
0100
0000
1003
0000
0001
0100
0010
0000
0001
0010
2000
0000
3001
0010
,
0200
0000
1300
0010
0100
0010
0001
0010
2000
0000
0001
0000
3001
0000
1000
0100
,
0020
0000
0000
0000
0000
0000
0031
0100
0001
0000
0000
0000
1000
0000
0001
0000
1000
0000
0000
0000
0010
0000
0000
0000
0002
0000
0000
0000
0013
0000
1000
0000
,
0002
0000
0010
0000
1003
0000
0001
0010
1000
0000
0001
0100
2000
0000
3001
0000
,
2000
0000
0010
0000
3010
0000
1000
0010
0001
0000
1000
0100
0002
0000
1003
0000
,
0001
0000
1000
0100
0010
0100
0001
0100
0010
0000
0100
1000
0010
0000
0100
0001
,
0020
0000
1000
0000
0001
0000
0130
1000
,
0002
0000
0100
0000
0103
0000
0001
0100
1000
0000
0001
0010
2000
0000
3001
0000
,
2000
0000
0100
0000
3001
0000
1000
0100
0001
0000
1000
0010
0002
0000
1003
0001
,
2000
0000
3001
0100
0010
0100
1000
0100
0002
0000
1000
0000
1003
0000
0001
1000
,
0001
0000
0000
0010
0000
0000
1000
0000
0000
0010
0000
0000
0002
0000
0000
1003
0010
0100
0001
0000
0000
0000
0000
0000
;

//---------------dance-single - ----------------
#NOTEDATA:;
#CHARTNAME:;
#STEPSTYPE:dance-single;
#DESCRIPTION:;
#CHARTSTYLE:;
#DIFFICULTY:Medium;
#METER:11;
#RADARVALUES:0.546846,0.574011,0.148588,0.502370,0.116748,541.000000,520.000000,21.000000,71.000000,0.000000,0.000000,0.000000,0.000000,0.000000,0.546846,0.574011,0.148588,0.502370,0.116748,541.000000,520.000000,21.000000,71.000000,0.000000,0.000000,0.000000,0.000000,0.000000;
#CREDIT:BlindedVanguard573;
#NOTES:
// measure 0
0000
0000
0000
0000
,  // measure 1
0000
0000
0000
0000
,  // measure 2
0000
0000
0000
0000
,  // measure 3
0000
0000
0000
0000
,  // measure 4
2100
3010
0102
0013
,  // measure 5
2010
3100
0012
0103
,  // measure 6
2001
3100
1002
0103
,  // measure 7
0011
0000
0000
0000
1100
0000
0000
0100
1000
0000
0010
0000
0100
0000
0000
0000
,  // measure 8
0001
0010
0010
0001
1000
0010
0010
1000
,  // measure 9
0001
0100
0010
1000
0001
0000
1001
0000
,  // measure 10
2000
0000
3100
0000
0010
0001
1000
0001
,  // measure 11
0200
0000
0310
0000
1000
0001
1000
0100
,  // measure 12
0020
0000
0031
1000
0001
0010
0100
1000
,  // measure 13
0002
0000
0103
1000
0100
0001
1000
0001
,  // measure 14
2000
0000
3010
0010
0200
0000
0301
0001
,  // measure 15
1000
0100
0010
0001
0020
0000
0130
1000
,  // measure 16
0002
0003
0100
0001
1000
0010
0100
0001
,  // measure 17
1000
0100
0010
0001
1000
0000
1001
0000
,  // measure 18
0002
0100
0103
0001
2000
0100
3100
1000
,  // measure 19
0002
0010
0013
0001
1000
0010
0100
0001
,  // measure 20
2000
0000
0100
0000
3100
0000
1000
0000
0001
0000
0000
0001
0010
0000
0100
0000
,  // measure 21
2000
0001
3001
1000
0001
0100
1000
0100
,  // measure 22
0002
0010
1003
0001
2000
0010
3001
1000
,  // measure 23
0001
0000
0000
0001
0100
0000
0001
0000
2000
0000
0100
0000
3100
0000
1000
0000
,  // measure 24
0001
0000
0000
0001
0010
0000
0100
0000
1000
0000
0001
0000
0100
0000
0010
0000
,  // measure 25
1000
0000
0100
0000
0010
0000
0001
0000
1000
0000
0000
1000
0002
0000
0000
0000
,  // measure 26
2003
0010
3010
1000
0001
0010
1000
0010
,  // measure 27
0002
0100
0103
0001
1000
0100
0001
0100
,  // measure 28
1000
0100
0010
0001
0001
0010
0100
1000
,  // measure 29
2000
0000
0010
0000
0001
0000
3010
1000
,  // measure 30
0002
0010
0013
0001
1000
0010
0001
0010
,  // measure 31
2000
0100
3001
1000
0001
0100
1000
0100
,  // measure 32
0001
0010
0100
1000
0001
1000
1000
0001
,  // measure 33
0100
0000
0000
0100
0010
0000
0100
0000
0001
0000
1000
0000
0020
0000
0130
0000
,  // measure 34
0002
0100
0103
0001
1000
0100
0001
0100
,  // measure 35
2000
0010
3010
1000
0001
0010
1000
0010
,  // measure 36
0001
0010
0100
1000
1000
0100
0010
0001
,  // measure 37
0002
0000
0100
0000
1000
0000
0103
0001
,  // measure 38
2000
0100
3100
1000
0001
0100
1000
0100
,  // measure 39
0002
0010
1003
0001
1000
0010
0001
0010
,  // measure 40
1000
0100
0010
0001
1000
0001
0001
1000
,  // measure 41
0001
0100
0010
1000
0001
0000
1001
0000
,  // measure 42
2000
0000
3010
1000
0002
0000
0013
0001
,  // measure 43
2000
0000
3100
1000
0002
0000
0103
0001
,  // measure 44
2000
0000
3010
1000
0200
0000
0310
0001
,  // measure 45
0101
0000
1010
0010
0200
0000
0301
1000
,  // measure 46
2100
0000
0000
0010
0000
0000
3001
0000
0102
0000
0000
0010
0000
0000
1003
0000
,  // measure 47
1001
0000
0000
1001
0000
0000
0001
1000
0001
0000
0100
0000
2000
0000
0000
0000
,  // measure 48
3200
0000
0310
1000
0002
0000
0013
0100
,  // measure 49
1100
0000
0000
0000
0011
0000
0001
1000
0002
0000
0203
0000
0310
0000
1000
0000
,  // measure 50
0002
0010
0013
0001
1000
0010
0100
1000
,  // measure 51
0200
0301
1000
0100
0002
0103
0010
0001
,  // measure 52
2000
3010
0100
1000
0100
0001
1000
0001
,  // measure 53
0010
0000
0010
0000
0100
0000
0100
0000
1000
0000
0001
0100
0001
0000
1000
0000
,  // measure 54
0001
0000
0010
0100
0020
0000
0031
0000
1000
0000
0010
0100
0020
0000
1030
0000
,  // measure 55
0001
0000
0010
0000
0100
0000
0010
0000
1000
0000
0010
0000
0001
0000
1000
0010
,  // measure 56
0100
0000
0000
0100
0001
0000
1000
0000
0001
0000
0010
0000
1000
0000
0010
0000
,  // measure 57
0001
0100
0010
1000
0001
0000
1001
0000
,  // measure 58
2000
0010
3010
1000
0001
0010
1000
0010
,  // measure 59
0002
0100
0103
0001
1000
0100
0001
0100
,  // measure 60
1000
0000
0010
0000
0100
0000
0001
0000
1000
0000
0001
0010
0001
0000
1000
0010
,  // measure 61
2000
0000
0010
0000
0001
0000
3100
1000
,  // measure 62
0002
0100
0103
0001
1000
0100
0001
0100
,  // measure 63
2000
0010
3001
1000
0001
0010
1000
0010
,  // measure 64
0001
0000
0100
0000
0010
0000
1000
0001
2000
0000
0100
0000
3100
0000
1000
0000
,  // measure 65
0001
0000
0000
0001
0100
0000
0010
0000
1000
0000
0001
0000
0020
0000
0130
0000
,  // measure 66
2000
0000
0100
0000
3100
0000
1000
0100
1000
0000
0001
0100
0002
0000
1003
0000
,  // measure 67
0002
0000
0010
0000
0013
0000
0001
0010
0001
0000
1000
0010
2000
0000
3001
0000
,  // measure 68
1000
0000
0001
0010
0100
0000
1000
0000
0001
0000
1000
0010
0100
0000
0001
0100
,  // measure 69
0020
0000
1000
0000
0001
0000
0130
0010
,  // measure 70
2000
0000
0010
0000
3010
0000
1000
0010
1000
0000
0001
0010
0002
0000
1003
0000
,  // measure 71
0002
0000
0100
0000
1003
0000
0001
0100
0001
0000
1000
0100
2000
0000
3001
0000
,  // measure 72
1000
0000
0001
0100
0010
0000
1000
0000
0002
0000
0010
0000
0013
0000
0100
1000
,  // measure 73
0001
0100
0010
1000
0001
0000
1001
0000
;

//---------------dance-single - ----------------
#NOTEDATA:;
#CHARTNAME:;
#STEPSTYPE:dance-single;
#DESCRIPTION:;
#CHARTSTYLE:;
#DIFFICULTY:Easy;
#METER:7;
#RADARVALUES:0.412409,0.417463,0.311328,0.261799,0.003538,408.000000,364.000000,44.000000,37.000000,0.000000,0.000000,0.000000,0.000000,0.000000,0.412409,0.417463,0.311328,0.261799,0.003538,408.000000,364.000000,44.000000,37.000000,0.000000,0.000000,0.000000,0.000000,0.000000;
#CREDIT:BlindedVanguard573;
#NOTES:
0000
0000
0000
0000
,
0000
0000
0000
0000
,
0000
0000
0000
0000
,
0000
0000
0000
0000
,
2000
3100
0020
0031
,
2000
3010
0200
0301
,
0020
0130
2000
3001
,
1010
0000
0101
0000
1000
0001
1000
0000
,
0001
0010
0010
0000
0100
1000
1000
0000
,
0001
0100
0010
1001
,
2000
3100
1000
0001
,
0200
0301
1000
0010
,
2000
3010
1000
0001
,
0020
0000
0130
0000
1000
0001
1000
0000
,
0002
0103
2000
3100
,
0010
0100
0010
0000
0100
0000
0001
1000
,
0002
0000
0013
0000
0100
1000
0100
0000
,
1000
0010
0100
0001
1000
0000
1001
0000
,
0001
0001
0001
0000
0010
0010
0010
0000
,
0100
0100
0100
0000
1000
0000
0001
0000
,
1000
1000
1000
0000
0010
0000
0100
0000
,
0001
0001
0001
0000
1000
1000
1000
0000
,
0010
0100
0100
0000
0100
0010
0010
0000
,
2000
0000
3001
0000
0010
0100
0100
0000
,
2000
0000
3001
0000
0100
0010
0100
0000
,
0001
0010
0100
1000
0001
0000
1001
0000
,
1000
0010
0010
0000
0101
0000
1010
0000
,
0001
0010
0010
0000
1100
0000
0011
0000
,
1000
0010
0100
0000
0001
0100
0010
0000
,
2000
0100
0001
3010
,
1000
0010
0100
0000
0101
0000
1010
0000
,
0001
0010
0100
0000
1100
0000
0011
0000
,
1000
0010
0100
0000
0001
0010
0100
0000
,
2000
0000
3001
0000
0100
0010
0100
0010
,
1000
0100
0010
0000
0011
0000
0101
0000
,
0001
0100
0010
0000
1010
0000
1100
0000
,
1000
0100
0010
0000
0001
0100
0010
0000
,
2000
0010
0001
3100
,
1000
0001
0100
0000
0101
0000
1010
0000
,
0001
1000
0100
0000
1100
0000
0011
0000
,
1000
0010
0100
0000
0001
0010
0100
0000
,
1000
0100
0010
0001
1000
0000
1001
0000
,
0002
0103
2000
3100
,
0002
0013
2000
3010
,
0002
0103
2000
3100
,
0020
0230
0302
1003
,
2200
3300
0022
0033
,
1000
0000
0000
1000
0000
0000
1000
0000
0020
0000
0000
0000
0130
0000
0000
0000
,
0002
0103
2000
3100
,
0110
0000
1001
0000
1000
0001
0100
0000
,
0001
0010
0010
0000
0100
1000
0001
0000
,
1000
0010
0010
0000
0100
0001
1000
0001
,
0010
0100
0100
0000
1000
0010
1000
0010
,
0100
0001
0100
0001
1000
0100
1000
0100
,
0010
0100
0100
0000
1000
0001
0001
0000
,
1000
0010
0100
0001
0010
0100
0100
0000
,
1000
0100
0010
0001
0001
0010
0100
1000
,
0001
0100
0010
1000
0001
0000
1001
0000
,
0001
0100
0100
0000
1010
0000
0101
0000
,
1000
0100
0100
0000
0011
0000
1100
0000
,
0001
0100
0010
0000
1000
0010
0100
0000
,
0002
0010
1000
0103
,
0001
0100
0010
0000
1010
0000
0101
0000
,
1000
0100
0010
0000
0011
0000
1100
0000
,
0001
0100
0010
0000
1000
0100
0010
0000
,
0002
0000
1003
0000
0010
0100
0010
0100
,
0001
0010
0100
0000
1100
0000
1010
0000
,
1000
0010
0100
0000
0101
0000
0011
0000
,
0001
0010
0100
0000
1000
0010
0100
0000
,
0002
0100
1000
0013
,
0001
1000
0010
0000
1010
0000
0101
0000
,
1000
0001
0010
0000
0011
0000
1100
0000
,
0001
0100
0010
0000
1000
0100
0010
0000
,
0001
0010
0100
1000
0001
0000
1001
0000
;

//---------------dance-single - ----------------
#NOTEDATA:;
#CHARTNAME:;
#STEPSTYPE:dance-single;
#DESCRIPTION:;
#CHARTSTYLE:;
#DIFFICULTY:Beginner;
#METER:3;
#RADARVALUES:0.190031,0.182640,0.000000,0.000000,0.000000,188.000000,188.000000,0.000000,0.000000,0.000000,0.000000,0.000000,0.000000,0.000000,0.190031,0.182640,0.000000,0.000000,0.000000,188.000000,188.000000,0.000000,0.000000,0.000000,0.000000,0.000000,0.000000,0.000000;
#CREDIT:BlindedVanguard573;
#NOTES:
0000
0000
0000
0000
,
0000
0000
0000
0000
,
0000
0000
0000
0000
,
0000
0000
0000
0000
,
1000
0000
0010
0000
,
0100
0000
0001
0000
,
1000
0000
0100
0000
,
0010
0010
0010
0010
,
0010
0000
0100
0000
,
1000
1000
1000
0000
,
0001
0000
0100
0100
,
0100
0000
0010
0010
,
0010
0000
1000
1000
,
1000
0000
0001
0001
,
0001
0000
0010
0000
,
0100
0100
0100
0000
,
0010
0000
0001
0000
,
1000
1000
1000
0000
,
0001
0001
0001
0000
,
0010
0010
0010
0000
,
0100
0100
0100
0000
,
1000
1000
1000
0000
,
0001
0001
0001
0000
,
0100
0100
0100
0000
,
0010
0010
0010
0000
,
1000
1000
1000
0000
,
0010
0010
0000
0100
,
0100
0100
0000
0001
,
0001
0000
0010
0000
,
0100
0000
0000
1000
,
1000
0000
0010
0010
,
0010
0000
0100
0100
,
0100
0000
0001
0000
,
1000
0000
0010
0010
,
0010
0010
0000
0100
,
0100
0100
0000
0001
,
0001
0000
0010
0000
,
0100
0000
1000
1000
,
1000
0000
0010
0010
,
0010
0000
0100
0100
,
0100
0000
0001
0000
,
1000
1000
1000
1000
,
1000
0000
0010
0000
,
0100
0000
0001
0000
,
0010
0000
0100
0000
,
1000
1000
1000
0000
,
0001
0000
0010
0000
,
0100
0000
1000
0000
,
0001
0000
0100
0000
,
0010
0010
0010
0010
,
0010
0000
0100
0000
,
0001
0001
0001
0000
,
0010
0000
0100
0000
,
1000
1000
1000
0000
,
0001
0000
1000
0000
,
0010
0010
0010
0000
,
0100
0000
0001
0000
,
0010
0010
0010
0000
,
0100
0100
0000
0010
,
0010
0010
0000
1000
,
1000
0000
0100
0000
,
0010
0000
0000
0001
,
0001
0000
0100
0100
,
0100
0000
0010
0010
,
0010
0000
1000
0000
,
0001
0000
0100
0100
,
0100
0100
0000
0010
,
0010
0010
0000
1000
,
1000
0000
0100
0000
,
0010
0000
0001
0001
,
0001
0000
0100
0100
,
0100
0000
0010
0010
,
0010
0000
1000
0000
,
0001
0001
0001
0001
;
